  0
SECTION
  2
HEADER
  9
$ACADVER
  1
AC1014
  9
$ACADMAINTVER
 70
             0
  9
$DWGCODEPAGE
  3
ANSI_1252
  9
$INSBASE
 10
0.0
 20
0.0
 30
0.0
  9
$EXTMIN
 10
1.00000000000000E+20
 20
1.00000000000000E+20
 30
1.00000000000000E+20
  9
$EXTMAX
 10
-1.00000000000000E+20
 20
-1.00000000000000E+20
 30
-1.00000000000000E+20
  9
$LIMMIN
 10
0.0
 20
0.0
  9
$LIMMAX
 10
0.0
 20
0.0
  9
$ORTHOMODE
 70
             0
  9
$REGENMODE
 70
             1
  9
$FILLMODE
 70
             1
  9
$QTEXTMODE
 70
             0
  9
$MIRRTEXT
 70
             1
  9
$DRAGMODE
 70
             2
  9
$LTSCALE
 40
1.0
  9
$OSMODE
 70
             0
  9
$ATTMODE
 70
             1
  9
$TEXTSIZE
 40
0.2
  9
$TRACEWID
 40
0.05
  9
$TEXTSTYLE
  7
STANDARD
  9
$CLAYER
  8
0
  9
$CELTYPE
  6
CONTINUOUS
  9
$CECOLOR
 62
           256
  9
$CELTSCALE
 40
1.0
  9
$DELOBJ
 70
             1
  9
$DISPSILH
 70
             0
  9
$DIMSCALE
 40
1.0
  9
$DIMASZ
 40
0.18
  9
$DIMEXO
 40
0.0625
  9
$DIMDLI
 40
0.38
  9
$DIMRND
 40
0.0
  9
$DIMDLE
 40
0.0
  9
$DIMEXE
 40
0.18
  9
$DIMTP
 40
0.0
  9
$DIMTM
 40
0.0
  9
$DIMTXT
 40
0.18
  9
$DIMCEN
 40
0.09
  9
$DIMTSZ
 40
0.0
  9
$DIMTOL
 70
             0
  9
$DIMLIM
 70
             0
  9
$DIMTIH
 70
             1
  9
$DIMTOH
 70
             1
  9
$DIMSE1
 70
             0
  9
$DIMSE2
 70
             0
  9
$DIMTAD
 70
             0
  9
$DIMZIN
 70
             0
  9
$DIMBLK
  1

  9
$DIMASO
 70
             1
  9
$DIMSHO
 70
             1
  9
$DIMPOST
  1

  9
$DIMAPOST
  1

  9
$DIMALT
 70
             0
  9
$DIMALTD
 70
             2
  9
$DIMALTF
 40
25.4
  9
$DIMLFAC
 40
1.0
  9
$DIMTOFL
 70
             0
  9
$DIMTVP
 40
0.0
  9
$DIMTIX
 70
             0
  9
$DIMSOXD
 70
             0
  9
$DIMSAH
 70
             0
  9
$DIMBLK1
  1

  9
$DIMBLK2
  1

  9
$DIMSTYLE
  2
STANDARD
  9
$DIMCLRD
 70
             0
  9
$DIMCLRE
 70
             0
  9
$DIMCLRT
 70
             0
  9
$DIMTFAC
 40
1.0
  9
$DIMGAP
 40
0.09
  9
$DIMJUST
 70
             0
  9
$DIMSD1
 70
             0
  9
$DIMSD2
 70
             0
  9
$DIMTOLJ
 70
             1
  9
$DIMTZIN
 70
             0
  9
$DIMALTZ
 70
             0
  9
$DIMALTTZ
 70
             0
  9
$DIMFIT
 70
             3
  9
$DIMUPT
 70
             0
  9
$DIMUNIT
 70
             2
  9
$DIMDEC
 70
             4
  9
$DIMTDEC
 70
             4
  9
$DIMALTU
 70
             2
  9
$DIMALTTD
 70
             2
  9
$DIMTXSTY
  7
STANDARD
  9
$DIMAUNIT
 70
             0
  9
$LUNITS
 70
             2
  9
$LUPREC
 70
             4
  9
$SKETCHINC
 40
0.1
  9
$FILLETRAD
 40
0.0
  9
$AUNITS
 70
             0
  9
$AUPREC
 70
             0
  9
$MENU
  1
acad
  9
$ELEVATION
 40
0.0
  9
$PELEVATION
 40
0.0
  9
$THICKNESS
 40
0.0
  9
$LIMCHECK
 70
             0
  9
$BLIPMODE
 70
             1
  9
$CHAMFERA
 40
0.0
  9
$CHAMFERB
 40
0.0
  9
$CHAMFERC
 40
0.0
  9
$CHAMFERD
 40
0.0
  9
$SKPOLY
 70
             0
  9
$TDCREATE
 40
0.000000000
  9
$TDUPDATE
 40
0.000000000
  9
$TDINDWG
 40
0.0000000000
  9
$TDUSRTIMER
 40
0.0000000000
  9
$USRTIMER
 70
             1
  9
$ANGBASE
 50
0.0
  9
$ANGDIR
 70
             0
  9
$PDMODE
 70
             0
  9
$PDSIZE
 40
0.0
  9
$PLINEWID
 40
0.0
  9
$COORDS
 70
             0
  9
$SPLFRAME
 70
             0
  9
$SPLINETYPE
 70
             6
  9
$SPLINESEGS
 70
             8
  9
$ATTDIA
 70
             0
  9
$ATTREQ
 70
             1
  9
$HANDLING
 70
             1
  9
$HANDSEED
  5
BF
  9
$SURFTAB1
 70
             6
  9
$SURFTAB2
 70
             6
  9
$SURFTYPE
 70
             6
  9
$SURFU
 70
             6
  9
$SURFV
 70
             6
  9
$UCSNAME
  2

  9
$UCSORG
 10
0.0
 20
0.0
 30
0.0
  9
$UCSXDIR
 10
1.0
 20
0.0
 30
0.0
  9
$UCSYDIR
 10
0.0
 20
1.0
 30
0.0
  9
$PUCSNAME
  2

  9
$PUCSORG
 10
0.0
 20
0.0
 30
0.0
  9
$PUCSXDIR
 10
1.0
 20
0.0
 30
0.0
  9
$PUCSYDIR
 10
0.0
 20
1.0
 30
0.0
  9
$USERI1
 70
             0
  9
$USERI2
 70
             0
  9
$USERI3
 70
             0
  9
$USERI4
 70
             0
  9
$USERI5
 70
             0
  9
$USERR1
 40
11.6
  9
$USERR2
 40
0.0
  9
$USERR3
 40
0.0
  9
$USERR4
 40
0.0
  9
$USERR5
 40
0.0
  9
$WORLDVIEW
 70
             1
  9
$SHADEDGE
 70
             3
  9
$SHADEDIF
 70
            70
  9
$TILEMODE
 70
             1
  9
$MAXACTVP
 70
            16
  9
$PINSBASE
 10
0.0
 20
0.0
 30
0.0
  9
$PLIMCHECK
 70
             0
  9
$PEXTMIN
 10
1.00000000000000E+20
 20
1.00000000000000E+20
 30
1.00000000000000E+20
  9
$PEXTMAX
 10
-1.00000000000000E+20
 20
-1.00000000000000E+20
 30
-1.00000000000000E+20
  9
$PLIMMIN
 10
0.0
 20
0.0
  9
$PLIMMAX
 10
12.0
 20
9.0
  9
$UNITMODE
 70
             0
  9
$VISRETAIN
 70
             0
  9
$PLINEGEN
 70
             1
  9
$PSLTSCALE
 70
             0
  9
$TREEDEPTH
 70
          3020
  9
$PICKSTYLE
 70
             1
  9
$CMLSTYLE
  2
STANDARD
  9
$CMLJUST
 70
             0
  9
$CMLSCALE
 40
1.0
  9
$PROXYGRAPHICS
 70
             0
  9
$MEASUREMENT
 70
             1
  0
ENDSEC
  0
SECTION
  2
CLASSES
  0
CLASS
  1
LWPOLYLINE
  2
AcDbPolyline
  3
"AutoCAD"
 90
        0
280
             0
281
             1
  0
CLASS
  1
IMAGE
  2
AcDbRasterImage
  3
ISM
 90
      127
280
             0
281
             1
  0
CLASS
  1
OLE2FRAME
  2
AcDbOle2Frame
  3
""
 90
        0
280
             0
281
             1
  0
CLASS
  1
HATCH
  2
AcDbHatch
  3
"ACAD_SEDONA"
 90
        0
280
             0
281
             1
  0
CLASS
  1
DICTIONARYVAR
  2
AcDbDictionaryVar
  3
"AutoCAD"
 90
        0
280
             0
281
             0
  0
CLASS
  1
RASTERVARIABLES
  2
AcDbRasterVariables
  3
ISM
 90
        0
280
             0
281
             0
  0
CLASS
  1
IMAGEDEF
  2
AcDbRasterImageDef
  3
ISM
 90
        0
280
             0
281
             0
  0
CLASS
  1
IMAGEDEF_REACTOR
  2
AcDbRasterImageDefReactor
  3
ISM
 90
        1
280
             0
281
             0
  0
CLASS
  1
IDBUFFER
  2
AcDbIdBuffer
  3
"Acad"
 90
        0
280
             0
281
             0
  0
CLASS
  1
SPATIAL_FILTER
  2
AcDbSpatialFilter
  3
"Acad"
 90
        0
280
             0
281
             0
  0
CLASS
  1
XRECORD
  2
AcDbXrecord
  3
"<Built In>"
 90
        0
280
             0
281
             0
  0
CLASS
  1
SORTENTSTABLE
  2
AcDbSortentsTable
  3
"AutoCAD"
 90
        0
280
             0
281
             0
  0
CLASS
  1
LAYER_INDEX
  2
AcDbLayerIndex
  3
"Acad"
 90
        0
280
             0
281
             0
  0
CLASS
  1
SPATIAL_INDEX
  2
AcDbSpatialIndex
  3
"Acad"
 90
        0
280
             0
281
             0
  0
CLASS
  1
OBJECT_PTR
  2
CAseDLPNTableRecord
  3
"ASE-LPNTableRecord"
 90
        1
280
             0
281
             0
  0
CLASS
  1
LAYOUT
  2
AcDbLayout
  3
"AutoCAD 2000"
 90
        1
280
             0
281
             0
  0
CLASS
  1
PLOTSETTINGS
  2
AcDbPlotSettings
  3
"AutoCAD 2000"
 90
        1
280
             0
281
             0
  0
CLASS
  1
ACDBDICTIONARYWDFLT
  2
AcDbDictionaryWithDefault
  3
"AutoCAD 2000"
 90
        1
280
             0
281
             0
  0
CLASS
  1
ACDBPLACEHOLDER
  2
AcDbPlaceHolder
  3
"AutoCAD 2000"
 90
        1
280
             0
281
             0
  0
ENDSEC
  0
SECTION
  2
TABLES
  0
TABLE
  2
VPORT
  5
7
100
AcDbSymbolTable
 70
             1
  0
VPORT
  5
15
100
AcDbSymbolTableRecord
100
AcDbViewportTableRecord
  2
*ACTIVE
 70
             0
 10
0.0
 20
0.0
 11
1.0
 21
1.0
 12
-2.13080012258164
 22
-96.72101245200288
 13
0.0
 23
0.0
 14
1.0
 24
1.0
 15
0.0
 25
0.0
 16
0.0
 26
0.0
 36
1.0
 17
0.0
 27
0.0
 37
0.0
 40
262.67826577159451
 41
1.60267857142857
 42
50.0
 43
0.0
 44
0.0
 50
0.0
 51
0.0
 71
             0
 72
           100
 73
             1
 74
             1
 75
             0
 76
             0
 77
             0
 78
             0
  0
ENDTAB
  0
TABLE
  2
LTYPE
  5
4
100
AcDbSymbolTable
 70
            10
  0
LTYPE
  5
11
100
AcDbSymbolTableRecord
100
AcDbLinetypeTableRecord
  2
BYBLOCK
 70
            64
  3

 72
            65
 73
             0
 40
0.0
  0
LTYPE
  5
12
100
AcDbSymbolTableRecord
100
AcDbLinetypeTableRecord
  2
BYLAYER
 70
            64
  3

 72
            65
 73
             0
 40
0.0
  0
LTYPE
  5
13
100
AcDbSymbolTableRecord
100
AcDbLinetypeTableRecord
  2
CONTINUOUS
 70
            64
  3
Solid line
 72
            65
 73
             0
 40
0.0
  0
LTYPE
  5
1D
100
AcDbSymbolTableRecord
100
AcDbLinetypeTableRecord
  2
DASHED
 70
            64
  3
Dashed
 72
            65
 73
             2
 40
15.0
 49
12.0
 74
             0
 49
-3.0
 74
             0
  0
LTYPE
  5
1E
100
AcDbSymbolTableRecord
100
AcDbLinetypeTableRecord
  2
DOTTED
 70
            64
  3
Dotted
 72
            65
 73
             2
 40
3.5
 49
0.5
 74
             0
 49
-3.0
 74
             0
  0
LTYPE
  5
1F
100
AcDbSymbolTableRecord
100
AcDbLinetypeTableRecord
  2
DOT_CENTER
 70
            64
  3
Dot_Center
 72
            65
 73
             4
 40
2.0
 49
1.25
 74
             0
 49
-0.25
 74
             0
 49
0.25
 74
             0
 49
-0.25
 74
             0
  0
LTYPE
  5
20
100
AcDbSymbolTableRecord
100
AcDbLinetypeTableRecord
  2
LONG_DASHED
 70
            64
  3
Long_Dashed
 72
            65
 73
             2
 40
2.0
 49
1.5
 74
             0
 49
-0.5
 74
             0
  0
LTYPE
  5
21
100
AcDbSymbolTableRecord
100
AcDbLinetypeTableRecord
  2
DASH_CENTER
 70
            64
  3
Dash_Center
 72
            65
 73
             4
 40
36.0
 49
24.0
 74
             0
 49
-3.0
 74
             0
 49
6.0
 74
             0
 49
-3.0
 74
             0
  0
LTYPE
  5
22
100
AcDbSymbolTableRecord
100
AcDbLinetypeTableRecord
  2
PHANTOM
 70
            64
  3
Phantom
 72
            65
 73
             6
 40
2.5
 49
1.25
 74
             0
 49
-0.25
 74
             0
 49
0.25
 74
             0
 49
-0.25
 74
             0
 49
0.25
 74
             0
 49
-0.25
 74
             0
  0
LTYPE
  5
23
100
AcDbSymbolTableRecord
100
AcDbLinetypeTableRecord
  2
CENTER_DASH_DASH
 70
            64
  3
Center_Dash_Dash
 72
            65
 73
             6
 40
22.0
 49
12.0
 74
             0
 49
-3.0
 74
             0
 49
0.5
 74
             0
 49
-3.0
 74
             0
 49
0.5
 74
             0
 49
-3.0
 74
             0
  0
ENDTAB
  0
TABLE
  2
LAYER
  5
2
100
AcDbSymbolTable
 70
             2
  0
LAYER
  5
14
100
AcDbSymbolTableRecord
100
AcDbLayerTableRecord
  2
0
 70
             0
 62
             7
  6
CONTINUOUS
  0
LAYER
  5
24
100
AcDbSymbolTableRecord
100
AcDbLayerTableRecord
  2
1
 70
             0
 62
             7
  6
CONTINUOUS
  0
ENDTAB
  0
TABLE
  2
STYLE
  5
3
100
AcDbSymbolTable
 70
             2
  0
STYLE
  5
17
100
AcDbSymbolTableRecord
100
AcDbTextStyleTableRecord
  2
STANDARD
 70
             0
 40
0.0
 41
1.0
 50
0.0
 71
             0
 42
0.0
  3
txt
  4

  0
STYLE
  5
98
100
AcDbSymbolTableRecord
100
AcDbTextStyleTableRecord
  2
CONVERTER_1
 70
             0
 40
0.0
 41
0.9
 50
0.0
 71
             0
 42
0.0
  3
txt.shx
  4

  0
ENDTAB
  0
TABLE
  2
VIEW
  5
5
100
AcDbSymbolTable
 70
             0
  0
ENDTAB
  0
TABLE
  2
UCS
  5
6
100
AcDbSymbolTable
 70
             0
  0
ENDTAB
  0
TABLE
  2
APPID
  5
8
100
AcDbSymbolTable
 70
             1
  0
APPID
  5
16
100
AcDbSymbolTableRecord
100
AcDbRegAppTableRecord
  2
ACAD
 70
             0
  0
ENDTAB
  0
TABLE
  2
DIMSTYLE
  5
9
100
AcDbSymbolTable
 70
             5
  0
DIMSTYLE
105
18
100
AcDbSymbolTableRecord
100
AcDbDimStyleTableRecord
  2
STANDARD
 70
             0
  3

  4

  5

  6

  7

 40
1.0
 41
0.18
 42
0.0625
 43
0.38
 44
0.18
 45
0.0
 46
0.0
 47
0.0
 48
0.0
 71
             0
 72
             0
 73
             1
 74
             1
 75
             0
 76
             0
 77
             0
 78
             0
140
0.18
141
0.09
142
0.0
143
25.4
144
1.0
145
0.0
146
1.0
147
0.09
170
             0
171
             2
172
             0
173
             0
174
             0
175
             0
176
             0
177
             0
178
             0
270
             2
271
             4
272
             4
273
             2
274
             2
275
             0
280
             0
281
             0
282
             0
283
             1
284
             0
285
             0
286
             0
287
             0
288
             0
340
17
  0
DIMSTYLE
105
9B
100
AcDbSymbolTableRecord
100
AcDbDimStyleTableRecord
  2
ME10_DIM_0
 70
             0
  3

  4

  5

  6

  7

 40
1.0
 41
7.0
 42
0.0
 43
0.38
 44
2.0
 45
0.0
 46
0.0
 47
0.0
 48
0.0
 71
             0
 72
             0
 73
             0
 74
             0
 75
             0
 76
             0
 77
             1
 78
             8
140
7.0
141
0.09
142
0.0
143
25.4
144
1.0
145
0.0
146
1.0
147
0.625
170
             0
171
             2
172
             0
173
             1
174
             0
175
             0
176
             4
177
             4
178
             1
270
             2
271
             2
272
             4
273
             2
274
             2
275
             0
280
             0
281
             0
282
             0
283
             1
284
             0
285
             0
286
             0
287
             0
288
             0
340
17
  0
DIMSTYLE
105
A6
100
AcDbSymbolTableRecord
100
AcDbDimStyleTableRecord
  2
ME10_DIM_1
 70
             0
  3

  4

  5

  6

  7

 40
1.0
 41
7.0
 42
0.0
 43
0.38
 44
2.0
 45
0.0
 46
0.0
 47
0.0
 48
0.0
 71
             0
 72
             0
 73
             0
 74
             0
 75
             0
 76
             0
 77
             1
 78
             8
140
7.0
141
0.09
142
0.0
143
25.4
144
1.0
145
0.0
146
1.0
147
0.625
170
             0
171
             2
172
             0
173
             1
174
             0
175
             0
176
             4
177
             4
178
             1
270
             2
271
             2
272
             4
273
             2
274
             2
275
             0
280
             0
281
             0
282
             0
283
             1
284
             0
285
             0
286
             0
287
             0
288
             0
340
17
  0
DIMSTYLE
105
B1
100
AcDbSymbolTableRecord
100
AcDbDimStyleTableRecord
  2
ME10_DIM_2
 70
             0
  3
DN<>
  4

  5

  6

  7

 40
1.0
 41
7.0
 42
0.0
 43
0.38
 44
2.0
 45
0.0
 46
0.0
 47
0.0
 48
0.0
 71
             0
 72
             0
 73
             0
 74
             0
 75
             0
 76
             0
 77
             1
 78
             8
140
7.0
141
0.09
142
0.0
143
25.4
144
1.0
145
0.0
146
1.0
147
0.625
170
             0
171
             2
172
             0
173
             1
174
             0
175
             0
176
             4
177
             4
178
             1
270
             2
271
             2
272
             4
273
             2
274
             2
275
             0
280
             0
281
             0
282
             0
283
             1
284
             0
285
             0
286
             0
287
             0
288
             0
340
17
  0
DIMSTYLE
105
BC
100
AcDbSymbolTableRecord
100
AcDbDimStyleTableRecord
  2
ME10_DIM_3
 70
             0
  3
DN<>
  4

  5

  6

  7

 40
1.0
 41
7.0
 42
0.0
 43
0.38
 44
2.0
 45
0.0
 46
0.0
 47
0.0
 48
0.0
 71
             0
 72
             0
 73
             0
 74
             0
 75
             0
 76
             0
 77
             1
 78
             8
140
7.0
141
0.09
142
0.0
143
25.4
144
1.0
145
0.0
146
1.0
147
0.625
170
             0
171
             2
172
             0
173
             1
174
             0
175
             0
176
             4
177
             4
178
             1
270
             2
271
             2
272
             4
273
             2
274
             2
275
             0
280
             0
281
             0
282
             0
283
             1
284
             0
285
             0
286
             0
287
             0
288
             0
340
17
  0
ENDTAB
  0
TABLE
  2
BLOCK_RECORD
  5
1
100
AcDbSymbolTable
 70
             6
  0
BLOCK_RECORD
  5
A
100
AcDbSymbolTableRecord
100
AcDbBlockTableRecord
  2
*MODEL_SPACE
  0
BLOCK_RECORD
  5
B
100
AcDbSymbolTableRecord
100
AcDbBlockTableRecord
  2
*PAPER_SPACE
  0
BLOCK_RECORD
  5
25
100
AcDbSymbolTableRecord
100
AcDbBlockTableRecord
  2
01047D_HOLLAENDERMUTTE_6_4
  0
BLOCK_RECORD
  5
27
100
AcDbSymbolTableRecord
100
AcDbBlockTableRecord
  2
VERL_NGERUNGSROHR_DN40
  0
BLOCK_RECORD
  5
90
100
AcDbSymbolTableRecord
100
AcDbBlockTableRecord
  2
*D2
  0
BLOCK_RECORD
  5
9D
100
AcDbSymbolTableRecord
100
AcDbBlockTableRecord
  2
*D3
  0
BLOCK_RECORD
  5
A8
100
AcDbSymbolTableRecord
100
AcDbBlockTableRecord
  2
*D4
  0
BLOCK_RECORD
  5
B3
100
AcDbSymbolTableRecord
100
AcDbBlockTableRecord
  2
*D5
  0
ENDTAB
  0
ENDSEC
  0
SECTION
  2
BLOCKS
  0
BLOCK
  5
D
100
AcDbEntity
  8
0
100
AcDbBlockBegin
  2
*MODEL_SPACE
 70
             0
 10
0.0
 20
0.0
 30
0.0
  3
*MODEL_SPACE
  1

  0
ENDBLK
  5
E
100
AcDbEntity
  8
0
100
AcDbBlockEnd
  0
BLOCK
  5
F
100
AcDbEntity
 67
             1
  8
0
100
AcDbBlockBegin
  2
*PAPER_SPACE
 70
             0
 10
0.0
 20
0.0
 30
0.0
  3
*PAPER_SPACE
  1

  0
ENDBLK
  5
10
100
AcDbEntity
 67
             1
  8
0
100
AcDbBlockEnd
  0
BLOCK
  5
26
100
AcDbEntity
  8
0
100
AcDbBlockBegin
  2
01047D_HOLLAENDERMUTTE_6_4
 70
             0
 10
-154.6881550934813
 20
-10.97654411729309
 30
0.0
  3
01047D_HOLLAENDERMUTTE_6_4
  1

  0
SPLINE
  5
6D
100
AcDbEntity
  8
0
  6
CONTINUOUS
 62
             7
100
AcDbSpline
210
0.0
220
0.0
230
1.0
 70
             0
 71
             3
 72
            11
 73
             7
 74
             9
 42
0.00000000001
 43
0.00000000001
 44
0.00000000001
 40
10.19448601636854
 40
10.19448601636854
 40
10.19448601636854
 40
10.19448601636854
 40
10.615649383980927
 40
10.8186143443308
 40
11.02754332281871
 40
11.430159294480788
 40
11.430159294480788
 40
11.430159294480788
 40
11.430159294480788
 10
-28.5
 20
-2.0
 30
0.0
 10
-28.336681865861461
 20
-1.86295981387957
 30
0.0
 10
-28.174958906056421
 20
-1.7322088052023901
 30
0.0
 10
-28.014728269128678
 20
-1.607625828357413
 30
0.0
 10
-27.849789339583371
 20
-1.47938204654929
 30
0.0
 10
-27.68638954937342
 20
-1.35764132750046
 30
0.0
 10
-27.524420523448502
 20
-1.2422826366746449
 30
0.0
 11
-28.5
 21
-2.0
 31
0.0
 11
-28.291262013234491
 21
-1.8270749439919693
 31
0.0
 11
-28.137398092462526
 21
-1.7035339985364537
 31
0.0
 11
-28.07485688155667
 21
-1.6544433946041606
 31
0.0
 11
-28.014859223243619
 21
-1.6077276481697076
 31
0.0
 11
-27.951761761056297
 21
-1.5587453501310529
 31
0.0
 11
-27.884393555048614
 21
-1.506906963895738
 31
0.0
 11
-27.731234802726323
 21
-1.3919355962555457
 31
0.0
 11
-27.524420523448502
 21
-1.2422826366746449
 31
0.0
  0
SPLINE
  5
6C
100
AcDbEntity
  8
0
  6
CONTINUOUS
 62
             7
100
AcDbSpline
210
0.0
220
0.0
230
1.0
 70
             0
 71
             3
 72
            11
 73
             7
 74
             9
 42
0.00000000001
 43
0.00000000001
 44
0.00000000001
 40
9.6520212354362265
 40
9.6520212354362265
 40
9.6520212354362265
 40
9.6520212354362265
 40
9.989642442128952
 40
10.167276688354336
 40
10.339724344524935
 40
10.700648345146718
 40
10.700648345146718
 40
10.700648345146718
 40
10.700648345146718
 10
20.8769179627343
 20
-1.2422826366746449
 30
0.0
 10
20.757140629208148
 20
-1.3571753196520151
 30
0.0
 10
20.635955804777041
 20
-1.478737842895498
 30
0.0
 10
20.513269559585751
 20
-1.6071979949774691
 30
0.0
 10
20.39416552487819
 20
-1.731907349218091
 30
0.0
 10
20.273949000376891
 20
-1.8628006287981409
 30
0.0
 10
20.15254326381546
 20
-2.0
 30
0.0
 11
20.8769179627343
 21
-1.2422826366746449
 31
0.0
 11
20.724054344555206
 21
-1.3912387694697637
 31
0.0
 11
20.610892137298805
 21
-1.5056140207341115
 31
0.0
 11
20.56043659054766
 21
-1.5578902905141412
 31
0.0
 11
20.513325385820771
 21
-1.6071395414267684
 31
0.0
 11
20.468781647559709
 21
-1.6538451967190837
 31
0.0
 11
20.422511283778263
 21
-1.7027522323767241
 31
0.0
 11
20.307849287688335
 21
-1.8267294861814061
 31
0.0
 11
20.15254326381546
 21
-2.0
 31
0.0
  0
SPLINE
  5
6B
100
AcDbEntity
  8
0
  6
CONTINUOUS
 62
             7
100
AcDbSpline
210
0.0
220
0.0
230
1.0
 70
             0
 71
             3
 72
            11
 73
             7
 74
             9
 42
0.00000000001
 43
0.00000000001
 44
0.00000000001
 40
10.19555243465283
 40
10.19555243465283
 40
10.19555243465283
 40
10.19555243465283
 40
10.912082615913242
 40
11.265033496745728
 40
11.62659146653116
 40
12.334601825383558
 40
12.334601825383558
 40
12.334601825383558
 40
12.334601825383558
 10
0.0
 20
-2.0
 30
0.0
 10
0.3332558010370121
 20
-1.863597004419717
 30
0.0
 10
0.6648254651481693
 20
-1.7327888752188301
 30
0.0
 10
0.9948383386399655
 20
-1.60762567132042
 30
0.0
 10
1.332898932971148
 20
-1.4794102273372121
 30
0.0
 10
1.667879836270004
 20
-1.357666812269599
 30
0.0
 10
2.0
 20
-1.2422826366746449
 30
0.0
 11
0.0
 21
-2.0
 31
0.0
 11
0.4256736623371165
 21
-1.8279642340372499
 31
0.0
 11
0.7394200507248638
 21
-1.70504806519333
 31
0.0
 11
0.8697591531142028
 21
-1.6551329717096965
 31
0.0
 11
0.994080621620602
 21
-1.6079130488678504
 31
0.0
 11
1.1229939265146751
 21
-1.5590961660643072
 31
0.0
 11
1.2597978099861702
 21
-1.5077412152423504
 31
0.0
 11
1.575230747169553
 21
-1.392224020721037
 31
0.0
 11
2.0
 21
-1.2422826366746449
 31
0.0
  0
SPLINE
  5
6A
100
AcDbEntity
  8
0
  6
CONTINUOUS
 62
             7
100
AcDbSpline
210
0.0
220
0.0
230
1.0
 70
             0
 71
             3
 72
            11
 73
             7
 74
             9
 42
0.00000000001
 43
0.00000000001
 44
0.00000000001
 40
10.19555243465293
 40
10.19555243465293
 40
10.19555243465293
 40
10.19555243465293
 40
10.94784720131382
 40
11.313341016255604
 40
11.69139236338401
 40
12.432198573059571
 40
12.432198573059571
 40
12.432198573059571
 40
12.432198573059571
 10
-20.15254326381546
 20
-2.0
 30
0.0
 10
-19.79854873157819
 20
-1.8622739211568839
 30
0.0
 10
-19.449779689337451
 20
-1.7315812485976489
 30
0.0
 10
-19.10594725395276
 20
-1.60762567132042
 30
0.0
 10
-18.750301521875372
 20
-1.479411263702787
 30
0.0
 10
-18.397892789027541
 20
-1.3576677478195049
 30
0.0
 10
-18.048490837987629
 20
-1.2422826366746449
 30
0.0
 11
-20.15254326381546
 21
-2.0
 31
0.0
 11
-19.701292243635329
 21
-1.8266706176082328
 31
0.0
 11
-19.370688569220651
 21
-1.7035980053268536
 31
0.0
 11
-19.235860484001751
 21
-1.6545271489388882
 31
0.0
 11
-19.107084251432422
 21
-1.6080355720884831
 31
0.0
 11
-18.971648677252773
 21
-1.5592851716832354
 31
0.0
 11
-18.827587973681862
 21
-1.5078794732322347
 31
0.0
 11
-18.495429381017438
 21
-1.3922489011945931
 31
0.0
 11
-18.048490837987629
 21
-1.2422826366746449
 31
0.0
  0
SPLINE
  5
69
100
AcDbEntity
  8
0
  6
CONTINUOUS
 62
             7
100
AcDbSpline
210
0.0
220
0.0
230
1.0
 70
             0
 71
             3
 72
            11
 73
             7
 74
             9
 42
0.00000000001
 43
0.00000000001
 44
0.00000000001
 40
10.195552434652781
 40
10.195552434652781
 40
10.195552434652781
 40
10.195552434652781
 40
10.55721090230483
 40
10.728332596642668
 40
10.905678045865418
 40
11.244179564296193
 40
11.244179564296193
 40
11.244179564296193
 40
11.244179564296193
 10
-20.15254326381546
 20
-2.0
 30
0.0
 10
-20.274607587209179
 20
-1.86205636653176
 30
0.0
 10
-20.3946785759581
 20
-1.7313815577072089
 30
0.0
 10
-20.512861124829211
 20
-1.60762567132042
 30
0.0
 10
-20.63534201365837
 20
-1.479368740780046
 30
0.0
 10
-20.756667290093901
 20
-1.357629355574318
 30
0.0
 10
-20.8769179627343
 20
-1.2422826366746449
 30
0.0
 11
-20.15254326381546
 21
-2.0
 31
0.0
 11
-20.308481917837593
 21
-1.8260381064466891
 31
0.0
 11
-20.423149062871769
 21
-1.702078199838291
 31
0.0
 11
-20.468826689409145
 21
-1.6538004343598494
 31
0.0
 11
-20.512822550280518
 21
-1.6076660649962573
 31
0.0
 11
-20.559747912781059
 21
-1.5586061764588302
 31
0.0
 11
-20.610078693841469
 21
-1.5064507576282022
 31
0.0
 11
-20.723519690733141
 21
-1.3917709525178035
 31
0.0
 11
-20.8769179627343
 21
-1.2422826366746449
 31
0.0
  0
SPLINE
  5
68
100
AcDbEntity
  8
0
  6
CONTINUOUS
 62
             7
100
AcDbSpline
210
0.0
220
0.0
230
1.0
 70
             0
 71
             3
 72
            11
 73
             7
 74
             9
 42
0.00000000001
 43
0.00000000001
 44
0.00000000001
 40
10.195552434652781
 40
10.195552434652781
 40
10.195552434652781
 40
10.195552434652781
 40
10.915657644009039
 40
11.265033492183889
 40
11.625466764925207
 40
12.334601824062387
 40
12.334601824062387
 40
12.334601824062387
 40
12.334601824062387
 10
0.0
 20
-2.0
 30
0.0
 10
-0.3366485074002412
 20
-1.8622083554873829
 30
0.0
 10
-0.6681681591726374
 20
-1.731521099543897
 30
0.0
 10
-0.9948383386399655
 20
-1.60762567132042
 30
0.0
 10
-1.3318473291255939
 20
-1.4798090666445201
 30
0.0
 10
-1.6668451055884359
 20
-1.3580262952527851
 30
0.0
 10
-2.0
 20
-1.2422826366746449
 30
0.0
 11
0.0
 21
-2.0
 31
0.0
 11
-0.4291384313807142
 21
-1.8265903786540756
 31
0.0
 11
-0.7435579029311288
 21
-1.7034567410113475
 31
0.0
 11
-0.8716190280285803
 21
-1.6544248349970445
 31
0.0
 11
-0.9938689492991824
 21
-1.6079933293296413
 31
0.0
 11
-1.1219766543384824
 21
-1.559481046037251
 31
0.0
 11
-1.2582231342378296
 21
-1.5083309312415913
 31
0.0
 11
-1.5741215768508674
 21
-1.3926251395378864
 31
0.0
 11
-2.0
 21
-1.2422826366746449
 31
0.0
  0
SPLINE
  5
67
100
AcDbEntity
  8
0
  6
CONTINUOUS
 62
             7
100
AcDbSpline
210
0.0
220
0.0
230
1.0
 70
             0
 71
             3
 72
            11
 73
             7
 74
             9
 42
0.00000000001
 43
0.00000000001
 44
0.00000000001
 40
12.60222498519215
 40
12.60222498519215
 40
12.60222498519215
 40
12.60222498519215
 40
13.002070579077554
 40
13.204773563229248
 40
13.402832598697263
 40
13.807333664225483
 40
13.807333664225483
 40
13.807333664225483
 40
13.807333664225483
 10
-20.099100503426602
 20
-0.3218007376417518
 30
0.0
 10
-20.22755168574804
 20
-0.4737946634268155
 30
0.0
 10
-20.35718696530239
 20
-0.6271986372958054
 30
0.0
 10
-20.488018166441179
 20
-0.7820265953414491
 30
0.0
 10
-20.61585200970876
 20
-0.9333074270616635
 30
0.0
 10
-20.745469537574539
 20
-1.0867074175985181
 30
0.0
 10
-20.8769179627343
 20
-1.2422826366746449
 30
0.0
 11
-20.099100503426602
 21
-0.3218007376417519
 31
0.0
 11
-20.26354504487378
 21
-0.5163888931057713
 31
0.0
 11
-20.385875468404656
 21
-0.6611501050691551
 31
0.0
 11
-20.438589277207765
 21
-0.723531696551767
 31
0.0
 11
-20.488298572275667
 21
-0.7823584325677792
 31
0.0
 11
-20.536319139314159
 21
-0.8391869334593795
 31
0.0
 11
-20.586749093415197
 21
-0.8988674193907434
 31
0.0
 11
-20.709430743553401
 21
-1.0440575543100263
 31
0.0
 11
-20.8769179627343
 21
-1.2422826366746449
 31
0.0
  0
SPLINE
  5
66
100
AcDbEntity
  8
0
  6
CONTINUOUS
 62
             7
100
AcDbSpline
210
0.0
220
0.0
230
1.0
 70
             0
 71
             3
 72
            11
 73
             7
 74
             9
 42
0.00000000001
 43
0.00000000001
 44
0.00000000001
 40
110.6006816516911
 40
110.6006816516911
 40
110.6006816516911
 40
110.6006816516911
 40
111.00392005242763
 40
111.20324172362132
 40
111.40640629349251
 40
111.80579033069259
 40
111.80579033069259
 40
111.80579033069259
 40
111.80579033069259
 10
18.048490837998539
 20
-1.242282636623713
 30
0.0
 10
17.917873292117289
 20
-1.0876908012141939
 30
0.0
 10
17.788239850502581
 20
-0.9342718717016396
 30
0.0
 10
17.65959106043374
 20
-0.782026617518568
 30
0.0
 10
17.52846193662845
 20
-0.6268460925130057
 30
0.0
 10
17.398832670147389
 20
-0.4734492743373266
 30
0.0
 10
17.27067337867993
 20
-0.3218007376417518
 30
0.0
 11
18.048490837998539
 21
-1.242282636623713
 31
0.0
 11
17.881851654156875
 21
-1.0450611968451198
 31
0.0
 11
17.759338096475744
 21
-0.9000699461451942
 31
0.0
 11
17.708352246397734
 21
-0.8397315828416012
 31
0.0
 11
17.659823566389743
 21
-0.78230176918064
 31
0.0
 11
17.60989312909394
 21
-0.7232133306644138
 31
0.0
 11
17.557014420039987
 21
-0.6606366011889916
 31
0.0
 11
17.434806027281862
 21
-0.516019817134062
 31
0.0
 11
17.27067337867993
 21
-0.3218007376417518
 31
0.0
  0
SPLINE
  5
65
100
AcDbEntity
  8
0
  6
CONTINUOUS
 62
             7
100
AcDbSpline
210
0.0
220
0.0
230
1.0
 70
             0
 71
             3
 72
            11
 73
             7
 74
             9
 42
0.00000000001
 43
0.00000000001
 44
0.00000000001
 40
12.60222498519019
 40
12.60222498519019
 40
12.60222498519019
 40
12.60222498519019
 40
13.001454196751739
 40
13.20477356322494
 40
13.404232324505873
 40
13.807333664221181
 40
13.807333664221181
 40
13.807333664221181
 40
13.807333664221181
 10
-17.270673378683568
 20
-0.3218007376417518
 30
0.0
 10
-17.398734616501319
 20
-0.4733332492542104
 30
0.0
 10
-17.52836200704769
 20
-0.6267278340819757
 30
0.0
 10
-17.659591041694512
 20
-0.7820265953414491
 30
0.0
 10
-17.78832831423642
 20
-0.9343765612429706
 30
0.0
 10
-17.91796380839514
 20
-1.087797931366367
 30
0.0
 10
-18.048490837987629
 20
-1.2422826366746449
 30
0.0
 11
-17.270673378683568
 21
-0.3218007376417518
 31
0.0
 11
-17.434703259580097
 21
-0.5158982079289523
 31
0.0
 11
-17.556884241902626
 21
-0.6604825491143296
 31
0.0
 11
-17.609828855896893
 21
-0.7231372690057167
 31
0.0
 11
-17.659824703047963
 21
-0.7823031143210284
 31
0.0
 11
-17.708411622619021
 21
-0.8398018500267647
 31
0.0
 11
-17.759454253891253
 21
-0.9002074114195242
 31
0.0
 11
-17.881944605319013
 21
-1.0451712037201237
 31
0.0
 11
-18.048490837987629
 21
-1.2422826366746449
 31
0.0
  0
SPLINE
  5
64
100
AcDbEntity
  8
0
  6
CONTINUOUS
 62
             7
100
AcDbSpline
210
0.0
220
0.0
230
1.0
 70
             0
 71
             3
 72
            11
 73
             7
 74
             9
 42
0.00000000001
 43
0.00000000001
 44
0.00000000001
 40
110.6006816517057
 40
110.6006816517057
 40
110.6006816517057
 40
110.6006816517057
 40
111.00383131914793
 40
111.20324172366777
 40
111.40696882968059
 40
111.80579033073906
 40
111.80579033073906
 40
111.80579033073906
 40
111.80579033073906
 10
20.8769179627343
 20
-1.2422826366746449
 30
0.0
 10
20.746359006494458
 20
-1.0877601447209599
 30
0.0
 10
20.61672424666904
 20
-0.934339647712477
 30
0.0
 10
20.488018185180412
 20
-0.782026617518568
 30
0.0
 10
20.356525981966119
 20
-0.6264164179228828
 30
0.0
 10
20.226903152004521
 20
-0.4730272653541761
 30
0.0
 10
20.099100503426602
 20
-0.3218007376417518
 30
0.0
 11
20.8769179627343
 21
-1.2422826366746449
 31
0.0
 11
20.71034203622802
 21
-1.0451360611041562
 31
0.0
 11
20.58786511826974
 21
-0.9001881677202179
 31
0.0
 11
20.536858961527845
 21
-0.8398257717146058
 31
0.0
 11
20.488279590779737
 21
-0.7823359695304963
 31
0.0
 11
20.438123876877611
 21
-0.7229809360771847
 31
0.0
 11
20.38499035200088
 21
-0.6601026627300035
 31
0.0
 11
20.262862290215313
 21
-0.5155809614987962
 31
0.0
 11
20.099100503426602
 21
-0.3218007376417518
 31
0.0
  0
SPLINE
  5
63
100
AcDbEntity
  8
0
  6
CONTINUOUS
 62
             7
100
AcDbSpline
210
0.0
220
0.0
230
1.0
 70
             0
 71
             3
 72
            11
 73
             7
 74
             9
 42
0.00000000001
 43
0.00000000001
 44
0.00000000001
 40
12.602224985190871
 40
12.602224985190871
 40
12.602224985190871
 40
12.602224985190871
 40
13.07858802561856
 40
13.319387266392704
 40
13.556348404059431
 40
14.036549540177035
 40
14.036549540177035
 40
14.036549540177035
 40
14.036549540177035
 10
-26.424420523446319
 20
-0.3218007376417518
 30
0.0
 10
-26.606421741736991
 20
-0.4740823349493439
 30
0.0
 10
-26.789761535583239
 20
-0.6274928884886322
 30
0.0
 10
-26.974433157127351
 20
-0.7820265953414491
 30
0.0
 10
-27.15616129461705
 20
-0.9340971868732595
 30
0.0
 10
-27.339486043732901
 20
-1.087512229241838
 30
0.0
 10
-27.524420523448502
 20
-1.2422826366746449
 30
0.0
 11
-26.424420523446319
 21
-0.3218007376417518
 31
0.0
 11
-26.657328346206988
 21
-0.5166801829134569
 31
0.0
 11
-26.830334628590624
 21
-0.6614455394026506
 31
0.0
 11
-26.904579648947887
 21
-0.7235731151289815
 31
0.0
 11
-26.974708991824571
 21
-0.7822574145549662
 31
0.0
 11
-27.043178245184517
 21
-0.839552783564373
 31
0.0
 11
-27.115179360905344
 21
-0.8998043124018186
 31
0.0
 11
-27.288532701685082
 21
-1.0448733835770418
 31
0.0
 11
-27.524420523448502
 21
-1.2422826366746449
 31
0.0
  0
SPLINE
  5
62
100
AcDbEntity
  8
0
  6
CONTINUOUS
 62
             7
100
AcDbSpline
210
0.0
220
0.0
230
1.0
 70
             0
 71
             3
 72
            11
 73
             7
 74
             9
 42
0.00000000001
 43
0.00000000001
 44
0.00000000001
 40
12.6022249851908
 40
12.6022249851908
 40
12.6022249851908
 40
12.6022249851908
 40
13.077578645180328
 40
13.319387266392621
 40
13.556438462505659
 40
14.036549540176953
 40
14.036549540176953
 40
14.036549540176953
 40
14.036549540176953
 10
26.424420523446319
 20
-0.3218007376417518
 30
0.0
 10
26.605663994829229
 20
-0.4734483232023194
 30
0.0
 10
26.788987430474659
 20
-0.6268451152645866
 30
0.0
 10
26.974433157127351
 20
-0.7820265953414491
 30
0.0
 10
27.15623036144461
 20
-0.9341549821765511
 30
0.0
 10
27.339556615643229
 20
-1.0875712903944079
 30
0.0
 10
27.524420523448502
 20
-1.2422826366746449
 30
0.0
 11
26.424420523446319
 21
-0.3218007376417518
 31
0.0
 11
26.65653979008091
 21
-0.5160203602319068
 31
0.0
 11
26.829379321684588
 21
-0.6606461525337986
 31
0.0
 11
26.904169317091096
 21
-0.7232297503972108
 31
0.0
 11
26.974775443205683
 21
-0.782313021248238
 31
0.0
 11
27.043320615941489
 21
-0.8396719199680569
 31
0.0
 11
27.115327714495997
 21
-0.8999284564771916
 31
0.0
 11
27.288612429922797
 21
-1.0449401041367505
 31
0.0
 11
27.524420523448502
 21
-1.2422826366746449
 31
0.0
  0
SPLINE
  5
61
100
AcDbEntity
  8
0
  6
CONTINUOUS
 62
             7
100
AcDbSpline
210
0.0
220
0.0
230
1.0
 70
             0
 71
             3
 72
            11
 73
             7
 74
             9
 42
0.00000000001
 43
0.00000000001
 44
0.00000000001
 40
9.6520212354362247
 40
9.6520212354362247
 40
9.6520212354362247
 40
9.6520212354362247
 40
10.391077629361343
 40
10.769617586867353
 40
11.138561834308446
 40
11.888667364842172
 40
11.888667364842172
 40
11.888667364842172
 40
11.888667364842172
 10
18.048490837998539
 20
-1.242282636623713
 30
0.0
 10
18.396649719950801
 20
-1.35725724157237
 30
0.0
 10
18.748651742880611
 20
-1.4788283297748419
 30
0.0
 10
19.10476089536678
 20
-1.6071979949774691
 30
0.0
 10
19.45184294222781
 20
-1.7323135834012651
 30
0.0
 10
19.801048657194769
 20
-1.8632465490809409
 30
0.0
 10
20.15254326381546
 20
-2.0
 30
0.0
 11
18.048490837998539
 21
-1.242282636623713
 31
0.0
 11
18.494007940503757
 21
-1.3917616409596938
 31
0.0
 11
18.825347071178371
 21
-1.5070854470195179
 31
0.0
 11
18.969642198176064
 21
-1.5585668835813009
 31
0.0
 11
19.105565267068137
 21
-1.6074879536198308
 31
0.0
 11
19.236288253162904
 21
-1.6546794101156375
 31
0.0
 11
19.373271840704508
 21
-1.7045395231421789
 31
0.0
 11
19.703735402968192
 21
-1.8275904309851763
 31
0.0
 11
20.15254326381546
 21
-2.0
 31
0.0
  0
SPLINE
  5
60
100
AcDbEntity
  8
0
  6
CONTINUOUS
 62
             7
100
AcDbSpline
210
0.0
220
0.0
230
1.0
 70
             0
 71
             3
 72
            11
 73
             7
 74
             9
 42
0.00000000001
 43
0.00000000001
 44
0.00000000001
 40
10.19555243465282
 40
10.19555243465282
 40
10.19555243465282
 40
10.19555243465282
 40
10.615960545185105
 40
10.819681025260838
 40
11.028610091443326
 40
11.431225719524747
 40
11.431225719524747
 40
11.431225719524747
 40
11.431225719524747
 10
28.49999999998181
 20
-1.99999999996362
 30
0.0
 10
28.337288486141919
 20
-1.8634688287129391
 30
0.0
 10
28.17555515099593
 20
-1.732672395024565
 30
0.0
 10
28.014728067166288
 20
-1.60762567132042
 30
0.0
 10
27.84978906629112
 20
-1.4793818383841431
 30
0.0
 10
27.686389345359199
 20
-1.357641182199586
 30
0.0
 10
27.524420523448502
 20
-1.2422826366746449
 30
0.0
 11
28.49999999998181
 21
-1.99999999996362
 31
0.0
 11
28.291877521464318
 21
-1.8275753583065686
 31
0.0
 11
28.138116162967126
 21
-1.7041002416881952
 31
0.0
 11
28.075160786825638
 21
-1.6546806775683069
 31
0.0
 11
28.014802604468517
 21
-1.6076836257721201
 31
0.0
 11
27.951676862751167
 21
-1.5586793416094256
 31
0.0
 11
27.88434348635483
 21
-1.5068680393494975
 31
0.0
 11
27.731228356479193
 21
-1.3919305931187294
 31
0.0
 11
27.524420523448502
 21
-1.2422826366746449
 31
0.0
  0
LINE
  5
5F
100
AcDbEntity
  8
0
  6
CONTINUOUS
 62
             7
100
AcDbLine
 10
-26.11649281481004
 20
0.0
 11
26.11649281481004
 21
0.0
  0
LINE
  5
5E
100
AcDbEntity
  8
0
  6
CONTINUOUS
 62
             7
100
AcDbLine
 10
-28.5
 20
-2.0
 11
-26.11649281481004
 21
0.0
  0
LINE
  5
5D
100
AcDbEntity
  8
0
  6
CONTINUOUS
 62
             7
100
AcDbLine
 10
28.49999999998181
 20
-1.99999999996362
 11
28.5
 21
-14.5
  0
LINE
  5
5C
100
AcDbEntity
  8
0
  6
CONTINUOUS
 62
             7
100
AcDbLine
 10
-28.5
 20
-2.0
 11
-28.5
 21
-14.5
  0
LINE
  5
5B
100
AcDbEntity
  8
0
  6
CONTINUOUS
 62
             7
100
AcDbLine
 10
-27.5244205234485
 20
-14.5
 11
-28.5
 21
-14.5
  0
LINE
  5
5A
100
AcDbEntity
  8
0
  6
CONTINUOUS
 62
             7
100
AcDbLine
 10
27.5244205234485
 20
-14.5
 11
28.5
 21
-14.5
  0
LINE
  5
59
100
AcDbEntity
  8
0
  6
CONTINUOUS
 62
             7
100
AcDbLine
 10
28.49999999998181
 20
-1.99999999996362
 11
26.11649281481004
 21
0.0
  0
LINE
  5
58
100
AcDbEntity
  8
0
  6
CONTINUOUS
 62
             7
100
AcDbLine
 10
-27.5244205234485
 20
-14.5
 11
-26.42442052344632
 21
-14.5
  0
LINE
  5
57
100
AcDbEntity
  8
0
  6
CONTINUOUS
 62
             7
100
AcDbLine
 10
20.8769179627343
 20
-3.0
 11
20.8769179627343
 21
-4.0
  0
LINE
  5
56
100
AcDbEntity
  8
0
  6
CONTINUOUS
 62
             7
100
AcDbLine
 10
20.8769179627343
 20
-1.24228263667464
 11
20.8769179627343
 21
-3.0
  0
LINE
  5
55
100
AcDbEntity
  8
0
  6
CONTINUOUS
 62
             7
100
AcDbLine
 10
2.0
 20
-0.32180073764175
 11
17.27067337867993
 21
-0.32180073764175
  0
LINE
  5
54
100
AcDbEntity
  8
0
  6
CONTINUOUS
 62
             7
100
AcDbLine
 10
-17.27067337868357
 20
-0.32180073764175
 11
-2.0
 21
-0.32180073764175
  0
LINE
  5
53
100
AcDbEntity
  8
0
  6
CONTINUOUS
 62
             7
100
AcDbLine
 10
-17.27067337868357
 20
-0.32180073764175
 11
-17.27067337868357
 21
-14.5
  0
LINE
  5
52
100
AcDbEntity
  8
0
  6
CONTINUOUS
 62
             7
100
AcDbLine
 10
2.0
 20
-0.32180073764175
 11
2.0
 21
-1.24228263667464
  0
LINE
  5
51
100
AcDbEntity
  8
0
  6
CONTINUOUS
 62
             7
100
AcDbLine
 10
17.27067337867993
 20
-0.32180073764175
 11
17.27067337867993
 21
-14.5
  0
LINE
  5
50
100
AcDbEntity
  8
0
  6
CONTINUOUS
 62
             7
100
AcDbLine
 10
2.0
 20
-1.24228263667464
 11
2.0
 21
-14.5
  0
LINE
  5
4F
100
AcDbEntity
  8
0
  6
CONTINUOUS
 62
             7
100
AcDbLine
 10
-20.8769179627343
 20
-1.24228263667464
 11
-20.8769179627343
 21
-3.0
  0
LINE
  5
4E
100
AcDbEntity
  8
0
  6
CONTINUOUS
 62
             7
100
AcDbLine
 10
-18.04849083798763
 20
-1.24228263667464
 11
-18.04849083798763
 21
-14.5
  0
LINE
  5
4D
100
AcDbEntity
  8
0
  6
CONTINUOUS
 62
             7
100
AcDbLine
 10
18.04849083799854
 20
-1.24228263662371
 11
18.04849083798763
 21
-14.5
  0
LINE
  5
4C
100
AcDbEntity
  8
0
  6
CONTINUOUS
 62
             7
100
AcDbLine
 10
-2.0
 20
-1.24228263667464
 11
-2.0
 21
-14.5
  0
LINE
  5
4B
100
AcDbEntity
  8
0
  6
CONTINUOUS
 62
             7
100
AcDbLine
 10
20.15254326381546
 20
-2.0
 11
20.15254326381546
 21
-14.5
  0
LINE
  5
4A
100
AcDbEntity
  8
0
  6
CONTINUOUS
 62
             7
100
AcDbLine
 10
-20.15254326381546
 20
-2.0
 11
-20.15254326381546
 21
-14.5
  0
LINE
  5
49
100
AcDbEntity
  8
0
  6
CONTINUOUS
 62
             7
100
AcDbLine
 10
0.0
 20
-2.0
 11
0.0
 21
-14.5
  0
LINE
  5
48
100
AcDbEntity
  8
0
  6
CONTINUOUS
 62
             7
100
AcDbLine
 10
-20.8769179627343
 20
-3.0
 11
-20.8769179627343
 21
-14.5
  0
LINE
  5
47
100
AcDbEntity
  8
0
  6
CONTINUOUS
 62
             7
100
AcDbLine
 10
20.8769179627343
 20
-4.0
 11
20.8769179627343
 21
-14.5
  0
LINE
  5
46
100
AcDbEntity
  8
0
  6
CONTINUOUS
 62
             7
100
AcDbLine
 10
20.15254326381546
 20
-14.5
 11
20.8769179627343
 21
-14.5
  0
LINE
  5
45
100
AcDbEntity
  8
0
  6
CONTINUOUS
 62
             7
100
AcDbLine
 10
17.27067337867993
 20
-14.5
 11
18.04849083798763
 21
-14.5
  0
LINE
  5
44
100
AcDbEntity
  8
0
  6
CONTINUOUS
 62
             7
100
AcDbLine
 10
2.0
 20
-14.5
 11
17.27067337867993
 21
-14.5
  0
LINE
  5
43
100
AcDbEntity
  8
0
  6
CONTINUOUS
 62
             7
100
AcDbLine
 10
-20.8769179627343
 20
-14.5
 11
-20.15254326381546
 21
-14.5
  0
LINE
  5
42
100
AcDbEntity
  8
0
  6
CONTINUOUS
 62
             7
100
AcDbLine
 10
-20.15254326381546
 20
-14.5
 11
-20.0991005034266
 21
-14.5
  0
LINE
  5
41
100
AcDbEntity
  8
0
  6
CONTINUOUS
 62
             7
100
AcDbLine
 10
-2.0
 20
-14.5
 11
0.0
 21
-14.5
  0
LINE
  5
40
100
AcDbEntity
  8
0
  6
CONTINUOUS
 62
             7
100
AcDbLine
 10
-18.04849083798763
 20
-14.5
 11
-17.27067337868357
 21
-14.5
  0
LINE
  5
3F
100
AcDbEntity
  8
0
  6
CONTINUOUS
 62
             7
100
AcDbLine
 10
-18.04849083798763
 20
-14.5
 11
-20.0991005034266
 21
-14.5
  0
LINE
  5
3E
100
AcDbEntity
  8
0
  6
CONTINUOUS
 62
             7
100
AcDbLine
 10
2.0
 20
-14.5
 11
0.0
 21
-14.5
  0
LINE
  5
3D
100
AcDbEntity
  8
0
  6
CONTINUOUS
 62
             7
100
AcDbLine
 10
20.15254326381546
 20
-14.5
 11
20.0991005034266
 21
-14.5
  0
LINE
  5
3C
100
AcDbEntity
  8
0
  6
CONTINUOUS
 62
             7
100
AcDbLine
 10
-26.42442052344632
 20
-0.32180073764175
 11
-20.0991005034266
 21
-0.32180073764175
  0
LINE
  5
3B
100
AcDbEntity
  8
0
  6
CONTINUOUS
 62
             7
100
AcDbLine
 10
-26.42442052344632
 20
-0.32180073764175
 11
-26.42442052344632
 21
-14.5
  0
LINE
  5
3A
100
AcDbEntity
  8
0
  6
CONTINUOUS
 62
             7
100
AcDbLine
 10
-26.42442052344632
 20
-14.5
 11
-20.8769179627343
 21
-14.5
  0
LINE
  5
39
100
AcDbEntity
  8
0
  6
CONTINUOUS
 62
             7
100
AcDbLine
 10
-27.5244205234485
 20
-1.24228263667464
 11
-27.5244205234485
 21
-14.5
  0
LINE
  5
38
100
AcDbEntity
  8
0
  6
CONTINUOUS
 62
             7
100
AcDbLine
 10
28.5
 20
-17.0
 11
-28.5
 21
-17.0
  0
LINE
  5
37
100
AcDbEntity
  8
0
  6
CONTINUOUS
 62
             7
100
AcDbLine
 10
-28.5
 20
-14.5
 11
-28.5
 21
-17.0
  0
LINE
  5
36
100
AcDbEntity
  8
0
  6
CONTINUOUS
 62
             7
100
AcDbLine
 10
28.5
 20
-14.5
 11
28.5
 21
-17.0
  0
LINE
  5
35
100
AcDbEntity
  8
0
  6
CONTINUOUS
 62
             7
100
AcDbLine
 10
26.42442052344632
 20
-0.32180073764175
 11
26.42442052344632
 21
-14.5
  0
LINE
  5
34
100
AcDbEntity
  8
0
  6
CONTINUOUS
 62
             7
100
AcDbLine
 10
-2.0
 20
-0.32180073764175
 11
-2.0
 21
-1.24228263667464
  0
LINE
  5
33
100
AcDbEntity
  8
0
  6
CONTINUOUS
 62
             7
100
AcDbLine
 10
26.42442052344632
 20
-0.32180073764175
 11
20.0991005034266
 21
-0.32180073764175
  0
LINE
  5
32
100
AcDbEntity
  8
0
  6
CONTINUOUS
 62
             7
100
AcDbLine
 10
27.5244205234485
 20
-1.24228263667464
 11
27.5244205234485
 21
-14.5
  0
LINE
  5
31
100
AcDbEntity
  8
0
  6
CONTINUOUS
 62
             7
100
AcDbLine
 10
27.5244205234485
 20
-14.5
 11
26.42442052344632
 21
-14.5
  0
LINE
  5
30
100
AcDbEntity
  8
0
  6
CONTINUOUS
 62
             7
100
AcDbLine
 10
-17.27067337868357
 20
-14.5
 11
-2.0
 21
-14.5
  0
LINE
  5
2F
100
AcDbEntity
  8
0
  6
CONTINUOUS
 62
             7
100
AcDbLine
 10
26.42442052344632
 20
-14.5
 11
20.8769179627343
 21
-14.5
  0
LINE
  5
2E
100
AcDbEntity
  8
0
  6
CONTINUOUS
 62
             7
100
AcDbLine
 10
20.0991005034266
 20
-14.5
 11
18.04849083798763
 21
-14.5
  0
LINE
  5
2D
100
AcDbEntity
  8
1
  6
PHANTOM
 62
             2
100
AcDbLine
 10
0.0
 20
-14.5
 11
0.0
 21
-17.0
  0
ENDBLK
  5
6E
100
AcDbEntity
  8
0
100
AcDbBlockEnd
  0
BLOCK
  5
28
100
AcDbEntity
  8
0
100
AcDbBlockBegin
  2
VERL_NGERUNGSROHR_DN40
 70
             0
 10
23299.299999999999
 20
32318.750000000029
 30
0.0
  3
VERL_NGERUNGSROHR_DN40
  1

  0
LINE
  5
8B
100
AcDbEntity
  8
1
  6
DOT_CENTER
 62
             2
100
AcDbLine
 10
23319.299999999999
 20
32329.928199262358
 11
23319.299999999999
 21
32327.928199262358
  0
LINE
  5
8A
100
AcDbEntity
  8
1
  6
DOT_CENTER
 62
             2
100
AcDbLine
 10
23279.299999999999
 20
32329.928199262358
 11
23279.299999999999
 21
32327.928199262358
  0
LINE
  5
89
100
AcDbEntity
  8
1
  6
CONTINUOUS
 62
             7
100
AcDbLine
 10
23319.299999999999
 20
32274.75
 11
23279.299999999999
 21
32274.75
  0
LINE
  5
88
100
AcDbEntity
  8
1
  6
CONTINUOUS
 62
             7
100
AcDbLine
 10
23277.299999999999
 20
32284.75
 11
23321.299999999999
 21
32284.75
  0
LINE
  5
87
100
AcDbEntity
  8
1
  6
CONTINUOUS
 62
             7
100
AcDbLine
 10
23323.200000000001
 20
32306.34696551146
 11
23275.400000000001
 21
32306.34696551146
  0
LINE
  5
86
100
AcDbEntity
  8
1
  6
CONTINUOUS
 62
             7
100
AcDbLine
 10
23277.299999999999
 20
32305.25
 11
23321.299999999999
 21
32305.25
  0
LINE
  5
85
100
AcDbEntity
  8
1
  6
CONTINUOUS
 62
             7
100
AcDbLine
 10
23323.200000000001
 20
32309.25
 11
23322.0
 21
32309.25
  0
LINE
  5
84
100
AcDbEntity
  8
1
  6
CONTINUOUS
 62
             7
100
AcDbLine
 10
23323.200000000001
 20
32309.25
 11
23323.200000000001
 21
32306.34696551146
  0
LINE
  5
83
100
AcDbEntity
  8
1
  6
CONTINUOUS
 62
             2
100
AcDbLine
 10
23322.0
 20
32309.25
 11
23322.0
 21
32305.801103809899
  0
LINE
  5
82
100
AcDbEntity
  8
1
  6
CONTINUOUS
 62
             2
100
AcDbLine
 10
23322.0
 20
32309.25
 11
23322.0
 21
32305.65414518844
  0
LINE
  5
81
100
AcDbEntity
  8
1
  6
CONTINUOUS
 62
             7
100
AcDbLine
 10
23279.299999999999
 20
32128.75
 11
23319.299999999999
 21
32128.75
  0
LINE
  5
80
100
AcDbEntity
  8
1
  6
CONTINUOUS
 62
             7
100
AcDbLine
 10
23275.400000000001
 20
32309.25
 11
23275.400000000001
 21
32306.34696551146
  0
LINE
  5
7F
100
AcDbEntity
  8
1
  6
CONTINUOUS
 62
             2
100
AcDbLine
 10
23276.599999999999
 20
32309.25
 11
23276.599999999999
 21
32305.8382733287
  0
LINE
  5
7E
100
AcDbEntity
  8
1
  6
CONTINUOUS
 62
             7
100
AcDbLine
 10
23275.400000000001
 20
32309.25
 11
23276.599999999999
 21
32309.25
  0
LINE
  5
7D
100
AcDbEntity
  8
1
  6
CONTINUOUS
 62
             7
100
AcDbLine
 10
23322.0
 20
32305.65414518844
 11
23323.200000000001
 21
32306.34696551146
  0
LINE
  5
7C
100
AcDbEntity
  8
1
  6
CONTINUOUS
 62
             7
100
AcDbLine
 10
23281.299999999999
 20
32126.75
 11
23317.299999999999
 21
32126.75
  0
LINE
  5
7B
100
AcDbEntity
  8
1
  6
CONTINUOUS
 62
             7
100
AcDbLine
 10
23317.299999999999
 20
32126.75
 11
23319.299999999999
 21
32128.75
  0
LINE
  5
7A
100
AcDbEntity
  8
1
  6
CONTINUOUS
 62
             7
100
AcDbLine
 10
23281.299999999999
 20
32126.75
 11
23279.299999999999
 21
32128.75
  0
LINE
  5
79
100
AcDbEntity
  8
1
  6
CONTINUOUS
 62
             7
100
AcDbLine
 10
23319.299999999999
 20
32274.75
 11
23321.299999999999
 21
32284.75
  0
LINE
  5
78
100
AcDbEntity
  8
1
  6
CONTINUOUS
 62
             7
100
AcDbLine
 10
23279.299999999999
 20
32274.75
 11
23277.299999999999
 21
32284.75
  0
LINE
  5
77
100
AcDbEntity
  8
1
  6
CONTINUOUS
 62
             7
100
AcDbLine
 10
23319.299999999999
 20
32274.75
 11
23319.299999999999
 21
32128.75
  0
LINE
  5
76
100
AcDbEntity
  8
1
  6
CONTINUOUS
 62
             7
100
AcDbLine
 10
23279.299999999999
 20
32274.75
 11
23279.299999999999
 21
32128.75
  0
LINE
  5
75
100
AcDbEntity
  8
1
  6
CONTINUOUS
 62
             7
100
AcDbLine
 10
23321.700000000001
 20
32305.480940107682
 11
23322.0
 21
32305.65414518844
  0
LINE
  5
74
100
AcDbEntity
  8
1
  6
CONTINUOUS
 62
             7
100
AcDbLine
 10
23276.900000000001
 20
32305.480940107682
 11
23277.299999999999
 21
32305.25
  0
LINE
  5
73
100
AcDbEntity
  8
1
  6
CONTINUOUS
 62
             7
100
AcDbLine
 10
23277.299999999999
 20
32284.75
 11
23277.299999999999
 21
32305.25
  0
LINE
  5
72
100
AcDbEntity
  8
1
  6
CONTINUOUS
 62
             7
100
AcDbLine
 10
23275.400000000001
 20
32306.34696551146
 11
23276.900000000001
 21
32305.480940107682
  0
LINE
  5
71
100
AcDbEntity
  8
1
  6
CONTINUOUS
 62
             7
100
AcDbLine
 10
23321.299999999999
 20
32284.75
 11
23321.299999999999
 21
32305.25
  0
LINE
  5
70
100
AcDbEntity
  8
1
  6
CONTINUOUS
 62
             7
100
AcDbLine
 10
23321.299999999999
 20
32305.25
 11
23321.700000000001
 21
32305.480940107682
  0
LINE
  5
6F
100
AcDbEntity
  8
1
  6
DASH_CENTER
 62
             2
100
AcDbLine
 10
23299.299999999999
 20
32125.494157163401
 11
23299.299999999999
 21
32329.726423909098
  0
ENDBLK
  5
8C
100
AcDbEntity
  8
0
100
AcDbBlockEnd
  0
BLOCK
  5
91
100
AcDbEntity
  8
0
100
AcDbBlockBegin
  2
*D2
 70
             1
 10
0.0
 20
0.0
 30
0.0
  3
*D2
  1

  0
LINE
  5
92
100
AcDbEntity
  8
0
  6
CONTINUOUS
 62
             4
100
AcDbLine
 10
23.90000000000146
 20
-32.6858833991198
 11
47.23839975483671
 21
-32.6858833991198
  0
LINE
  5
93
100
AcDbEntity
  8
0
  6
CONTINUOUS
 62
             4
100
AcDbLine
 10
-23.89999999999782
 20
-32.6858833991198
 11
23.90000000000146
 21
-32.6858833991198
  0
LINE
  5
94
100
AcDbEntity
  8
0
  6
CONTINUOUS
 62
             4
100
AcDbLine
 10
23.90000000000146
 20
-19.90303448853956
 11
23.90000000000146
 21
-34.6858833991198
  0
LINE
  5
95
100
AcDbEntity
  8
0
  6
CONTINUOUS
 62
             4
100
AcDbLine
 10
-23.89999999999782
 20
-19.90303448853956
 11
-23.89999999999782
 21
-34.6858833991198
  0
SOLID
  5
96
100
AcDbEntity
  8
0
 62
             4
100
AcDbTrace
 10
-16.89999999999782
 20
-31.76431591600803
 11
-16.89999999999782
 21
-33.60745088223158
 12
-23.89999999999782
 22
-32.6858833991198
 13
-23.89999999999782
 23
-32.6858833991198
  0
SOLID
  5
97
100
AcDbEntity
  8
0
 62
             4
100
AcDbTrace
 10
16.90000000000146
 20
-33.60745088223158
 11
16.90000000000146
 21
-31.76431591600803
 12
23.90000000000146
 22
-32.6858833991198
 13
23.90000000000146
 23
-32.6858833991198
  0
MTEXT
  5
99
100
AcDbEntity
  8
0
 62
             1
100
AcDbMText
 10
28.3383997548367
 20
-30.6858833991198
 30
0.0
 40
7.0
 41
0.0
 71
             7
 72
             1
  1
6/4"
  7
CONVERTER_1
 11
0.99999999999706
 21
0.00000242406841
 31
0.0
  0
ENDBLK
  5
9A
100
AcDbEntity
  8
0
100
AcDbBlockEnd
  0
BLOCK
  5
9E
100
AcDbEntity
  8
0
100
AcDbBlockBegin
  2
*D3
 70
             1
 10
0.0
 20
0.0
 30
0.0
  3
*D3
  1

  0
LINE
  5
9F
100
AcDbEntity
  8
0
  6
CONTINUOUS
 62
             4
100
AcDbLine
 10
-42.5
 20
-199.5
 11
-42.5
 21
-4.5
  0
LINE
  5
A0
100
AcDbEntity
  8
0
  6
CONTINUOUS
 62
             4
100
AcDbLine
 10
-23.0
 20
-199.5
 11
-44.5
 21
-199.5
  0
LINE
  5
A1
100
AcDbEntity
  8
0
  6
CONTINUOUS
 62
             4
100
AcDbLine
 10
-32.5
 20
-4.5
 11
-44.5
 21
-4.5
  0
SOLID
  5
A2
100
AcDbEntity
  8
0
 62
             4
100
AcDbTrace
 10
-43.42156748311177
 20
-192.5
 11
-41.57843251688823
 21
-192.5
 12
-42.5
 22
-199.5
 13
-42.5
 23
-199.5
  0
SOLID
  5
A3
100
AcDbEntity
  8
0
 62
             4
100
AcDbTrace
 10
-41.57843251688824
 20
-11.5
 11
-43.42156748311177
 21
-11.5
 12
-42.5
 22
-4.5
 13
-42.5
 23
-4.5
  0
MTEXT
  5
A4
100
AcDbEntity
  8
0
 62
             1
100
AcDbMText
 10
-44.5
 20
-113.739377873308
 30
0.0
 40
7.0
 41
0.0
 71
             7
 72
             1
  1
195
  7
CONVERTER_1
 11
0.0
 21
1.0
 31
0.0
  0
ENDBLK
  5
A5
100
AcDbEntity
  8
0
100
AcDbBlockEnd
  0
BLOCK
  5
A9
100
AcDbEntity
  8
0
100
AcDbBlockBegin
  2
*D4
 70
             1
 10
0.0
 20
0.0
 30
0.0
  3
*D4
  1

  0
LINE
  5
AA
100
AcDbEntity
  8
0
  6
CONTINUOUS
 62
             4
100
AcDbLine
 10
-20.0
 20
-214.12022416636401
 11
20.0
 21
-214.12022416636401
  0
LINE
  5
AB
100
AcDbEntity
  8
0
  6
CONTINUOUS
 62
             4
100
AcDbLine
 10
20.0
 20
-197.5
 11
20.0
 21
-216.12022416636401
  0
LINE
  5
AC
100
AcDbEntity
  8
0
  6
CONTINUOUS
 62
             4
100
AcDbLine
 10
-20.0
 20
-197.5
 11
-20.0
 21
-216.12022416636401
  0
SOLID
  5
AD
100
AcDbEntity
  8
0
 62
             4
100
AcDbTrace
 10
-13.0
 20
-213.19865668325224
 11
-13.0
 21
-215.04179164947578
 12
-20.0
 22
-214.12022416636401
 13
-20.0
 23
-214.12022416636401
  0
SOLID
  5
AE
100
AcDbEntity
  8
0
 62
             4
100
AcDbTrace
 10
13.0
 20
-215.04179164947578
 11
13.0
 21
-213.19865668325224
 12
20.0
 22
-214.12022416636401
 13
20.0
 23
-214.12022416636401
  0
MTEXT
  5
AF
100
AcDbEntity
  8
0
 62
             1
100
AcDbMText
 10
-8.24077272857713
 20
-212.1202519946693
 30
0.0
 40
7.0
 41
0.0
 71
             7
 72
             1
  1
\C1;DN\C1;40
  7
CONVERTER_1
 11
0.99999999999706
 21
0.00000242406841
 31
0.0
  0
ENDBLK
  5
B0
100
AcDbEntity
  8
0
100
AcDbBlockEnd
  0
BLOCK
  5
B4
100
AcDbEntity
  8
0
100
AcDbBlockBegin
  2
*D5
 70
             1
 10
0.0
 20
0.0
 30
0.0
  3
*D5
  1

  0
LINE
  5
B5
100
AcDbEntity
  8
0
  6
CONTINUOUS
 62
             4
100
AcDbLine
 10
-20.0
 20
13.67819926235825
 11
20.0
 21
13.67819926235825
  0
LINE
  5
B6
100
AcDbEntity
  8
0
  6
CONTINUOUS
 62
             4
100
AcDbLine
 10
20.0
 20
3.67819926235825
 11
20.0
 21
15.67819926235825
  0
LINE
  5
B7
100
AcDbEntity
  8
0
  6
CONTINUOUS
 62
             4
100
AcDbLine
 10
-20.0
 20
3.67819926235825
 11
-20.0
 21
15.67819926235825
  0
SOLID
  5
B8
100
AcDbEntity
  8
0
 62
             4
100
AcDbTrace
 10
-13.0
 20
14.59976674547002
 11
-13.0
 21
12.75663177924648
 12
-20.0
 22
13.67819926235825
 13
-20.0
 23
13.67819926235825
  0
SOLID
  5
B9
100
AcDbEntity
  8
0
 62
             4
100
AcDbTrace
 10
13.0
 20
12.75663177924648
 11
13.0
 21
14.59976674547002
 12
20.0
 22
13.67819926235825
 13
20.0
 23
13.67819926235825
  0
MTEXT
  5
BA
100
AcDbEntity
  8
0
 62
             1
100
AcDbMText
 10
-7.93942455165945
 20
15.67817143405295
 30
0.0
 40
7.0
 41
0.0
 71
             7
 72
             1
  1
\C1;DN\C1;40
  7
CONVERTER_1
 11
0.99999999999706
 21
0.00000242406841
 31
0.0
  0
ENDBLK
  5
BB
100
AcDbEntity
  8
0
100
AcDbBlockEnd
  0
ENDSEC
  0
SECTION
  2
ENTITIES
  0
DIMENSION
  5
BD
100
AcDbEntity
  8
1
100
AcDbDimension
  2
*D5
 10
-20.0
 20
13.67819926235825
 11
1.09057544830682
 21
19.17819926235825
 31
0.0
 53
0.00013888888889
  1
<>
  3
ME10_DIM_3
100
AcDbAlignedDimension
 13
20.0
 23
3.67819926235825
 14
-20.0
 24
3.67819926235825
100
AcDbRotatedDimension
  0
DIMENSION
  5
B2
100
AcDbEntity
  8
1
100
AcDbDimension
  2
*D4
 10
-20.0
 20
-214.12022416636401
 11
0.78922727138914
 21
-208.62022416636401
 31
0.0
 53
0.00013888888889
  1
DN40
  3
ME10_DIM_2
100
AcDbAlignedDimension
 13
20.0
 23
-197.5
 14
-20.0
 24
-197.5
100
AcDbRotatedDimension
  0
DIMENSION
  5
A7
100
AcDbEntity
  8
1
100
AcDbDimension
  2
*D3
 10
-42.5
 20
-199.5
 11
-48.0
 21
-106.38937787330801
 31
0.0
 53
-90.0
  1
<>
  3
ME10_DIM_1
100
AcDbAlignedDimension
 13
-32.5
 23
-4.5
 14
-23.0
 24
-199.5
 50
-90.0
100
AcDbRotatedDimension
  0
DIMENSION
  5
9C
100
AcDbEntity
  8
1
100
AcDbDimension
  2
*D2
 10
-23.89999999999782
 20
-32.6858833991198
 11
37.7883997548367
 21
-27.1858833991198
 31
0.0
 53
0.00013888888889
  1
6/4"
  3
ME10_DIM_0
100
AcDbAlignedDimension
 13
23.90000000000146
 23
-19.90303448853956
 14
-23.89999999999782
 24
-19.90303448853956
100
AcDbRotatedDimension
  0
LINE
  5
8F
100
AcDbEntity
  8
1
  6
DOT_CENTER
 62
             2
100
AcDbLine
 10
-23.0
 20
-199.5
 11
-24.0
 21
-199.5
  0
LINE
  5
8E
100
AcDbEntity
  8
1
  6
DOT_CENTER
 62
             2
100
AcDbLine
 10
-32.5
 20
-4.5
 11
-31.5
 21
-4.5
  0
INSERT
  5
2B
100
AcDbEntity
  8
0
100
AcDbBlockReference
  2
01047D_HOLLAENDERMUTTE_6_4
 10
-154.6881550934813
 20
-10.97654411729309
  0
INSERT
  5
2C
100
AcDbEntity
  8
1
100
AcDbBlockReference
  2
VERL_NGERUNGSROHR_DN40
 10
0.0
 20
-7.4999999999709
  0
ENDSEC
  0
SECTION
  2
OBJECTS
  0
DICTIONARY
  5
19
100
AcDbDictionary
  3
ACAD_GROUP
350
1A
  3
ACAD_MLINESTYLE
350
1B
  0
DICTIONARY
  5
1A
102
{ACAD_REACTORS
330
19
102
}
100
AcDbDictionary
  0
DICTIONARY
  5
1B
102
{ACAD_REACTORS
330
19
102
}
100
AcDbDictionary
  3
STANDARD
350
1C
  0
MLINESTYLE
  5
1C
102
{ACAD_REACTORS
330
1B
102
}
100
AcDbMlineStyle
  2
STANDARD
 70
             0
  3

 62
             0
 51
90.0
 52
90.0
 71
             2
 49
0.5
 62
           256
  6
BYLAYER
 49
-0.5
 62
           256
  6
BYLAYER
  0
ENDSEC
  0
EOF
