  0
SECTION
  2
HEADER
  9
$ACADVER
  1
AC1015
  9
$ACADMAINTVER
 70
     6
  9
$DWGCODEPAGE
  3
ANSI_1252
  9
$INSBASE
 10
0.0
 20
0.0
 30
0.0
  9
$EXTMIN
 10
-47.13259927285698
 20
-182.5509149770564
 30
0.0
  9
$EXTMAX
 10
123.9843194451641
 20
22.99999999999137
 30
0.0
  9
$LIMMIN
 10
0.0
 20
0.0
  9
$LIMMAX
 10
12.0
 20
9.0
  9
$ORTHOMODE
 70
     0
  9
$REGENMODE
 70
     1
  9
$FILLMODE
 70
     1
  9
$QTEXTMODE
 70
     0
  9
$MIRRTEXT
 70
     1
  9
$LTSCALE
 40
1.0
  9
$ATTMODE
 70
     1
  9
$TEXTSIZE
 40
0.2
  9
$TRACEWID
 40
0.05
  9
$TEXTSTYLE
  7
Standard
  9
$CLAYER
  8
0
  9
$CELTYPE
  6
ByLayer
  9
$CECOLOR
 62
   256
  9
$CELTSCALE
 40
1.0
  9
$DISPSILH
 70
     0
  9
$DIMSCALE
 40
1.0
  9
$DIMASZ
 40
0.18
  9
$DIMEXO
 40
0.0625
  9
$DIMDLI
 40
0.38
  9
$DIMRND
 40
0.0
  9
$DIMDLE
 40
0.0
  9
$DIMEXE
 40
0.18
  9
$DIMTP
 40
0.0
  9
$DIMTM
 40
0.0
  9
$DIMTXT
 40
0.18
  9
$DIMCEN
 40
0.09
  9
$DIMTSZ
 40
0.0
  9
$DIMTOL
 70
     0
  9
$DIMLIM
 70
     0
  9
$DIMTIH
 70
     1
  9
$DIMTOH
 70
     1
  9
$DIMSE1
 70
     0
  9
$DIMSE2
 70
     0
  9
$DIMTAD
 70
     0
  9
$DIMZIN
 70
     0
  9
$DIMBLK
  1

  9
$DIMASO
 70
     1
  9
$DIMSHO
 70
     1
  9
$DIMPOST
  1

  9
$DIMAPOST
  1

  9
$DIMALT
 70
     0
  9
$DIMALTD
 70
     2
  9
$DIMALTF
 40
25.4
  9
$DIMLFAC
 40
1.0
  9
$DIMTOFL
 70
     0
  9
$DIMTVP
 40
0.0
  9
$DIMTIX
 70
     0
  9
$DIMSOXD
 70
     0
  9
$DIMSAH
 70
     0
  9
$DIMBLK1
  1

  9
$DIMBLK2
  1

  9
$DIMSTYLE
  2
Standard
  9
$DIMCLRD
 70
     0
  9
$DIMCLRE
 70
     0
  9
$DIMCLRT
 70
     0
  9
$DIMTFAC
 40
1.0
  9
$DIMGAP
 40
0.09
  9
$DIMJUST
 70
     0
  9
$DIMSD1
 70
     0
  9
$DIMSD2
 70
     0
  9
$DIMTOLJ
 70
     1
  9
$DIMTZIN
 70
     0
  9
$DIMALTZ
 70
     0
  9
$DIMALTTZ
 70
     0
  9
$DIMUPT
 70
     0
  9
$DIMDEC
 70
     4
  9
$DIMTDEC
 70
     4
  9
$DIMALTU
 70
     2
  9
$DIMALTTD
 70
     2
  9
$DIMTXSTY
  7
Standard
  9
$DIMAUNIT
 70
     0
  9
$DIMADEC
 70
     0
  9
$DIMALTRND
 40
0.0
  9
$DIMAZIN
 70
     0
  9
$DIMDSEP
 70
    46
  9
$DIMATFIT
 70
     3
  9
$DIMFRAC
 70
     0
  9
$DIMLDRBLK
  1

  9
$DIMLUNIT
 70
     2
  9
$DIMLWD
 70
    -2
  9
$DIMLWE
 70
    -2
  9
$DIMTMOVE
 70
     0
  9
$LUNITS
 70
     2
  9
$LUPREC
 70
     4
  9
$SKETCHINC
 40
0.1
  9
$FILLETRAD
 40
0.5
  9
$AUNITS
 70
     0
  9
$AUPREC
 70
     0
  9
$MENU
  1
.
  9
$ELEVATION
 40
0.0
  9
$PELEVATION
 40
0.0
  9
$THICKNESS
 40
0.0
  9
$LIMCHECK
 70
     0
  9
$CHAMFERA
 40
0.5
  9
$CHAMFERB
 40
0.5
  9
$CHAMFERC
 40
1.0
  9
$CHAMFERD
 40
0.0
  9
$SKPOLY
 70
     0
  9
$TDCREATE
 40
2456966.618531296
  9
$TDUCREATE
 40
2456966.57686463
  9
$TDUPDATE
 40
2456966.618531296
  9
$TDUUPDATE
 40
2456966.57686463
  9
$TDINDWG
 40
0.0000000116
  9
$TDUSRTIMER
 40
0.0000000116
  9
$USRTIMER
 70
     1
  9
$ANGBASE
 50
0.0
  9
$ANGDIR
 70
     0
  9
$PDMODE
 70
     0
  9
$PDSIZE
 40
0.0
  9
$PLINEWID
 40
0.0
  9
$SPLFRAME
 70
     0
  9
$SPLINETYPE
 70
     6
  9
$SPLINESEGS
 70
     8
  9
$HANDSEED
  5
19D
  9
$SURFTAB1
 70
     6
  9
$SURFTAB2
 70
     6
  9
$SURFTYPE
 70
     6
  9
$SURFU
 70
     6
  9
$SURFV
 70
     6
  9
$UCSBASE
  2

  9
$UCSNAME
  2

  9
$UCSORG
 10
0.0
 20
0.0
 30
0.0
  9
$UCSXDIR
 10
1.0
 20
0.0
 30
0.0
  9
$UCSYDIR
 10
0.0
 20
1.0
 30
0.0
  9
$UCSORTHOREF
  2

  9
$UCSORTHOVIEW
 70
     0
  9
$UCSORGTOP
 10
0.0
 20
0.0
 30
0.0
  9
$UCSORGBOTTOM
 10
0.0
 20
0.0
 30
0.0
  9
$UCSORGLEFT
 10
0.0
 20
0.0
 30
0.0
  9
$UCSORGRIGHT
 10
0.0
 20
0.0
 30
0.0
  9
$UCSORGFRONT
 10
0.0
 20
0.0
 30
0.0
  9
$UCSORGBACK
 10
0.0
 20
0.0
 30
0.0
  9
$PUCSBASE
  2

  9
$PUCSNAME
  2

  9
$PUCSORG
 10
0.0
 20
0.0
 30
0.0
  9
$PUCSXDIR
 10
1.0
 20
0.0
 30
0.0
  9
$PUCSYDIR
 10
0.0
 20
1.0
 30
0.0
  9
$PUCSORTHOREF
  2

  9
$PUCSORTHOVIEW
 70
     0
  9
$PUCSORGTOP
 10
0.0
 20
0.0
 30
0.0
  9
$PUCSORGBOTTOM
 10
0.0
 20
0.0
 30
0.0
  9
$PUCSORGLEFT
 10
0.0
 20
0.0
 30
0.0
  9
$PUCSORGRIGHT
 10
0.0
 20
0.0
 30
0.0
  9
$PUCSORGFRONT
 10
0.0
 20
0.0
 30
0.0
  9
$PUCSORGBACK
 10
0.0
 20
0.0
 30
0.0
  9
$USERI1
 70
     0
  9
$USERI2
 70
     0
  9
$USERI3
 70
     0
  9
$USERI4
 70
     0
  9
$USERI5
 70
     0
  9
$USERR1
 40
18.1
  9
$USERR2
 40
0.0
  9
$USERR3
 40
0.0
  9
$USERR4
 40
0.0
  9
$USERR5
 40
0.0
  9
$WORLDVIEW
 70
     1
  9
$SHADEDGE
 70
     3
  9
$SHADEDIF
 70
    70
  9
$TILEMODE
 70
     1
  9
$MAXACTVP
 70
    64
  9
$PINSBASE
 10
0.0
 20
0.0
 30
0.0
  9
$PLIMCHECK
 70
     0
  9
$PEXTMIN
 10
1.00000000000000E+20
 20
1.00000000000000E+20
 30
1.00000000000000E+20
  9
$PEXTMAX
 10
-1.00000000000000E+20
 20
-1.00000000000000E+20
 30
-1.00000000000000E+20
  9
$PLIMMIN
 10
0.0
 20
0.0
  9
$PLIMMAX
 10
12.0
 20
9.0
  9
$UNITMODE
 70
     0
  9
$VISRETAIN
 70
     1
  9
$PLINEGEN
 70
     0
  9
$PSLTSCALE
 70
     1
  9
$TREEDEPTH
 70
  3020
  9
$CMLSTYLE
  2
Standard
  9
$CMLJUST
 70
     0
  9
$CMLSCALE
 40
1.0
  9
$PROXYGRAPHICS
 70
     1
  9
$MEASUREMENT
 70
     1
  9
$CELWEIGHT
370
    -1
  9
$ENDCAPS
280
     0
  9
$JOINSTYLE
280
     0
  9
$LWDISPLAY
290
     0
  9
$INSUNITS
 70
     1
  9
$HYPERLINKBASE
  1

  9
$STYLESHEET
  1

  9
$XEDIT
290
     1
  9
$CEPSNTYPE
380
     0
  9
$PSTYLEMODE
290
     1
  9
$FINGERPRINTGUID
  2
{A86F6787-93F7-4723-9E9C-C847BA65C5F1}
  9
$VERSIONGUID
  2
{FAEB1C32-E019-11D5-929B-00C0DF256EC4}
  9
$EXTNAMES
290
     1
  9
$PSVPSCALE
 40
0.0
  9
$OLESTARTUP
290
     0
  0
ENDSEC
  0
SECTION
  2
CLASSES
  0
CLASS
  1
ACDBDICTIONARYWDFLT
  2
AcDbDictionaryWithDefault
  3
ObjectDBX Classes
 90
        0
280
     0
281
     0
  0
CLASS
  1
VISUALSTYLE
  2
AcDbVisualStyle
  3
ObjectDBX Classes
 90
     4095
280
     0
281
     0
  0
CLASS
  1
MATERIAL
  2
AcDbMaterial
  3
ObjectDBX Classes
 90
     1153
280
     0
281
     0
  0
CLASS
  1
DICTIONARYVAR
  2
AcDbDictionaryVar
  3
ObjectDBX Classes
 90
        0
280
     0
281
     0
  0
CLASS
  1
ACDBPLACEHOLDER
  2
AcDbPlaceHolder
  3
ObjectDBX Classes
 90
        0
280
     0
281
     0
  0
CLASS
  1
LAYOUT
  2
AcDbLayout
  3
ObjectDBX Classes
 90
        0
280
     0
281
     0
  0
ENDSEC
  0
SECTION
  2
TABLES
  0
TABLE
  2
VPORT
  5
8
330
0
100
AcDbSymbolTable
 70
     1
  0
VPORT
  5
29
330
8
100
AcDbSymbolTableRecord
100
AcDbViewportTableRecord
  2
*Active
 70
     0
 10
0.0
 20
0.0
 11
1.0
 21
1.0
 12
38.42586008615356
 22
-79.77545748853252
 13
0.0
 23
0.0
 14
0.5
 24
0.5
 15
0.5
 25
0.5
 16
0.0
 26
0.0
 36
1.0
 17
0.0
 27
0.0
 37
0.0
 40
226.1060064747526
 41
1.60267857142857
 42
50.0
 43
0.0
 44
0.0
 50
0.0
 51
0.0
 71
     0
 72
   100
 73
     1
 74
     3
 75
     0
 76
     0
 77
     0
 78
     0
281
     0
 65
     1
110
0.0
120
0.0
130
0.0
111
1.0
121
0.0
131
0.0
112
0.0
122
1.0
132
0.0
 79
     0
146
0.0
  0
ENDTAB
  0
TABLE
  2
LTYPE
  5
5
330
0
100
AcDbSymbolTable
 70
     8
  0
LTYPE
  5
14
330
5
100
AcDbSymbolTableRecord
100
AcDbLinetypeTableRecord
  2
ByBlock
 70
     0
  3

 72
    65
 73
     0
 40
0.0
  0
LTYPE
  5
15
330
5
100
AcDbSymbolTableRecord
100
AcDbLinetypeTableRecord
  2
ByLayer
 70
     0
  3

 72
    65
 73
     0
 40
0.0
  0
LTYPE
  5
16
330
5
100
AcDbSymbolTableRecord
100
AcDbLinetypeTableRecord
  2
Continuous
 70
     0
  3
Solid line
 72
    65
 73
     0
 40
0.0
  0
LTYPE
  5
3F
330
5
100
AcDbSymbolTableRecord
100
AcDbLinetypeTableRecord
  2
DASHED
 70
     0
  3
Dashed
 72
    65
 73
     2
 40
15.0
 49
7.0
 74
     0
 49
-8.0
 74
     0
  0
LTYPE
  5
40
330
5
100
AcDbSymbolTableRecord
100
AcDbLinetypeTableRecord
  2
DOTTED
 70
     0
  3
Dotted
 72
    65
 73
     2
 40
1.0
 49
0.0
 74
     0
 49
-1.0
 74
     0
  0
LTYPE
  5
41
330
5
100
AcDbSymbolTableRecord
100
AcDbLinetypeTableRecord
  2
DOT_CENTER
 70
     0
  3
Dot_Center
 72
    65
 73
     4
 40
14.0
 49
12.0
 74
     0
 49
-1.0
 74
     0
 49
0.0
 74
     0
 49
-1.0
 74
     0
  0
LTYPE
  5
42
330
5
100
AcDbSymbolTableRecord
100
AcDbLinetypeTableRecord
  2
LONG_DASHED
 70
     0
  3
Long_Dashed
 72
    65
 73
     2
 40
15.0
 49
10.0
 74
     0
 49
-5.0
 74
     0
  0
LTYPE
  5
43
330
5
100
AcDbSymbolTableRecord
100
AcDbLinetypeTableRecord
  2
DASH_CENTER
 70
     0
  3
Dash_Center
 72
    65
 73
     4
 40
14.0
 49
11.0
 74
     0
 49
-1.0
 74
     0
 49
1.0
 74
     0
 49
-1.0
 74
     0
  0
LTYPE
  5
44
330
5
100
AcDbSymbolTableRecord
100
AcDbLinetypeTableRecord
  2
PHANTOM
 70
     0
  3
Phantom
 72
    65
 73
     6
 40
13.0
 49
10.0
 74
     0
 49
-1.0
 74
     0
 49
0.0
 74
     0
 49
-1.0
 74
     0
 49
0.0
 74
     0
 49
-1.0
 74
     0
  0
LTYPE
  5
45
330
5
100
AcDbSymbolTableRecord
100
AcDbLinetypeTableRecord
  2
CENTER_DASH_DASH
 70
     0
  3
Center_Dash_Dash
 72
    65
 73
     6
 40
14.0
 49
9.0
 74
     0
 49
-1.0
 74
     0
 49
1.0
 74
     0
 49
-1.0
 74
     0
 49
1.0
 74
     0
 49
-1.0
 74
     0
  0
ENDTAB
  0
TABLE
  2
LAYER
  5
2
330
0
100
AcDbSymbolTable
 70
     2
  0
LAYER
  5
10
330
2
100
AcDbSymbolTableRecord
100
AcDbLayerTableRecord
  2
0
 70
     0
 62
     7
  6
Continuous
370
    -3
390
F
  0
LAYER
  5
46
330
2
100
AcDbSymbolTableRecord
100
AcDbLayerTableRecord
  2
1
 70
     0
 62
     7
  6
Continuous
370
    -3
390
F
  0
ENDTAB
  0
TABLE
  2
STYLE
  5
3
330
0
100
AcDbSymbolTable
 70
     2
  0
STYLE
  5
11
330
3
100
AcDbSymbolTableRecord
100
AcDbTextStyleTableRecord
  2
Standard
 70
     0
 40
0.0
 41
1.0
 50
0.0
 71
     0
 42
0.2
  3
txt
  4

  0
STYLE
  5
F1
330
3
100
AcDbSymbolTableRecord
100
AcDbTextStyleTableRecord
  2
CONVERTER_11
 70
     0
 40
0.0
 41
0.9
 50
0.0
 71
     0
 42
0.2
  3
txt.shx
  4

  0
ENDTAB
  0
TABLE
  2
VIEW
  5
6
330
0
100
AcDbSymbolTable
 70
     0
  0
ENDTAB
  0
TABLE
  2
UCS
  5
7
330
0
100
AcDbSymbolTable
 70
     0
  0
ENDTAB
  0
TABLE
  2
APPID
  5
9
330
0
100
AcDbSymbolTable
 70
     1
  0
APPID
  5
12
330
9
100
AcDbSymbolTableRecord
100
AcDbRegAppTableRecord
  2
ACAD
 70
     0
  0
ENDTAB
  0
TABLE
  2
DIMSTYLE
  5
A
330
0
100
AcDbSymbolTable
 70
     5
100
AcDbDimStyleTable
  0
DIMSTYLE
105
27
330
A
100
AcDbSymbolTableRecord
100
AcDbDimStyleTableRecord
  2
Standard
 70
     0
178
     0
340
11
  0
DIMSTYLE
105
F5
102
{ACAD_REACTORS
330
F6
102
}
330
A
100
AcDbSymbolTableRecord
100
AcDbDimStyleTableRecord
  2
ME10_DIM_10
 70
     0
 41
7.0
 42
0.0
 44
2.0
 73
     0
 74
     0
 77
     1
 78
     8
140
7.0
147
2.0
172
     1
173
     1
174
     1
175
     1
176
     4
177
     4
271
     2
178
     1
271
     2
340
F1
  0
DIMSTYLE
105
100
102
{ACAD_REACTORS
330
101
102
}
330
A
100
AcDbSymbolTableRecord
100
AcDbDimStyleTableRecord
  2
ME10_DIM_11
 70
     0
  3
DN<>
 41
7.0
 42
0.0
 44
2.0
 73
     0
 74
     0
 77
     1
 78
     8
140
7.0
147
2.0
172
     1
173
     1
174
     1
175
     1
176
     4
177
     4
271
     2
178
     1
271
     2
340
F1
  0
DIMSTYLE
105
10B
102
{ACAD_REACTORS
330
10C
102
}
330
A
100
AcDbSymbolTableRecord
100
AcDbDimStyleTableRecord
  2
ME10_DIM_12
 70
     0
 41
7.0
 42
0.0
 44
2.0
 73
     0
 74
     0
 77
     1
 78
     8
140
7.0
147
2.0
172
     1
173
     1
174
     1
175
     1
176
     4
177
     4
271
     2
178
     1
271
     2
340
F1
  0
DIMSTYLE
105
118
102
{ACAD_REACTORS
330
119
102
}
330
A
100
AcDbSymbolTableRecord
100
AcDbDimStyleTableRecord
  2
ME10_DIM_13
 70
     0
 41
7.0
 42
0.0
 44
2.0
 73
     0
 74
     0
 77
     1
 78
     8
140
7.0
147
2.0
172
     1
173
     1
174
     1
175
     1
176
     4
177
     4
271
     2
178
     1
271
     2
340
F1
  0
ENDTAB
  0
TABLE
  2
BLOCK_RECORD
  5
1
330
0
100
AcDbSymbolTable
 70
    12
  0
BLOCK_RECORD
  5
1F
330
1
100
AcDbSymbolTableRecord
100
AcDbBlockTableRecord
  2
*Model_Space
340
22
  0
BLOCK_RECORD
  5
1B
330
1
100
AcDbSymbolTableRecord
100
AcDbBlockTableRecord
  2
*Paper_Space
340
1E
  0
BLOCK_RECORD
  5
23
330
1
100
AcDbSymbolTableRecord
100
AcDbBlockTableRecord
  2
*Paper_Space0
340
26
  0
BLOCK_RECORD
  5
47
330
1
100
AcDbSymbolTableRecord
100
AcDbBlockTableRecord
  2
HL19_ABS_10003_ABS
340
0
102
{BLKREFS
331
4B
102
}
  0
BLOCK_RECORD
  5
4A
330
1
100
AcDbSymbolTableRecord
100
AcDbBlockTableRecord
  2
HL19
340
0
102
{BLKREFS
331
55
102
}
  0
BLOCK_RECORD
  5
4E
330
1
100
AcDbSymbolTableRecord
100
AcDbBlockTableRecord
  2
Mutter5_4
340
0
102
{BLKREFS
331
56
102
}
  0
BLOCK_RECORD
  5
51
330
1
100
AcDbSymbolTableRecord
100
AcDbBlockTableRecord
  2
HL_13_DN32_Tauchrohr
340
0
102
{BLKREFS
331
57
102
}
  0
BLOCK_RECORD
  5
54
330
1
100
AcDbSymbolTableRecord
100
AcDbBlockTableRecord
  2
HL13_30
340
0
102
{BLKREFS
331
60
102
}
  0
BLOCK_RECORD
  5
5A
330
1
100
AcDbSymbolTableRecord
100
AcDbBlockTableRecord
  2
Holländermutter_1
340
0
102
{BLKREFS
331
61
102
}
  0
BLOCK_RECORD
  5
5D
330
1
100
AcDbSymbolTableRecord
100
AcDbBlockTableRecord
  2
Dichtstopfen
340
0
102
{BLKREFS
331
62
102
}
  0
BLOCK_RECORD
  5
EB
330
1
100
AcDbSymbolTableRecord
100
AcDbBlockTableRecord
  2
*D8
340
0
  0
BLOCK_RECORD
  5
F7
330
1
100
AcDbSymbolTableRecord
100
AcDbBlockTableRecord
  2
*D9
340
0
  0
BLOCK_RECORD
  5
102
330
1
100
AcDbSymbolTableRecord
100
AcDbBlockTableRecord
  2
*D10
340
0
  0
BLOCK_RECORD
  5
10D
330
1
100
AcDbSymbolTableRecord
100
AcDbBlockTableRecord
  2
*D11
340
0
  0
ENDTAB
  0
ENDSEC
  0
SECTION
  2
BLOCKS
  0
BLOCK
  5
20
330
1F
100
AcDbEntity
  8
0
100
AcDbBlockBegin
  2
*Model_Space
 70
     0
 10
0.0
 20
0.0
 30
0.0
  3
*Model_Space
  1

  0
ENDBLK
  5
21
330
1F
100
AcDbEntity
  8
0
100
AcDbBlockEnd
  0
BLOCK
  5
1C
330
1B
100
AcDbEntity
 67
     1
  8
0
100
AcDbBlockBegin
  2
*Paper_Space
 70
     0
 10
0.0
 20
0.0
 30
0.0
  3
*Paper_Space
  1

  0
ENDBLK
  5
1D
330
1B
100
AcDbEntity
 67
     1
  8
0
100
AcDbBlockEnd
  0
BLOCK
  5
24
330
23
100
AcDbEntity
  8
0
100
AcDbBlockBegin
  2
*Paper_Space0
 70
     0
 10
0.0
 20
0.0
 30
0.0
  3
*Paper_Space0
  1

  0
ENDBLK
  5
25
330
23
100
AcDbEntity
  8
0
100
AcDbBlockEnd
  0
BLOCK
  5
48
330
47
100
AcDbEntity
  8
0
100
AcDbBlockBegin
  2
HL19_ABS_10003_ABS
 70
     0
 10
82.16474493309487
 20
-45.26581218700069
 30
0.0
  3
HL19_ABS_10003_ABS
  1

  0
LINE
  5
63
330
47
100
AcDbEntity
  8
1
  6
DOT_CENTER
 62
     2
100
AcDbLine
 10
97.71273764445755
 20
-76.36396932176604
 30
0.0
 11
88.96465392002193
 21
-43.71567639318761
 31
0.0
  0
LINE
  5
64
330
47
100
AcDbEntity
  8
1
  6
DOT_CENTER
 62
     2
100
AcDbLine
 10
85.1600139570275
 20
-29.5165667467349
 30
0.0
 11
88.83524439747092
 21
-43.23271348004306
 31
0.0
  0
LINE
  5
65
330
47
100
AcDbEntity
  8
1
  6
DOT_CENTER
 62
     2
100
AcDbLine
 10
73.52493767881359
 20
-22.79905232545218
 30
0.0
 11
60.85136468636307
 21
-26.19492597398386
 31
0.0
  0
LINE
  5
66
330
47
100
AcDbEntity
  8
0
  6
Continuous
 62
     7
100
AcDbLine
 10
87.50091715773493
 20
-72.0603403476382
 30
0.0
 11
84.85266753828495
 21
-66.0406415218593
 31
0.0
  0
LINE
  5
67
330
47
100
AcDbEntity
  8
0
  6
Continuous
 62
     7
100
AcDbLine
 10
85.57711190800191
 20
-65.8465272380331
 30
0.0
 11
82.55797130942875
 21
-59.40857026038509
 31
0.0
  0
LINE
  5
68
330
47
100
AcDbEntity
  8
0
  6
Continuous
 62
     7
100
AcDbLine
 10
75.98371860727926
 20
-31.97534767520057
 30
0.0
 11
63.31014561482863
 21
-35.37122132373227
 31
0.0
  0
LINE
  5
69
330
47
100
AcDbEntity
  8
0
  6
Continuous
 62
     7
100
AcDbLine
 10
71.06615675034797
 20
-13.62275697570385
 30
0.0
 11
58.39258375789743
 21
-17.01863062423556
 31
0.0
  0
LINE
  5
6A
330
47
100
AcDbEntity
  8
0
  6
Continuous
 62
     3
100
AcDbLine
 10
71.08863398609415
 20
-13.70664316152238
 30
0.0
 11
75.98371860727926
 21
-31.97534767520057
 31
0.0
  0
LINE
  5
6B
330
47
100
AcDbEntity
  8
0
  6
Continuous
 62
     7
100
AcDbLine
 10
77.61502546112266
 20
-46.75680017313195
 30
0.0
 11
79.30539565712871
 21
-46.30386684420412
 31
0.0
  0
LINE
  5
6C
330
47
100
AcDbEntity
  8
0
  6
Continuous
 62
     7
100
AcDbLine
 10
99.9526825854818
 20
-48.01837624874719
 30
0.0
 11
100.3142823789212
 21
-40.67455261324341
 31
0.0
  0
LINE
  5
6D
330
47
100
AcDbEntity
  8
0
  6
Continuous
 62
     3
100
AcDbLine
 10
94.25242312095736
 20
-27.0802630540154
 30
0.0
 11
75.98371860727926
 21
-31.97534767520057
 31
0.0
  0
LINE
  5
6E
330
47
100
AcDbEntity
  8
0
  6
Continuous
 62
     7
100
AcDbLine
 10
79.30539565712871
 20
-46.30386684420412
 30
0.0
 11
98.62391218291484
 21
-41.12748594217118
 31
0.0
  0
LINE
  5
6F
330
47
100
AcDbEntity
  8
0
  6
Continuous
 62
     7
100
AcDbLine
 10
98.62391218291484
 20
-41.12748594217118
 30
0.0
 11
100.3142823789212
 21
-40.67455261324341
 31
0.0
  0
LINE
  5
70
330
47
100
AcDbEntity
  8
0
  6
Continuous
 62
     7
100
AcDbLine
 10
94.33630930677603
 20
-27.05778581826934
 30
0.0
 11
94.25242312095736
 21
-27.0802630540154
 31
0.0
  0
LINE
  5
71
330
47
100
AcDbEntity
  8
0
  6
Continuous
 62
     3
100
AcDbLine
 10
92.68866069067391
 20
-22.84052912251826
 30
0.0
 11
92.87681288016591
 21
-23.54272265326028
 31
0.0
  0
LINE
  5
72
330
47
100
AcDbEntity
  8
0
  6
Continuous
 62
     3
100
AcDbLine
 10
75.5422324912007
 20
-12.94103418589106
 30
0.0
 11
74.84003896045857
 21
-13.12918637538314
 31
0.0
  0
LINE
  5
73
330
47
100
AcDbEntity
  8
0
  6
Continuous
 62
     3
100
AcDbLine
 10
75.5422324912007
 20
-12.94103418589106
 30
0.0
 11
75.41282296864983
 21
-12.45807127274645
 31
0.0
  0
LINE
  5
74
330
47
100
AcDbEntity
  8
0
  6
Continuous
 62
     3
100
AcDbLine
 10
92.68866069067391
 20
-22.84052912251826
 30
0.0
 11
93.17162360381846
 21
-22.7111195999675
 31
0.0
  0
LINE
  5
75
330
47
100
AcDbEntity
  8
0
  6
Continuous
 62
     7
100
AcDbLine
 10
75.41282296864983
 20
-12.45807127274645
 30
0.0
 11
71.06615675034797
 21
-13.62275697570385
 31
0.0
  0
LINE
  5
76
330
47
100
AcDbEntity
  8
0
  6
Continuous
 62
     7
100
AcDbLine
 10
71.08863398609415
 20
-13.70664316152238
 30
0.0
 11
71.06615675034797
 21
-13.62275697570385
 31
0.0
  0
LINE
  5
77
330
47
100
AcDbEntity
  8
0
  6
Continuous
 62
     7
100
AcDbLine
 10
89.48856918062302
 20
-78.56762862006002
 30
0.0
 11
87.2594357011626
 21
-72.12504510891364
 31
0.0
  0
LINE
  5
78
330
47
100
AcDbEntity
  8
0
  6
Continuous
 62
     7
100
AcDbLine
 10
104.4046191177977
 20
-67.53100705835942
 30
0.0
 11
103.6882211509263
 21
-60.99367014237731
 31
0.0
  0
LINE
  5
79
330
47
100
AcDbEntity
  8
0
  6
Continuous
 62
     7
100
AcDbLine
 10
81.60009188598502
 20
-52.93593810567839
 30
0.0
 11
77.61502546112266
 21
-46.75680017313195
 31
0.0
  0
LINE
  5
7A
330
47
100
AcDbEntity
  8
0
  6
Continuous
 62
     7
100
AcDbLine
 10
101.3935249220701
 20
-54.36159888090299
 30
0.0
 11
101.4015713249157
 21
-47.63014768109468
 31
0.0
  0
LINE
  5
7B
330
47
100
AcDbEntity
  8
0
  6
Continuous
 62
     7
100
AcDbLine
 10
94.33630930677603
 20
-27.05778581826934
 30
0.0
 11
98.0115397472193
 21
-40.77393255157742
 31
0.0
  0
LINE
  5
7C
330
47
100
AcDbEntity
  8
0
  6
Continuous
 62
     3
100
AcDbLine
 10
79.65894904772259
 20
-45.69149440850867
 30
0.0
 11
98.0115397472193
 21
-40.77393255157742
 31
0.0
  0
LINE
  5
7D
330
47
100
AcDbEntity
  8
0
  6
Continuous
 62
     7
100
AcDbLine
 10
75.98371860727926
 20
-31.97534767520057
 30
0.0
 11
79.65894904772259
 21
-45.69149440850867
 31
0.0
  0
LINE
  5
7E
330
47
100
AcDbEntity
  8
0
  6
Continuous
 62
     7
100
AcDbLine
 10
80.15120314655113
 20
-53.32416667333084
 30
0.0
 11
81.60009188598502
 21
-52.93593810567839
 31
0.0
  0
LINE
  5
7F
330
47
100
AcDbEntity
  8
0
  6
Continuous
 62
     7
100
AcDbLine
 10
81.60009188598502
 20
-52.93593810567839
 30
0.0
 11
99.9526825854818
 21
-48.01837624874719
 31
0.0
  0
LINE
  5
80
330
47
100
AcDbEntity
  8
0
  6
Continuous
 62
     7
100
AcDbLine
 10
99.9526825854818
 20
-48.01837624874719
 30
0.0
 11
101.4015713249157
 21
-47.63014768109468
 31
0.0
  0
LINE
  5
81
330
47
100
AcDbEntity
  8
0
  6
Continuous
 62
     7
100
AcDbLine
 10
102.9637767812093
 20
-61.18778442620351
 30
0.0
 11
102.3594507483595
 21
-54.10277983580136
 31
0.0
  0
LINE
  5
82
330
47
100
AcDbEntity
  8
0
  6
Continuous
 62
     7
100
AcDbLine
 10
83.52389713571804
 20
-59.14975121528346
 30
0.0
 11
101.3935249220701
 21
-54.36159888090299
 31
0.0
  0
LINE
  5
83
330
47
100
AcDbEntity
  8
0
  6
Continuous
 62
     7
100
AcDbLine
 10
101.3935249220701
 20
-54.36159888090299
 30
0.0
 11
102.3594507483595
 21
-54.10277983580136
 31
0.0
  0
LINE
  5
84
330
47
100
AcDbEntity
  8
0
  6
Continuous
 62
     7
100
AcDbLine
 10
83.52389713571804
 20
-59.14975121528346
 30
0.0
 11
80.15120314655113
 21
-53.32416667333084
 31
0.0
  0
LINE
  5
85
330
47
100
AcDbEntity
  8
0
  6
Continuous
 62
     7
100
AcDbLine
 10
82.55797130942875
 20
-59.40857026038509
 30
0.0
 11
83.52389713571804
 21
-59.14975121528346
 31
0.0
  0
LINE
  5
86
330
47
100
AcDbEntity
  8
0
  6
Continuous
 62
     7
100
AcDbLine
 10
84.85266753828495
 20
-66.0406415218593
 30
0.0
 11
85.57711190800191
 21
-65.8465272380331
 31
0.0
  0
LINE
  5
87
330
47
100
AcDbEntity
  8
0
  6
Continuous
 62
     7
100
AcDbLine
 10
85.57711190800191
 20
-65.8465272380331
 30
0.0
 11
102.9637767812093
 21
-61.18778442620351
 31
0.0
  0
LINE
  5
88
330
47
100
AcDbEntity
  8
0
  6
Continuous
 62
     7
100
AcDbLine
 10
102.9637767812093
 20
-61.18778442620351
 30
0.0
 11
103.6882211509263
 21
-60.99367014237731
 31
0.0
  0
LINE
  5
89
330
47
100
AcDbEntity
  8
0
  6
Continuous
 62
     7
100
AcDbLine
 10
90.46829394728775
 20
-78.30511216002844
 30
0.0
 11
104.9571813416272
 21
-74.4228264835038
 31
0.0
  0
LINE
  5
8A
330
47
100
AcDbEntity
  8
0
  6
Continuous
 62
     7
100
AcDbLine
 10
104.9571813416272
 20
-74.4228264835038
 30
0.0
 11
105.9369061082923
 21
-74.16031002347205
 31
0.0
  0
LINE
  5
8B
330
47
100
AcDbEntity
  8
0
  6
Continuous
 62
     7
100
AcDbLine
 10
89.48856918062302
 20
-78.56762862006002
 30
0.0
 11
90.46829394728775
 21
-78.30511216002844
 31
0.0
  0
LINE
  5
8C
330
47
100
AcDbEntity
  8
0
  6
Continuous
 62
     7
100
AcDbLine
 10
87.50091715773493
 20
-72.0603403476382
 30
0.0
 11
104.4046191177977
 21
-67.53100705835942
 31
0.0
  0
LINE
  5
8D
330
47
100
AcDbEntity
  8
0
  6
Continuous
 62
     7
100
AcDbLine
 10
104.4046191177977
 20
-67.53100705835942
 30
0.0
 11
104.6461005743701
 21
-67.46630229708398
 31
0.0
  0
LINE
  5
8E
330
47
100
AcDbEntity
  8
0
  6
Continuous
 62
     7
100
AcDbLine
 10
87.2594357011626
 20
-72.12504510891364
 30
0.0
 11
87.50091715773493
 21
-72.0603403476382
 31
0.0
  0
LINE
  5
8F
330
47
100
AcDbEntity
  8
0
  6
Continuous
 62
     7
100
AcDbLine
 10
105.9369061082923
 20
-74.16031002347205
 30
0.0
 11
104.6461005743701
 21
-67.46630229708398
 31
0.0
  0
LINE
  5
90
330
47
100
AcDbEntity
  8
0
  6
Continuous
 62
     7
100
AcDbLine
 10
93.17162360381846
 20
-22.7111195999675
 30
0.0
 11
94.33630930677603
 21
-27.05778581826934
 31
0.0
  0
ARC
  5
91
330
47
100
AcDbEntity
  8
0
  6
Continuous
 62
     7
100
AcDbCircle
 10
75.98371860727926
 20
-31.97534767520057
 30
0.0
 40
18.88083151964684
100
AcDbArc
 50
26.52726336544337
 51
93.47273663445314
  0
ARC
  5
92
330
47
100
AcDbEntity
  8
0
  6
Continuous
 62
     7
100
AcDbCircle
 10
79.1759861345779
 20
-45.82090393105949
 30
0.0
 40
0.4999999999999799
100
AcDbArc
 50
284.9999999999479
 51
14.99999999994698
  0
ARC
  5
93
330
47
100
AcDbEntity
  8
0
  6
Continuous
 62
     7
100
AcDbCircle
 10
98.49450266036396
 20
-40.64452302902657
 30
0.0
 40
0.5000000000000147
100
AcDbArc
 50
194.9999999999501
 51
284.999999999955
  0
ARC
  5
94
330
47
100
AcDbEntity
  8
0
  6
Continuous
 62
     7
100
AcDbCircle
 10
79.16569912262364
 20
-26.46399575394128
 30
0.0
 40
14.49999999999992
100
AcDbArc
 50
14.99999999994785
 51
104.9999999999479
  0
ARC
  5
95
330
47
100
AcDbEntity
  8
0
  6
Continuous
 62
     3
100
AcDbCircle
 10
79.16569912262364
 20
-26.46399575394128
 30
0.0
 40
14.00000000000003
100
AcDbArc
 50
14.99999999994798
 51
104.9999999999477
  0
SPLINE
  5
96
330
47
100
AcDbEntity
  8
0
  6
Continuous
 62
     7
100
AcDbSpline
210
0.0
220
0.0
230
1.0
 70
     8
 71
     3
 72
    15
 73
    11
 74
     9
 42
0.000000001
 43
0.0000000001
 44
0.00000001
 40
0.0
 40
0.0
 40
0.0
 40
0.0
 40
0.4439488647976276
 40
0.9511273298791246
 40
1.397962045314586
 40
1.900011471743264
 40
2.391246916737677
 40
2.84952618242575
 40
3.338143426017295
 40
3.801863316338638
 40
3.801863316338638
 40
3.801863316338638
 40
3.801863316338638
 10
94.25242312095736
 20
-27.0802630540154
 30
0.0
 10
94.2128932912116
 20
-26.93764696102847
 30
0.0
 10
94.128203564638
 20
-26.63210262334317
 30
0.0
 10
93.98646973097176
 20
-26.18806750707317
 30
0.0
 10
93.82683973164373
 20
-25.72967841498118
 30
0.0
 10
93.65678157238897
 20
-25.28070053252701
 30
0.0
 10
93.47386396918378
 20
-24.83269935287633
 30
0.0
 10
93.28219034883836
 20
-24.39327529328756
 30
0.0
 10
93.08534816479121
 20
-23.96619504673669
 30
0.0
 10
92.94510247858973
 20
-23.68139826128159
 30
0.0
 10
92.87681288016591
 20
-23.54272265326028
 30
0.0
 11
94.25242312095736
 21
-27.0802630540154
 31
0.0
 11
94.13127560139708
 21
-26.65316368224635
 31
0.0
 11
93.97812856860583
 21
-26.16965982257989
 31
0.0
 11
93.831113953933
 21
-25.74770251865085
 31
0.0
 11
93.65349280943943
 21
-25.27812360519383
 31
0.0
 11
93.46786457473488
 21
-24.82331109312574
 31
0.0
 11
93.28484449046977
 21
-24.40316405431537
 31
0.0
 11
93.0799382003019
 21
-23.95958742846917
 31
0.0
 11
92.87681288016591
 21
-23.54272265326028
 31
0.0
  0
SPLINE
  5
97
330
47
100
AcDbEntity
  8
0
  6
Continuous
 62
     7
100
AcDbSpline
210
0.0
220
0.0
230
1.0
 70
     8
 71
     3
 72
    15
 73
    11
 74
     9
 42
0.000000001
 43
0.0000000001
 44
0.00000001
 40
0.0
 40
0.0
 40
0.0
 40
0.0
 40
0.4630613827634534
 40
0.950949298205505
 40
1.409363257319806
 40
1.900728412138674
 40
2.378973089860157
 40
2.849384513720636
 40
3.357347376122341
 40
3.801863350846758
 40
3.801863350846758
 40
3.801863350846758
 40
3.801863350846758
 10
74.84003896045857
 20
-13.12918637538314
 30
0.0
 10
74.68601653207602
 20
-13.13936798815704
 30
0.0
 10
74.36971393128479
 20
-13.16027710467887
 30
0.0
 10
73.901844594983
 20
-13.20328649932065
 30
0.0
 10
73.42560621810317
 20
-13.25695692671828
 30
0.0
 10
72.95393738896675
 20
-13.32145438072264
 30
0.0
 10
72.48006992952972
 20
-13.3983432128446
 30
0.0
 10
72.00302119457352
 20
-13.48896804494315
 30
0.0
 10
71.53948301836122
 20
-13.58998584786408
 30
0.0
 10
71.23209163795022
 20
-13.66952344879148
 30
0.0
 10
71.08863398609415
 20
-13.70664316152238
 30
0.0
 11
74.84003896045857
 21
-13.12918637538314
 31
0.0
 11
74.37811724836173
 21
-13.16165445065689
 31
0.0
 11
73.8922397556183
 21
-13.20590012945783
 31
0.0
 11
73.43673462001904
 21
-13.25746008930872
 31
0.0
 11
72.94990880403287
 21
-13.32409596923986
 31
0.0
 11
72.47786971004021
 21
-13.40088832453189
 31
0.0
 11
72.01571115686724
 21
-13.48861733805262
 31
0.0
 11
71.51963852917962
 21
-13.59787949143612
 31
0.0
 11
71.08863398609415
 21
-13.70664316152238
 31
0.0
  0
ENDBLK
  5
49
330
47
100
AcDbEntity
  8
0
100
AcDbBlockEnd
  0
BLOCK
  5
4C
330
4A
100
AcDbEntity
  8
0
100
AcDbBlockBegin
  2
HL19
 70
     0
 10
72.97897836016989
 20
-44.68606853940586
 30
0.0
  3
HL19
  1

  0
INSERT
  5
4B
330
4A
100
AcDbEntity
  8
0
100
AcDbBlockReference
  2
HL19_ABS_10003_ABS
 10
82.16474493309487
 20
-45.26581218700069
 30
0.0
  0
ENDBLK
  5
4D
330
4A
100
AcDbEntity
  8
0
100
AcDbBlockEnd
  0
BLOCK
  5
4F
330
4E
100
AcDbEntity
  8
0
100
AcDbBlockBegin
  2
Mutter5_4
 70
     0
 10
-12195.06731032337
 20
-16998.04501409159
 30
0.0
  3
Mutter5_4
  1

  0
LINE
  5
98
330
4E
100
AcDbEntity
  8
1
  6
PHANTOM
 62
     2
100
AcDbLine
 10
-11561.50000000001
 20
-16334.14223073764
 30
0.0
 11
-11561.50000000001
 21
-16321.14223073761
 31
0.0
  0
LINE
  5
99
330
4E
100
AcDbEntity
  8
0
  6
Continuous
 62
     7
100
AcDbLine
 10
-11586.50645507428
 20
-16334.14223073764
 30
0.0
 11
-11584.12294788909
 21
-16336.14223073761
 31
0.0
  0
LINE
  5
9A
330
4E
100
AcDbEntity
  8
0
  6
Continuous
 62
     7
100
AcDbLine
 10
-11584.12294788909
 20
-16336.14223073761
 30
0.0
 11
-11538.87705211093
 21
-16336.14223073761
 31
0.0
  0
LINE
  5
9B
330
4E
100
AcDbEntity
  8
0
  6
Continuous
 62
     7
100
AcDbLine
 10
-11536.49354492574
 20
-16334.14223073764
 30
0.0
 11
-11538.87705211093
 21
-16336.14223073761
 31
0.0
  0
LINE
  5
9C
330
4E
100
AcDbEntity
  8
0
  6
Continuous
 62
     7
100
AcDbLine
 10
-11579.77995093791
 20
-16321.14223073761
 30
0.0
 11
-11584.91473894795
 21
-16321.14223073761
 31
0.0
  0
LINE
  5
9D
330
4E
100
AcDbEntity
  8
0
  6
Continuous
 62
     7
100
AcDbLine
 10
-11586.50645507428
 20
-16334.14223073764
 30
0.0
 11
-11586.50645507428
 21
-16321.14223073761
 31
0.0
  0
LINE
  5
9E
330
4E
100
AcDbEntity
  8
0
  6
Continuous
 62
     7
100
AcDbLine
 10
-11585.3517545359
 20
-16335.04090320288
 30
0.0
 11
-11585.3517545359
 21
-16321.14223073761
 31
0.0
  0
LINE
  5
9F
330
4E
100
AcDbEntity
  8
0
  6
Continuous
 62
     7
100
AcDbLine
 10
-11585.3517545359
 20
-16321.14223073761
 30
0.0
 11
-11586.50645507428
 21
-16321.14223073761
 31
0.0
  0
LINE
  5
A0
330
4E
100
AcDbEntity
  8
0
  6
Continuous
 62
     7
100
AcDbLine
 10
-11584.91473894795
 20
-16321.14223073761
 30
0.0
 11
-11585.3517545359
 21
-16321.14223073761
 31
0.0
  0
LINE
  5
A1
330
4E
100
AcDbEntity
  8
0
  6
Continuous
 62
     7
100
AcDbLine
 10
-11586.50645507428
 20
-16321.14223073761
 30
0.0
 11
-11586.50645507428
 21
-16318.64223073761
 31
0.0
  0
LINE
  5
A2
330
4E
100
AcDbEntity
  8
0
  6
Continuous
 62
     7
100
AcDbLine
 10
-11536.49354492574
 20
-16318.64223073761
 30
0.0
 11
-11586.50645507428
 21
-16318.64223073761
 31
0.0
  0
LINE
  5
A3
330
4E
100
AcDbEntity
  8
0
  6
Continuous
 62
     7
100
AcDbLine
 10
-11536.49354492574
 20
-16321.14223073761
 30
0.0
 11
-11536.49354492574
 21
-16318.64223073761
 31
0.0
  0
LINE
  5
A4
330
4E
100
AcDbEntity
  8
0
  6
Continuous
 62
     7
100
AcDbLine
 10
-11543.22004906211
 20
-16335.04090320289
 30
0.0
 11
-11543.22004906211
 21
-16321.14223073761
 31
0.0
  0
LINE
  5
A5
330
4E
100
AcDbEntity
  8
0
  6
Continuous
 62
     7
100
AcDbLine
 10
-11537.64824546412
 20
-16335.04090320289
 30
0.0
 11
-11537.64824546412
 21
-16321.14223073761
 31
0.0
  0
LINE
  5
A6
330
4E
100
AcDbEntity
  8
0
  6
Continuous
 62
     7
100
AcDbLine
 10
-11579.77995093791
 20
-16335.04090320289
 30
0.0
 11
-11579.77995093791
 21
-16321.14223073761
 31
0.0
  0
LINE
  5
A7
330
4E
100
AcDbEntity
  8
0
  6
Continuous
 62
     7
100
AcDbLine
 10
-11579.18223395646
 20
-16321.14223073761
 30
0.0
 11
-11579.77995093791
 21
-16321.14223073761
 31
0.0
  0
LINE
  5
A8
330
4E
100
AcDbEntity
  8
0
  6
Continuous
 62
     7
100
AcDbLine
 10
-11536.49354492574
 20
-16321.14223073761
 30
0.0
 11
-11537.64824546412
 21
-16321.14223073761
 31
0.0
  0
LINE
  5
A9
330
4E
100
AcDbEntity
  8
0
  6
Continuous
 62
     7
100
AcDbLine
 10
-11543.22004906211
 20
-16321.14223073761
 30
0.0
 11
-11543.81776604356
 21
-16321.14223073761
 31
0.0
  0
LINE
  5
AA
330
4E
100
AcDbEntity
  8
0
  6
Continuous
 62
     7
100
AcDbLine
 10
-11538.08526105207
 20
-16321.14223073761
 30
0.0
 11
-11543.22004906211
 21
-16321.14223073761
 31
0.0
  0
LINE
  5
AB
330
4E
100
AcDbEntity
  8
0
  6
Continuous
 62
     7
100
AcDbLine
 10
-11537.64824546412
 20
-16321.14223073761
 30
0.0
 11
-11538.08526105207
 21
-16321.14223073761
 31
0.0
  0
LINE
  5
AC
330
4E
100
AcDbEntity
  8
0
  6
Continuous
 62
     7
100
AcDbLine
 10
-11536.49354492574
 20
-16334.14223073764
 30
0.0
 11
-11536.49354492574
 21
-16321.14223073761
 31
0.0
  0
LINE
  5
AD
330
4E
100
AcDbEntity
  8
0
  6
Continuous
 62
     7
100
AcDbLine
 10
-11543.52906574783
 20
-16335.40629663482
 30
0.0
 11
-11538.08526105207
 21
-16335.40629663482
 31
0.0
  0
LINE
  5
AE
330
4E
100
AcDbEntity
  8
0
  6
Continuous
 62
     7
100
AcDbLine
 10
-11584.91473894795
 20
-16335.40629663482
 30
0.0
 11
-11579.47093425219
 21
-16335.40629663482
 31
0.0
  0
LINE
  5
AF
330
4E
100
AcDbEntity
  8
0
  6
Continuous
 62
     7
100
AcDbLine
 10
-11538.08526105207
 20
-16321.14223073761
 30
0.0
 11
-11538.08526105207
 21
-16335.40629663482
 31
0.0
  0
LINE
  5
B0
330
4E
100
AcDbEntity
  8
0
  6
Continuous
 62
     7
100
AcDbLine
 10
-11561.50000000001
 20
-16334.14223073764
 30
0.0
 11
-11561.50000000001
 21
-16321.14223073761
 31
0.0
  0
LINE
  5
B1
330
4E
100
AcDbEntity
  8
0
  6
Continuous
 62
     7
100
AcDbLine
 10
-11579.18223395646
 20
-16334.14223073764
 30
0.0
 11
-11579.18223395646
 21
-16321.14223073761
 31
0.0
  0
LINE
  5
B2
330
4E
100
AcDbEntity
  8
0
  6
Continuous
 62
     7
100
AcDbLine
 10
-11563.50000000001
 20
-16335.40629663484
 30
0.0
 11
-11563.50000000001
 21
-16335.04090320289
 31
0.0
  0
LINE
  5
B3
330
4E
100
AcDbEntity
  8
0
  6
Continuous
 62
     7
100
AcDbLine
 10
-11559.50000000001
 20
-16335.04090320289
 30
0.0
 11
-11559.50000000001
 21
-16335.40629663484
 31
0.0
  0
LINE
  5
B4
330
4E
100
AcDbEntity
  8
0
  6
Continuous
 62
     7
100
AcDbLine
 10
-11559.50000000001
 20
-16335.40629663484
 30
0.0
 11
-11546.35749287258
 21
-16335.40629663482
 31
0.0
  0
LINE
  5
B5
330
4E
100
AcDbEntity
  8
0
  6
Continuous
 62
     7
100
AcDbLine
 10
-11576.64250712744
 20
-16321.14223073761
 30
0.0
 11
-11576.95152381316
 21
-16321.14223073761
 31
0.0
  0
LINE
  5
B6
330
4E
100
AcDbEntity
  8
0
  6
Continuous
 62
     7
100
AcDbLine
 10
-11576.95152381316
 20
-16321.14223073761
 30
0.0
 11
-11579.18223395646
 21
-16321.14223073761
 31
0.0
  0
LINE
  5
B7
330
4E
100
AcDbEntity
  8
0
  6
Continuous
 62
     7
100
AcDbLine
 10
-11563.50000000001
 20
-16321.14223073761
 30
0.0
 11
-11576.64250712744
 21
-16321.14223073761
 31
0.0
  0
LINE
  5
B8
330
4E
100
AcDbEntity
  8
0
  6
Continuous
 62
     7
100
AcDbLine
 10
-11563.50000000001
 20
-16335.04090320289
 30
0.0
 11
-11563.50000000001
 21
-16321.14223073761
 31
0.0
  0
LINE
  5
B9
330
4E
100
AcDbEntity
  8
0
  6
Continuous
 62
     7
100
AcDbLine
 10
-11559.50000000001
 20
-16321.14223073761
 30
0.0
 11
-11561.50000000001
 21
-16321.14223073761
 31
0.0
  0
LINE
  5
BA
330
4E
100
AcDbEntity
  8
0
  6
Continuous
 62
     7
100
AcDbLine
 10
-11559.50000000001
 20
-16335.04090320289
 30
0.0
 11
-11559.50000000001
 21
-16321.14223073761
 31
0.0
  0
LINE
  5
BB
330
4E
100
AcDbEntity
  8
0
  6
Continuous
 62
     7
100
AcDbLine
 10
-11561.50000000001
 20
-16321.14223073761
 30
0.0
 11
-11563.50000000001
 21
-16321.14223073761
 31
0.0
  0
LINE
  5
BC
330
4E
100
AcDbEntity
  8
0
  6
Continuous
 62
     7
100
AcDbLine
 10
-11546.04847618686
 20
-16321.14223073761
 30
0.0
 11
-11546.35749287258
 21
-16321.14223073761
 31
0.0
  0
LINE
  5
BD
330
4E
100
AcDbEntity
  8
0
  6
Continuous
 62
     7
100
AcDbLine
 10
-11546.35749287258
 20
-16321.14223073761
 30
0.0
 11
-11559.50000000001
 21
-16321.14223073761
 31
0.0
  0
LINE
  5
BE
330
4E
100
AcDbEntity
  8
0
  6
Continuous
 62
     7
100
AcDbLine
 10
-11543.81776604356
 20
-16321.14223073761
 30
0.0
 11
-11546.04847618686
 21
-16321.14223073761
 31
0.0
  0
LINE
  5
BF
330
4E
100
AcDbEntity
  8
0
  6
Continuous
 62
     7
100
AcDbLine
 10
-11543.81776604356
 20
-16334.14223073764
 30
0.0
 11
-11543.81776604356
 21
-16321.14223073761
 31
0.0
  0
LINE
  5
C0
330
4E
100
AcDbEntity
  8
0
  6
Continuous
 62
     7
100
AcDbLine
 10
-11546.04847618686
 20
-16335.04090320289
 30
0.0
 11
-11546.04847618686
 21
-16321.14223073761
 31
0.0
  0
LINE
  5
C1
330
4E
100
AcDbEntity
  8
0
  6
Continuous
 62
     7
100
AcDbLine
 10
-11576.64250712744
 20
-16335.40629663482
 30
0.0
 11
-11563.50000000001
 21
-16335.40629663484
 31
0.0
  0
LINE
  5
C2
330
4E
100
AcDbEntity
  8
0
  6
Continuous
 62
     7
100
AcDbLine
 10
-11546.35749287258
 20
-16321.14223073761
 30
0.0
 11
-11546.35749287258
 21
-16335.40629663482
 31
0.0
  0
LINE
  5
C3
330
4E
100
AcDbEntity
  8
0
  6
Continuous
 62
     7
100
AcDbLine
 10
-11576.64250712744
 20
-16321.14223073761
 30
0.0
 11
-11576.64250712744
 21
-16335.40629663482
 31
0.0
  0
LINE
  5
C4
330
4E
100
AcDbEntity
  8
0
  6
Continuous
 62
     7
100
AcDbLine
 10
-11584.91473894795
 20
-16321.14223073761
 30
0.0
 11
-11584.91473894795
 21
-16335.40629663482
 31
0.0
  0
LINE
  5
C5
330
4E
100
AcDbEntity
  8
0
  6
Continuous
 62
     7
100
AcDbLine
 10
-11576.95152381316
 20
-16335.04090320289
 30
0.0
 11
-11576.95152381316
 21
-16321.14223073761
 31
0.0
  0
LINE
  5
C6
330
4E
100
AcDbEntity
  8
1
  6
Continuous
 62
     7
100
AcDbLine
 10
-11588.63259927286
 20
-16327.14223073761
 30
0.0
 11
-11589.63259927286
 21
-16327.14223073761
 31
0.0
  0
SPLINE
  5
C7
330
4E
100
AcDbEntity
  8
0
  6
Continuous
 62
     7
100
AcDbSpline
210
0.0
220
0.0
230
1.0
 70
     8
 71
     3
 72
    11
 73
     7
 74
     5
 42
0.000000001
 43
0.0000000001
 44
0.00000001
 40
0.0
 40
0.0
 40
0.0
 40
0.0
 40
0.3737464505799445
 40
0.7390895745079888
 40
1.105463846701185
 40
1.463540272224034
 40
1.463540272224034
 40
1.463540272224034
 40
1.463540272224034
 10
-11536.49354492574
 20
-16334.14223073764
 30
0.0
 10
-11536.58936701443
 20
-16334.22185361741
 30
0.0
 10
-11536.7788567345
 20
-16334.37930912215
 30
0.0
 10
-11537.06762630559
 20
-16334.60824921968
 30
0.0
 10
-11537.35600294039
 20
-16334.8292145087
 30
0.0
 10
-11537.5515779911
 20
-16334.97088119148
 30
0.0
 10
-11537.64824546412
 20
-16335.04090320289
 30
0.0
 11
-11536.49354492574
 21
-16334.14223073764
 31
0.0
 11
-11536.78192550247
 21
-16334.37997651012
 31
0.0
 11
-11537.0679763293
 21
-16334.60724402387
 31
0.0
 11
-11537.35918948104
 21
-16334.82956138202
 31
0.0
 11
-11537.64824546412
 21
-16335.04090320289
 31
0.0
  0
SPLINE
  5
C8
330
4E
100
AcDbEntity
  8
0
  6
Continuous
 62
     7
100
AcDbSpline
210
0.0
220
0.0
230
1.0
 70
     8
 71
     3
 72
    11
 73
     7
 74
     5
 42
0.000000001
 43
0.0000000001
 44
0.00000001
 40
0.0
 40
0.0
 40
0.0
 40
0.0
 40
0.2593882560453639
 40
0.5283218882813163
 40
0.7992614730924801
 40
1.079524568702119
 40
1.079524568702119
 40
1.079524568702119
 40
1.079524568702119
 10
-11543.22004906211
 20
-16335.04090320289
 30
0.0
 10
-11543.27031551326
 20
-16334.97054927786
 30
0.0
 10
-11543.37269818697
 20
-16334.8272524249
 30
0.0
 10
-11543.52180194489
 20
-16334.60643295082
 30
0.0
 10
-11543.67123113906
 20
-16334.37748949526
 30
0.0
 10
-11543.76837336426
 20
-16334.22152967189
 30
0.0
 10
-11543.81776604356
 20
-16334.14223073764
 30
0.0
 11
-11543.22004906211
 21
-16335.04090320289
 31
0.0
 11
-11543.36992683382
 21
-16334.82919840609
 31
0.0
 11
-11543.52084478368
 21
-16334.60660219976
 31
0.0
 11
-11543.66873817947
 21
-16334.37958721745
 31
0.0
 11
-11543.81776604356
 21
-16334.14223073764
 31
0.0
  0
SPLINE
  5
C9
330
4E
100
AcDbEntity
  8
0
  6
Continuous
 62
     7
100
AcDbSpline
210
0.0
220
0.0
230
1.0
 70
     8
 71
     3
 72
    11
 73
     7
 74
     5
 42
0.000000001
 43
0.0000000001
 44
0.00000001
 40
0.0
 40
0.0
 40
0.0
 40
0.0
 40
0.1196368274215495
 40
0.2392729893212944
 40
0.3589084774625979
 40
0.4785432814550137
 40
0.4785432814550137
 40
0.4785432814550137
 40
0.4785432814550137
 10
-11543.22004906211
 20
-16335.04090320289
 30
0.0
 10
-11543.24579982831
 20
-16335.07135362313
 30
0.0
 10
-11543.29730122893
 20
-16335.13225428454
 30
0.0
 10
-11543.37455496366
 20
-16335.22360345557
 30
0.0
 10
-11543.45180954314
 20
-16335.31495102885
 30
0.0
 10
-11543.50331372487
 20
-16335.37584816077
 30
0.0
 10
-11543.52906574783
 20
-16335.40629663482
 30
0.0
 11
-11543.22004906211
 21
-16335.04090320289
 31
0.0
 11
-11543.29730167295
 21
-16335.13225419957
 31
0.0
 11
-11543.37455531443
 21
-16335.22360345305
 31
0.0
 11
-11543.4518100014
 21
-16335.31495093996
 31
0.0
 11
-11543.52906574783
 21
-16335.40629663482
 31
0.0
  0
SPLINE
  5
CA
330
4E
100
AcDbEntity
  8
0
  6
Continuous
 62
     7
100
AcDbSpline
210
0.0
220
0.0
230
1.0
 70
     8
 71
     3
 72
    11
 73
     7
 74
     5
 42
0.000000001
 43
0.0000000001
 44
0.00000001
 40
0.0
 40
0.0
 40
0.0
 40
0.0
 40
0.2806680072536198
 40
0.5519731591485454
 40
0.8212540187640909
 40
1.079524579098761
 40
1.079524579098761
 40
1.079524579098761
 40
1.079524579098761
 10
-11579.18223395646
 20
-16334.14223073764
 30
0.0
 10
-11579.23169850419
 20
-16334.22164393036
 30
0.0
 10
-11579.32897751536
 20
-16334.37782114866
 30
0.0
 10
-11579.47861905567
 20
-16334.6070710125
 30
0.0
 10
-11579.62766240498
 20
-16334.82776844884
 30
0.0
 10
-11579.72989933726
 20
-16334.97085371143
 30
0.0
 10
-11579.77995093791
 20
-16335.04090320289
 30
0.0
 11
-11579.18223395646
 21
-16334.14223073764
 31
0.0
 11
-11579.33147994696
 21
-16334.37992837043
 31
0.0
 11
-11579.47958153116
 21
-16334.60724402387
 31
0.0
 11
-11579.6307095877
 21
-16334.8301172883
 31
0.0
 11
-11579.77995093791
 21
-16335.04090320289
 31
0.0
  0
SPLINE
  5
CB
330
4E
100
AcDbEntity
  8
0
  6
Continuous
 62
     7
100
AcDbSpline
210
0.0
220
0.0
230
1.0
 70
     8
 71
     3
 72
    11
 73
     7
 74
     5
 42
0.000000001
 43
0.0000000001
 44
0.00000001
 40
0.0
 40
0.0
 40
0.0
 40
0.0
 40
0.1428586135724959
 40
0.2848223050060005
 40
0.4279583192406675
 40
0.5696446122941475
 40
0.5696446122941475
 40
0.5696446122941475
 40
0.5696446122941475
 10
-11537.64824546412
 20
-16335.04090320289
 30
0.0
 10
-11537.68477701458
 20
-16335.07144933533
 30
0.0
 10
-11537.7576112772
 20
-16335.13235023582
 30
0.0
 10
-11537.86704988609
 20
-16335.22385435897
 30
0.0
 10
-11537.9761899823
 20
-16335.31510629553
 30
0.0
 10
-11538.0490276047
 20
-16335.37600317886
 30
0.0
 10
-11538.08526105207
 20
-16335.40629663482
 30
0.0
 11
-11537.64824546412
 21
-16335.04090320289
 31
0.0
 11
-11537.75784042923
 21
-16335.13254122499
 31
0.0
 11
-11537.86675030163
 21
-16335.22360345305
 31
0.0
 11
-11537.97656102823
 21
-16335.31541588628
 31
0.0
 11
-11538.08526105207
 21
-16335.40629663482
 31
0.0
  0
SPLINE
  5
CC
330
4E
100
AcDbEntity
  8
0
  6
Continuous
 62
     7
100
AcDbSpline
210
0.0
220
0.0
230
1.0
 70
     8
 71
     3
 72
    11
 73
     7
 74
     5
 42
0.000000001
 43
0.0000000001
 44
0.00000001
 40
0.0
 40
0.0
 40
0.0
 40
0.0
 40
0.1196368274203749
 40
0.2392729893212944
 40
0.3589084774625979
 40
0.4785432814550137
 40
0.4785432814550137
 40
0.4785432814550137
 40
0.4785432814550137
 10
-11579.77995093791
 20
-16335.04090320289
 30
0.0
 10
-11579.75420017171
 20
-16335.07135362313
 30
0.0
 10
-11579.70269877109
 20
-16335.13225428453
 30
0.0
 10
-11579.62544503636
 20
-16335.22360345557
 30
0.0
 10
-11579.54819045688
 20
-16335.31495102885
 30
0.0
 10
-11579.49668627515
 20
-16335.37584816076
 30
0.0
 10
-11579.47093425219
 20
-16335.40629663482
 30
0.0
 11
-11579.77995093791
 21
-16335.04090320289
 31
0.0
 11
-11579.70269832707
 21
-16335.13225419957
 31
0.0
 11
-11579.62544468559
 21
-16335.22360345305
 31
0.0
 11
-11579.54818999862
 21
-16335.31495093996
 31
0.0
 11
-11579.47093425219
 21
-16335.40629663482
 31
0.0
  0
SPLINE
  5
CD
330
4E
100
AcDbEntity
  8
0
  6
Continuous
 62
     7
100
AcDbSpline
210
0.0
220
0.0
230
1.0
 70
     8
 71
     3
 72
    11
 73
     7
 74
     5
 42
0.000000001
 43
0.0000000001
 44
0.00000001
 40
0.0
 40
0.0
 40
0.0
 40
0.0
 40
0.1422374675397292
 40
0.2848223780097257
 40
0.4267374548214352
 40
0.5696446122999821
 40
0.5696446122999821
 40
0.5696446122999821
 40
0.5696446122999821
 10
-11584.91473894795
 20
-16335.40629663482
 30
0.0
 10
-11584.95111334673
 20
-16335.37588533357
 30
0.0
 10
-11585.02395098628
 20
-16335.31498843399
 30
0.0
 10
-11585.1330786658
 20
-16335.22374687339
 30
0.0
 10
-11585.24237632725
 20
-16335.13236060027
 30
0.0
 10
-11585.31521057185
 20
-16335.07145971497
 30
0.0
 10
-11585.3517545359
 20
-16335.04090320288
 30
0.0
 11
-11584.91473894795
 21
-16335.40629663482
 31
0.0
 11
-11585.02386182334
 21
-16335.31506234719
 31
0.0
 11
-11585.13324975265
 21
-16335.22360340769
 31
0.0
 11
-11585.24212232976
 21
-16335.13257236365
 31
0.0
 11
-11585.3517545359
 21
-16335.04090320288
 31
0.0
  0
SPLINE
  5
CE
330
4E
100
AcDbEntity
  8
0
  6
Continuous
 62
     7
100
AcDbSpline
210
0.0
220
0.0
230
1.0
 70
     8
 71
     3
 72
    11
 73
     7
 74
     5
 42
0.000000001
 43
0.0000000001
 44
0.00000001
 40
0.0
 40
0.0
 40
0.0
 40
0.0
 40
0.6070519148706742
 40
1.203233281954022
 40
1.809542079217922
 40
2.405216578207998
 40
2.405216578207998
 40
2.405216578207998
 40
2.405216578207998
 10
-11543.81776604356
 20
-16334.14223073764
 30
0.0
 10
-11544.00365696457
 20
-16334.22217884497
 30
0.0
 10
-11544.37211004255
 20
-16334.38064340605
 30
0.0
 10
-11544.93016773102
 20
-16334.60960786213
 30
0.0
 10
-11545.4873802819
 20
-16334.8305478843
 30
0.0
 10
-11545.86255063076
 20
-16334.97119956355
 30
0.0
 10
-11546.04847618686
 20
-16335.04090320289
 30
0.0
 11
-11543.81776604356
 21
-16334.14223073764
 31
0.0
 11
-11544.37610587093
 21
-16334.38049249409
 31
0.0
 11
-11544.92748229984
 21
-16334.60724402387
 31
0.0
 11
-11545.49136301724
 21
-16334.83006434242
 31
0.0
 11
-11546.04847618686
 21
-16335.04090320289
 31
0.0
  0
SPLINE
  5
CF
330
4E
100
AcDbEntity
  8
0
  6
Continuous
 62
     7
100
AcDbSpline
210
0.0
220
0.0
230
1.0
 70
     8
 71
     3
 72
    11
 73
     7
 74
     5
 42
0.000000001
 43
0.0000000001
 44
0.00000001
 40
0.0
 40
0.0
 40
0.0
 40
0.0
 40
0.119636827411827
 40
0.2392729893212942
 40
0.3589084774665501
 40
0.4785432814550136
 40
0.4785432814550136
 40
0.4785432814550136
 40
0.4785432814550136
 10
-11546.04847618686
 20
-16335.04090320289
 30
0.0
 10
-11546.07422695307
 20
-16335.07135362313
 30
0.0
 10
-11546.12572835368
 20
-16335.13225428452
 30
0.0
 10
-11546.20298208841
 20
-16335.22360345557
 30
0.0
 10
-11546.28023666788
 20
-16335.31495102885
 30
0.0
 10
-11546.33174084962
 20
-16335.37584816077
 30
0.0
 10
-11546.35749287258
 20
-16335.40629663482
 30
0.0
 11
-11546.04847618686
 21
-16335.04090320289
 31
0.0
 11
-11546.1257287977
 21
-16335.13225419955
 31
0.0
 11
-11546.20298243918
 21
-16335.22360345305
 31
0.0
 11
-11546.28023712615
 21
-16335.31495093996
 31
0.0
 11
-11546.35749287258
 21
-16335.40629663482
 31
0.0
  0
SPLINE
  5
D0
330
4E
100
AcDbEntity
  8
0
  6
Continuous
 62
     7
100
AcDbSpline
210
0.0
220
0.0
230
1.0
 70
     8
 71
     3
 72
    11
 73
     7
 74
     5
 42
0.000000001
 43
0.0000000001
 44
0.00000001
 40
0.0
 40
0.0
 40
0.0
 40
0.0
 40
0.5524650003332618
 40
1.096712772940927
 40
1.650013040225565
 40
2.192932603722416
 40
2.192932603722416
 40
2.192932603722416
 40
2.192932603722416
 10
-11561.50000000001
 20
-16334.14223073764
 30
0.0
 10
-11561.6660416947
 20
-16334.22188316503
 30
0.0
 10
-11561.99565542738
 20
-16334.38000327582
 30
0.0
 10
-11562.49578839957
 20
-16334.60890695813
 30
0.0
 10
-11562.99590557684
 20
-16334.83011047271
 30
0.0
 10
-11563.33303267049
 20
-16334.97108394902
 30
0.0
 10
-11563.50000000001
 20
-16335.04090320289
 30
0.0
 11
-11561.50000000001
 21
-16334.14223073764
 31
0.0
 11
-11561.99883795671
 21
-16334.37967182424
 31
0.0
 11
-11562.49351789696
 21
-16334.60660219872
 31
0.0
 11
-11562.99981687623
 21
-16334.82976700229
 31
0.0
 11
-11563.50000000001
 21
-16335.04090320289
 31
0.0
  0
SPLINE
  5
D1
330
4E
100
AcDbEntity
  8
0
  6
Continuous
 62
     7
100
AcDbSpline
210
0.0
220
0.0
230
1.0
 70
     8
 71
     3
 72
    11
 73
     7
 74
     5
 42
0.000000001
 43
0.0000000001
 44
0.00000001
 40
0.0
 40
0.0
 40
0.0
 40
0.0
 40
0.5977908271815485
 40
1.20369885904433
 40
1.799024018967901
 40
2.405216571603174
 40
2.405216571603174
 40
2.405216571603174
 40
2.405216571603174
 10
-11576.95152381316
 20
-16335.04090320289
 30
0.0
 10
-11577.1381089669
 20
-16334.97094927071
 30
0.0
 10
-11577.51381284738
 20
-16334.83009151089
 30
0.0
 10
-11578.07128153081
 20
-16334.6090202646
 30
0.0
 10
-11578.6286797063
 20
-16334.38030714931
 30
0.0
 10
-11578.99660660962
 20
-16334.22206662661
 30
0.0
 10
-11579.18223395646
 20
-16334.14223073764
 30
0.0
 11
-11576.95152381316
 21
-16335.04090320289
 31
0.0
 11
-11577.51061080651
 21
-16334.82930072883
 31
0.0
 11
-11578.07410872878
 21
-16334.60660219976
 31
0.0
 11
-11578.62468673437
 21
-16334.38016036184
 31
0.0
 11
-11579.18223395646
 21
-16334.14223073764
 31
0.0
  0
SPLINE
  5
D2
330
4E
100
AcDbEntity
  8
0
  6
Continuous
 62
     7
100
AcDbSpline
210
0.0
220
0.0
230
1.0
 70
     8
 71
     3
 72
    11
 73
     7
 74
     5
 42
0.000000001
 43
0.0000000001
 44
0.00000001
 40
0.0
 40
0.0
 40
0.0
 40
0.0
 40
0.5441127834180473
 40
1.096219829438796
 40
1.639306315830159
 40
2.19293260345539
 40
2.19293260345539
 40
2.19293260345539
 40
2.19293260345539
 10
-11559.50000000001
 20
-16335.04090320289
 30
0.0
 10
-11559.66733368503
 20
-16334.97092900983
 30
0.0
 10
-11560.00445956417
 20
-16334.82995252874
 30
0.0
 10
-11560.50421909694
 20
-16334.60889769313
 30
0.0
 10
-11561.00399386166
 20
-16334.38016729875
 30
0.0
 10
-11561.33360871724
 20
-16334.22204945219
 30
0.0
 10
-11561.50000000001
 20
-16334.14223073764
 30
0.0
 11
-11559.50000000001
 21
-16335.04090320289
 31
0.0
 11
-11560.00127873115
 21
-16334.82929423596
 31
0.0
 11
-11560.50648210306
 21
-16334.60660219872
 31
0.0
 11
-11561.00010997726
 21
-16334.3801635676
 31
0.0
 11
-11561.50000000001
 21
-16334.14223073764
 31
0.0
  0
SPLINE
  5
D3
330
4E
100
AcDbEntity
  8
0
  6
Continuous
 62
     7
100
AcDbSpline
210
0.0
220
0.0
230
1.0
 70
     8
 71
     3
 72
    11
 73
     7
 74
     5
 42
0.000000001
 43
0.0000000001
 44
0.00000001
 40
0.0
 40
0.0
 40
0.0
 40
0.0
 40
0.1196348336973831
 40
0.2392703515386302
 40
0.3589064837470823
 40
0.4785432814550135
 40
0.4785432814550135
 40
0.4785432814550135
 40
0.4785432814550135
 10
-11576.64250712744
 20
-16335.40629663482
 30
0.0
 10
-11576.66825915679
 20
-16335.37584815321
 30
0.0
 10
-11576.71976335131
 20
-16335.31495100617
 30
0.0
 10
-11576.79701793719
 20
-16335.22360342533
 30
0.0
 10
-11576.87427166552
 20
-16335.13225426185
 30
0.0
 10
-11576.92577305335
 20
-16335.07135361557
 30
0.0
 10
-11576.95152381316
 20
-16335.04090320289
 30
0.0
 11
-11576.64250712744
 21
-16335.40629663482
 31
0.0
 11
-11576.71976289305
 21
-16335.31495091727
 31
0.0
 11
-11576.7970175992
 21
-16335.22360340769
 31
0.0
 11
-11576.8742712215
 21
-16335.13225417687
 31
0.0
 11
-11576.95152381316
 21
-16335.04090320289
 31
0.0
  0
SPLINE
  5
D4
330
4E
100
AcDbEntity
  8
0
  6
Continuous
 62
     7
100
AcDbSpline
210
0.0
220
0.0
230
1.0
 70
     8
 71
     3
 72
    11
 73
     7
 74
     5
 42
0.000000001
 43
0.0000000001
 44
0.00000001
 40
0.0
 40
0.0
 40
0.0
 40
0.0
 40
0.3576963356480002
 40
0.7254947817516277
 40
1.089464603370387
 40
1.463540268301558
 40
1.463540268301558
 40
1.463540268301558
 40
1.463540268301558
 10
-11585.3517545359
 20
-16335.04090320288
 30
0.0
 10
-11585.44831971864
 20
-16334.97095598412
 30
0.0
 10
-11585.64417728271
 20
-16334.82908607519
 30
0.0
 10
-11585.93246179569
 20
-16334.60818054311
 30
0.0
 10
-11586.22132584355
 20
-16334.37915603991
 30
0.0
 10
-11586.41054834425
 20
-16334.22192348889
 30
0.0
 10
-11586.50645507428
 20
-16334.14223073764
 30
0.0
 11
-11585.3517545359
 21
-16335.04090320288
 31
0.0
 11
-11585.64050604742
 21
-16334.82978893709
 31
0.0
 11
-11585.93284724772
 21
-16334.60660219976
 31
0.0
 11
-11586.21781861081
 21
-16334.38018366385
 31
0.0
 11
-11586.50645507428
 21
-16334.14223073764
 31
0.0
  0
ENDBLK
  5
50
330
4E
100
AcDbEntity
  8
0
100
AcDbBlockEnd
  0
BLOCK
  5
52
330
51
100
AcDbEntity
  8
0
100
AcDbBlockBegin
  2
HL_13_DN32_Tauchrohr
 70
     0
 10
24.6518322723997
 20
-82.29769567462411
 30
0.0
  3
HL_13_DN32_Tauchrohr
  1

  0
POINT
  5
D5
330
51
100
AcDbEntity
  8
1
 62
     3
 60
     1
100
AcDbPoint
 10
15.99999999999795
 20
-162.5000000000018
 30
0.0
  0
POINT
  5
D6
330
51
100
AcDbEntity
  8
1
 62
     3
 60
     1
100
AcDbPoint
 10
15.99999999999795
 20
-162.5000000000098
 30
0.0
  0
LINE
  5
D7
330
51
100
AcDbEntity
  8
1
  6
Continuous
 62
     7
100
AcDbLine
 10
15.99999999999795
 20
-162.5000000000018
 30
0.0
 11
16.00000000000011
 21
-53.22431753705655
 31
0.0
  0
LINE
  5
D8
330
51
100
AcDbEntity
  8
1
  6
Continuous
 62
     7
100
AcDbLine
 10
-15.99999999999898
 20
-162.5000000000018
 30
0.0
 11
15.99999999999795
 21
-162.5000000000018
 31
0.0
  0
LINE
  5
D9
330
51
100
AcDbEntity
  8
1
  6
Continuous
 62
     7
100
AcDbLine
 10
-13.99999999999943
 20
-166.0
 30
0.0
 11
14.00000000000057
 21
-166.0
 31
0.0
  0
LINE
  5
DA
330
51
100
AcDbEntity
  8
1
  6
Continuous
 62
     7
100
AcDbLine
 10
15.06217782649162
 20
-166.0
 30
0.0
 11
15.99999999999795
 21
-162.5000000000098
 31
0.0
  0
LINE
  5
DB
330
51
100
AcDbEntity
  8
1
  6
Continuous
 62
     7
100
AcDbLine
 10
14.00000000000057
 20
-166.0
 30
0.0
 11
15.06217782649162
 21
-166.0
 31
0.0
  0
LINE
  5
DC
330
51
100
AcDbEntity
  8
1
  6
Continuous
 62
     7
100
AcDbLine
 10
-15.99999999999898
 20
-162.5000000000018
 30
0.0
 11
-15.0621778264906
 21
-166.0
 31
0.0
  0
LINE
  5
DD
330
51
100
AcDbEntity
  8
1
  6
Continuous
 62
     7
100
AcDbLine
 10
-15.0621778264906
 20
-166.0
 30
0.0
 11
-13.99999999999943
 21
-166.0
 31
0.0
  0
LINE
  5
DE
330
51
100
AcDbEntity
  8
1
  6
Continuous
 62
     7
100
AcDbLine
 10
16.00000000000011
 20
-23.20130830516405
 30
0.0
 11
15.99999999999966
 21
-17.50000000000864
 31
0.0
  0
LINE
  5
DF
330
51
100
AcDbEntity
  8
1
  6
Continuous
 62
     7
100
AcDbLine
 10
16.00000000000011
 20
-53.22431753705655
 30
0.0
 11
47.70053888028713
 21
-44.73018374445496
 31
0.0
  0
LINE
  5
E0
330
51
100
AcDbEntity
  8
1
  6
Continuous
 62
     7
100
AcDbLine
 10
15.99999999999795
 20
-162.5000000000098
 30
0.0
 11
15.99999999999795
 21
-162.5000000000018
 31
0.0
  0
LINE
  5
E1
330
51
100
AcDbEntity
  8
1
  6
Continuous
 62
     7
100
AcDbLine
 10
40.19478657231366
 20
-16.71833478207032
 30
0.0
 11
16.00000000000011
 21
-23.20130830516405
 31
0.0
  0
LINE
  5
E2
330
51
100
AcDbEntity
  8
1
  6
PHANTOM
 62
     2
100
AcDbLine
 10
-6.26465084150789
 20
-44.17860813385096
 30
0.0
 11
65.30366454479974
 21
-25.00193582243992
 31
0.0
  0
LINE
  5
E3
330
51
100
AcDbEntity
  8
1
  6
Continuous
 62
     7
100
AcDbLine
 10
16.00000000000011
 20
-53.22431753705655
 30
0.0
 11
12.31349602968317
 21
-47.91728583139684
 31
0.0
  0
LINE
  5
E4
330
51
100
AcDbEntity
  8
1
  6
Continuous
 62
     7
100
AcDbLine
 10
11.24986285058242
 20
-32.58512002067812
 30
0.0
 11
16.00000000000011
 21
-23.20130830516405
 31
0.0
  0
LINE
  5
E5
330
51
100
AcDbEntity
  8
1
  6
Continuous
 62
     7
100
AcDbLine
 10
-16.00000000000034
 20
-17.50000000000864
 30
0.0
 11
-15.99999999999898
 21
-162.5000000000018
 31
0.0
  0
LINE
  5
E6
330
51
100
AcDbEntity
  8
1
  6
PHANTOM
 62
     2
100
AcDbLine
 10
0.00000000000091
 20
-169.1421393908976
 30
0.0
 11
0.0
 21
4.54674804164938
 31
0.0
  0
XLINE
  5
E7
330
51
100
AcDbEntity
  8
1
  6
DOT_CENTER
 62
     3
 60
     1
100
AcDbXline
 10
15.99999999999795
 20
-162.5000000000018
 30
0.0
 11
0.0
 21
1.0
 31
0.0
  0
ARC
  5
E8
330
51
100
AcDbEntity
  8
1
  6
Continuous
 62
     7
100
AcDbCircle
 10
24.63288684098654
 20
-39.35968043979506
 30
0.0
 40
14.99999999999994
100
AcDbArc
 50
153.1512160275839
 51
214.7855897972218
  0
ENDBLK
  5
53
330
51
100
AcDbEntity
  8
0
100
AcDbBlockEnd
  0
BLOCK
  5
58
330
54
100
AcDbEntity
  8
0
100
AcDbBlockBegin
  2
HL13_30
 70
     0
 10
38.42586008615357
 20
-79.77545748853252
 30
0.0
  3
HL13_30
  1

  0
INSERT
  5
55
330
54
100
AcDbEntity
  8
0
100
AcDbBlockReference
  2
HL19
 10
72.97897836016989
 20
-44.68606853940586
 30
0.0
  0
INSERT
  5
56
330
54
100
AcDbEntity
  8
0
100
AcDbBlockReference
  2
Mutter5_4
 10
-633.5673103233694
 20
-679.4027833539785
 30
0.0
  0
INSERT
  5
57
330
54
100
AcDbEntity
  8
1
100
AcDbBlockReference
  2
HL_13_DN32_Tauchrohr
 10
24.6518322723997
 20
-82.29769567462411
 30
0.0
  0
LINE
  5
E9
330
54
100
AcDbEntity
  8
1
  6
Continuous
 62
     7
100
AcDbLine
 10
23.99999957364128
 20
3.99999999999147
 30
0.0
 11
23.99999957364128
 21
2.99999999999147
 31
0.0
  0
LINE
  5
EA
330
54
100
AcDbEntity
  8
1
  6
Continuous
 62
     7
100
AcDbLine
 10
-24.00000042635872
 20
3.99999999999147
 30
0.0
 11
-24.00000042635872
 21
2.99999999999147
 31
0.0
  0
DIMENSION
  5
F6
330
54
100
AcDbEntity
  8
1
100
AcDbDimension
  2
*D8
 10
-38.13259927285698
 20
-166.0
 30
0.0
 11
-43.63259927285698
 21
-79.02662231243141
 31
0.0
 70
    32
  1
157
 71
     5
 42
-1.0
 53
-89.99999999999972
  3
ME10_DIM_10
100
AcDbAlignedDimension
 13
-28.13259927285981
 23
-8.5
 33
0.0
 14
-13.99999999999943
 24
-166.0
 34
0.0
 50
-89.99999999999972
100
AcDbRotatedDimension
  0
DIMENSION
  5
101
330
54
100
AcDbEntity
  8
1
100
AcDbDimension
  2
*D9
 10
15.99999999999796
 20
-180.5509149770564
 30
0.0
 11
0.34133397750339
 21
-175.0509149770564
 31
0.0
 70
    32
  1
<>
 71
     5
 42
-1.0
 53
0.00013888888889
  3
ME10_DIM_11
100
AcDbAlignedDimension
 13
-15.99999999999898
 23
-162.5000000000018
 33
0.0
 14
15.99999999999795
 24
-162.5000000000018
 34
0.0
 50
0.00000000000028
100
AcDbRotatedDimension
  0
DIMENSION
  5
10C
330
54
100
AcDbEntity
  8
1
100
AcDbDimension
  2
*D10
 10
-24.00000042635872
 20
13.99999999999137
 30
0.0
 11
0.80531025058098
 21
19.49999999999137
 31
0.0
 70
    32
  1
5/4"
 71
     5
 42
-1.0
 53
0.00013888888889
  3
ME10_DIM_12
100
AcDbAlignedDimension
 13
23.99999957364128
 23
2.99999999999147
 33
0.0
 14
-24.00000042635872
 24
3.99999999999147
 34
0.0
 50
0.00000000000028
100
AcDbRotatedDimension
  0
DIMENSION
  5
119
330
54
100
AcDbEntity
  8
1
100
AcDbDimension
  2
*D11
 10
94.01302094944462
 20
-95.4531124977585
 30
0.0
 11
76.07664769133451
 21
-94.56513023514076
 31
0.0
 70
    33
  1
3/4"
 71
     5
 42
-1.0
 53
14.99999999994791
  3
ME10_DIM_13
100
AcDbAlignedDimension
 13
105.9369061082923
 23
-74.16031002347205
 33
0.0
 14
89.48856918062302
 24
-78.56762862006002
 34
0.0
  0
ENDBLK
  5
59
330
54
100
AcDbEntity
  8
0
100
AcDbBlockEnd
  0
BLOCK
  5
5B
330
5A
100
AcDbEntity
  8
0
100
AcDbBlockBegin
  2
Holländermutter_1
 70
     0
 10
52.06067460617231
 20
-29.41715015232179
 30
0.0
  3
Holländermutter_1
  1

  0
LINE
  5
11A
330
5A
100
AcDbEntity
  8
1
  6
DOT_CENTER
 62
     2
100
AcDbLine
 10
59.88543886007372
 20
-26.45374501908546
 30
0.0
 11
56.50469846806108
 21
-27.35961167694128
 31
0.0
  0
LINE
  5
11B
330
5A
100
AcDbEntity
  8
0
  6
Continuous
 62
     7
100
AcDbLine
 10
56.63782446488538
 20
-30.94740730503517
 30
0.0
 11
54.82609114917376
 21
-24.18592652101012
 31
0.0
  0
LINE
  5
11C
330
5A
100
AcDbEntity
  8
0
  6
Continuous
 62
     7
100
AcDbLine
 10
57.41056512591686
 20
-30.74035206895388
 30
0.0
 11
56.63782446488538
 21
-30.94740730503517
 31
0.0
  0
LINE
  5
11D
330
5A
100
AcDbEntity
  8
0
  6
Continuous
 62
     7
100
AcDbLine
 10
55.5988318102053
 20
-23.97887128492874
 30
0.0
 11
57.41056512591686
 21
-30.74035206895388
 31
0.0
  0
LINE
  5
11E
330
5A
100
AcDbEntity
  8
0
  6
Continuous
 62
     7
100
AcDbLine
 10
54.82609114917376
 20
-24.18592652101012
 30
0.0
 11
55.5988318102053
 21
-23.97887128492874
 31
0.0
  0
LINE
  5
11F
330
5A
100
AcDbEntity
  8
0
  6
Continuous
 62
     7
100
AcDbLine
 10
58.05785536534174
 20
-33.15607212973981
 30
0.0
 11
59.62686244163049
 21
-39.01168625590574
 31
0.0
  0
LINE
  5
120
330
5A
100
AcDbEntity
  8
0
  6
Continuous
 62
     7
100
AcDbLine
 10
58.95949241192659
 20
-39.61199004172897
 30
0.0
 11
57.39048533563786
 21
-33.75637591556298
 31
0.0
  0
LINE
  5
121
330
5A
100
AcDbEntity
  8
0
  6
Continuous
 62
     7
100
AcDbLine
 10
64.6477092899444
 20
-44.22678022281031
 30
0.0
 11
61.26696889793178
 21
-45.13264688066604
 31
0.0
  0
LINE
  5
122
330
5A
100
AcDbEntity
  8
0
  6
Continuous
 62
     7
100
AcDbLine
 10
61.18001933891117
 20
-44.80814670870416
 30
0.0
 11
61.26696889793178
 21
-45.13264688066604
 31
0.0
  0
LINE
  5
123
330
5A
100
AcDbEntity
  8
0
  6
Continuous
 62
     7
100
AcDbLine
 10
61.26696889793178
 20
-45.13264688066604
 30
0.0
 11
60.70128347298163
 21
-46.11244277777914
 31
0.0
  0
LINE
  5
124
330
5A
100
AcDbEntity
  8
0
  6
Continuous
 62
     7
100
AcDbLine
 10
60.70128347298163
 20
-46.11244277777914
 30
0.0
 11
60.61801994053491
 21
-45.8016990442693
 31
0.0
  0
LINE
  5
125
330
5A
100
AcDbEntity
  8
0
  6
Continuous
 62
     7
100
AcDbLine
 10
60.1007117841329
 20
-40.78011607726438
 30
0.0
 11
61.00657844198872
 21
-44.16085646927695
 31
0.0
  0
LINE
  5
126
330
5A
100
AcDbEntity
  8
0
  6
Continuous
 62
     7
100
AcDbLine
 10
60.41634506804232
 20
-45.04903817351399
 30
0.0
 11
59.51047841018647
 21
-41.66829778150139
 31
0.0
  0
LINE
  5
127
330
5A
100
AcDbEntity
  8
0
  6
Continuous
 62
     7
100
AcDbLine
 10
61.18001933891117
 20
-44.80814670870416
 30
0.0
 11
60.4456933696861
 21
-45.00490875913852
 31
0.0
  0
LINE
  5
128
330
5A
100
AcDbEntity
  8
0
  6
Continuous
 62
     7
100
AcDbLine
 10
42.58395668886648
 20
-15.97558078202971
 30
0.0
 11
51.95343720387254
 21
-13.46503604454381
 31
0.0
  0
LINE
  5
129
330
5A
100
AcDbEntity
  8
0
  6
Continuous
 62
     7
100
AcDbLine
 10
42.76646397595161
 20
-16.65670725018532
 30
0.0
 11
42.58395668886648
 21
-15.97558078202971
 31
0.0
  0
LINE
  5
12A
330
5A
100
AcDbEntity
  8
0
  6
Continuous
 62
     7
100
AcDbLine
 10
52.90868515198918
 20
-13.93910727661827
 30
0.0
 11
42.76646397595161
 21
-16.65670725018532
 31
0.0
  0
LINE
  5
12B
330
5A
100
AcDbEntity
  8
0
  6
Continuous
 62
     7
100
AcDbLine
 10
41.67809003101078
 20
-12.59484039001723
 30
0.0
 11
51.04757054601684
 21
-10.08429565253135
 31
0.0
  0
LINE
  5
12C
330
5A
100
AcDbEntity
  8
0
  6
Continuous
 62
     7
100
AcDbLine
 10
42.58395668886648
 20
-15.97558078202971
 30
0.0
 11
41.67809003101078
 21
-12.59484039001723
 31
0.0
  0
LINE
  5
12D
330
5A
100
AcDbEntity
  8
0
  6
Continuous
 62
     7
100
AcDbLine
 10
44.70394976341518
 20
-23.88750264796823
 30
0.0
 11
54.07343027842121
 21
-21.37695791048233
 31
0.0
  0
LINE
  5
12E
330
5A
100
AcDbEntity
  8
0
  6
Continuous
 62
     7
100
AcDbLine
 10
54.95154157078048
 20
-21.56315122414284
 30
0.0
 11
44.80932039474287
 21
-24.28075119771009
 31
0.0
  0
LINE
  5
12F
330
5A
100
AcDbEntity
  8
0
  6
Continuous
 62
     7
100
AcDbLine
 10
41.47641515851815
 20
-11.84217951926186
 30
0.0
 11
50.84589567352415
 21
-9.33163478177605
 31
0.0
  0
LINE
  5
130
330
5A
100
AcDbEntity
  8
0
  6
Continuous
 62
     7
100
AcDbLine
 10
41.67809003101078
 20
-12.59484039001723
 30
0.0
 11
41.47641515851815
 21
-11.84217951926186
 31
0.0
  0
LINE
  5
131
330
5A
100
AcDbEntity
  8
0
  6
Continuous
 62
     7
100
AcDbLine
 10
41.47641515851815
 20
-11.84217951926186
 30
0.0
 11
41.39315162607147
 21
-11.53143578575211
 31
0.0
  0
LINE
  5
132
330
5A
100
AcDbEntity
  8
0
  6
Continuous
 62
     7
100
AcDbLine
 10
50.76263214107748
 20
-9.02089104826618
 30
0.0
 11
41.39315162607147
 21
-11.53143578575211
 31
0.0
  0
LINE
  5
133
330
5A
100
AcDbEntity
  8
0
  6
Continuous
 62
     7
100
AcDbLine
 10
47.26834394987927
 20
-33.4579520425211
 30
0.0
 11
56.63782446488538
 21
-30.94740730503517
 31
0.0
  0
LINE
  5
134
330
5A
100
AcDbEntity
  8
0
  6
Continuous
 62
     7
100
AcDbLine
 10
48.02100482063182
 20
-36.26692065304894
 30
0.0
 11
57.39048533563786
 21
-33.75637591556298
 31
0.0
  0
LINE
  5
135
330
5A
100
AcDbEntity
  8
0
  6
Continuous
 62
     7
100
AcDbLine
 10
44.80932039474287
 20
-24.28075119771009
 30
0.0
 11
44.70394976341518
 21
-23.88750264796823
 31
0.0
  0
LINE
  5
136
330
5A
100
AcDbEntity
  8
0
  6
Continuous
 62
     7
100
AcDbLine
 10
47.26834394987927
 20
-33.4579520425211
 30
0.0
 11
45.4566106341677
 21
-26.69647125849599
 31
0.0
  0
LINE
  5
137
330
5A
100
AcDbEntity
  8
0
  6
Continuous
 62
     7
100
AcDbLine
 10
47.91563418930414
 20
-35.87367210330706
 30
0.0
 11
47.26834394987927
 21
-33.4579520425211
 31
0.0
  0
LINE
  5
138
330
5A
100
AcDbEntity
  8
0
  6
Continuous
 62
     7
100
AcDbLine
 10
48.02100482063182
 20
-36.26692065304894
 30
0.0
 11
47.91563418930414
 21
-35.87367210330706
 31
0.0
  0
LINE
  5
139
330
5A
100
AcDbEntity
  8
0
  6
Continuous
 62
     7
100
AcDbLine
 10
45.4566106341677
 20
-26.69647125849599
 30
0.0
 11
44.80932039474287
 21
-24.28075119771009
 31
0.0
  0
LINE
  5
13A
330
5A
100
AcDbEntity
  8
0
  6
Continuous
 62
     7
100
AcDbLine
 10
45.4566106341677
 20
-26.69647125849599
 30
0.0
 11
54.82609114917376
 21
-24.18592652101012
 31
0.0
  0
LINE
  5
13B
330
5A
100
AcDbEntity
  8
0
  6
Continuous
 62
     7
100
AcDbLine
 10
49.59001189692059
 20
-42.12253477921487
 30
0.0
 11
48.02100482063182
 21
-36.26692065304894
 31
0.0
  0
LINE
  5
13C
330
5A
100
AcDbEntity
  8
0
  6
Continuous
 62
     7
100
AcDbLine
 10
58.05785536534174
 20
-33.15607212973981
 30
0.0
 11
47.91563418930414
 21
-35.87367210330706
 31
0.0
  0
LINE
  5
13D
330
5A
100
AcDbEntity
  8
0
  6
Continuous
 62
     7
100
AcDbLine
 10
49.9584906080954
 20
-43.4977160508318
 30
0.0
 11
49.59001189692059
 21
-42.12253477921487
 31
0.0
  0
LINE
  5
13E
330
5A
100
AcDbEntity
  8
0
  6
Continuous
 62
     7
100
AcDbLine
 10
60.1007117841329
 20
-40.78011607726438
 30
0.0
 11
49.9584906080954
 21
-43.4977160508318
 31
0.0
  0
LINE
  5
13F
330
5A
100
AcDbEntity
  8
0
  6
Continuous
 62
     7
100
AcDbLine
 10
50.14099789518045
 20
-44.17884251898735
 30
0.0
 11
49.9584906080954
 21
-43.4977160508318
 31
0.0
  0
LINE
  5
140
330
5A
100
AcDbEntity
  8
0
  6
Continuous
 62
     7
100
AcDbLine
 10
50.14099789518045
 20
-44.17884251898735
 30
0.0
 11
59.51047841018647
 21
-41.66829778150139
 31
0.0
  0
LINE
  5
141
330
5A
100
AcDbEntity
  8
0
  6
Continuous
 62
     7
100
AcDbLine
 10
51.04686455303627
 20
-47.55958291099989
 30
0.0
 11
60.41634506804232
 21
-45.04903817351399
 31
0.0
  0
LINE
  5
142
330
5A
100
AcDbEntity
  8
0
  6
Continuous
 62
     7
100
AcDbLine
 10
51.04686455303627
 20
-47.55958291099989
 30
0.0
 11
50.14099789518045
 21
-44.17884251898735
 31
0.0
  0
LINE
  5
143
330
5A
100
AcDbEntity
  8
0
  6
Continuous
 62
     7
100
AcDbLine
 10
44.70394976341518
 20
-23.88750264796823
 30
0.0
 11
43.13494268712643
 21
-18.03188852180227
 31
0.0
  0
LINE
  5
144
330
5A
100
AcDbEntity
  8
0
  6
Continuous
 62
     7
100
AcDbLine
 10
43.13494268712643
 20
-18.03188852180227
 30
0.0
 11
42.76646397595161
 21
-16.65670725018532
 31
0.0
  0
LINE
  5
145
330
5A
100
AcDbEntity
  8
0
  6
Continuous
 62
     7
100
AcDbLine
 10
51.24853942552886
 20
-48.3122437817552
 30
0.0
 11
60.61801994053491
 21
-45.8016990442693
 31
0.0
  0
LINE
  5
146
330
5A
100
AcDbEntity
  8
0
  6
Continuous
 62
     7
100
AcDbLine
 10
51.24853942552886
 20
-48.3122437817552
 30
0.0
 11
51.04686455303627
 21
-47.55958291099989
 31
0.0
  0
LINE
  5
147
330
5A
100
AcDbEntity
  8
0
  6
Continuous
 62
     7
100
AcDbLine
 10
51.33180295797567
 20
-48.62298751526504
 30
0.0
 11
51.24853942552886
 21
-48.3122437817552
 31
0.0
  0
LINE
  5
148
330
5A
100
AcDbEntity
  8
0
  6
Continuous
 62
     7
100
AcDbLine
 10
60.70128347298163
 20
-46.11244277777914
 30
0.0
 11
51.33180295797567
 21
-48.62298751526504
 31
0.0
  0
LINE
  5
149
330
5A
100
AcDbEntity
  8
0
  6
Continuous
 62
     7
100
AcDbLine
 10
38.7324589675018
 20
-11.26085386353168
 30
0.0
 11
40.66431062008019
 21
-10.74321577332842
 31
0.0
  0
LINE
  5
14A
330
5A
100
AcDbEntity
  8
0
  6
Continuous
 62
     7
100
AcDbLine
 10
49.59001189692059
 20
-42.12253477921487
 30
0.0
 11
58.95949241192659
 21
-39.61199004172897
 31
0.0
  0
LINE
  5
14B
330
5A
100
AcDbEntity
  8
0
  6
Continuous
 62
     7
100
AcDbLine
 10
43.13494268712643
 20
-18.03188852180227
 30
0.0
 11
52.50442320213247
 21
-15.52134378431634
 31
0.0
  0
LINE
  5
14C
330
5A
100
AcDbEntity
  8
0
  6
Continuous
 62
     7
100
AcDbLine
 10
41.39315162607147
 20
-11.53143578575211
 30
0.0
 11
41.27668305577595
 21
-11.09676916392215
 31
0.0
  0
LINE
  5
14D
330
5A
100
AcDbEntity
  8
0
  6
Continuous
 62
     7
100
AcDbLine
 10
49.16286648509887
 20
-50.18766466299363
 30
0.0
 11
38.7324589675018
 21
-11.26085386353168
 31
0.0
  0
LINE
  5
14E
330
5A
100
AcDbEntity
  8
0
  6
Continuous
 62
     7
100
AcDbLine
 10
49.16286648509887
 20
-50.18766466299363
 30
0.0
 11
51.09471813767735
 21
-49.67002657279033
 31
0.0
  0
LINE
  5
14F
330
5A
100
AcDbEntity
  8
0
  6
Continuous
 62
     3
100
AcDbLine
 10
51.09471813767735
 20
-49.67002657279033
 30
0.0
 11
40.66431062008019
 21
-10.74321577332842
 31
0.0
  0
LINE
  5
150
330
5A
100
AcDbEntity
  8
0
  6
Continuous
 62
     7
100
AcDbLine
 10
51.44827152827139
 20
-49.05765413709489
 30
0.0
 11
51.33180295797567
 21
-48.62298751526504
 31
0.0
  0
LINE
  5
151
330
5A
100
AcDbEntity
  8
0
  6
Continuous
 62
     3
100
AcDbLine
 10
64.6477092899444
 20
-44.22678022281031
 30
0.0
 11
55.123168430203
 21
-8.68070981536067
 31
0.0
  0
LINE
  5
152
330
5A
100
AcDbEntity
  8
0
  6
Continuous
 62
     7
100
AcDbLine
 10
51.74242803819035
 20
-9.58657647321655
 30
0.0
 11
50.76263214107748
 21
-9.02089104826618
 31
0.0
  0
LINE
  5
153
330
5A
100
AcDbEntity
  8
0
  6
Continuous
 62
     7
100
AcDbLine
 10
54.07343027842121
 20
-21.37695791048233
 30
0.0
 11
52.50442320213247
 21
-15.52134378431634
 31
0.0
  0
LINE
  5
154
330
5A
100
AcDbEntity
  8
0
  6
Continuous
 62
     7
100
AcDbLine
 10
53.38253449449158
 20
-15.7075370979768
 30
0.0
 11
54.95154157078048
 21
-21.56315122414284
 31
0.0
  0
LINE
  5
155
330
5A
100
AcDbEntity
  8
0
  6
Continuous
 62
     7
100
AcDbLine
 10
52.00281849413339
 20
-10.5583668846057
 30
0.0
 11
52.90868515198918
 21
-13.93910727661827
 31
0.0
  0
LINE
  5
156
330
5A
100
AcDbEntity
  8
0
  6
Continuous
 62
     7
100
AcDbLine
 10
51.95343720387254
 20
-13.46503604454381
 30
0.0
 11
51.04757054601684
 21
-10.08429565253135
 31
0.0
  0
LINE
  5
157
330
5A
100
AcDbEntity
  8
0
  6
Continuous
 62
     7
100
AcDbLine
 10
51.82937759721115
 20
-9.91107664517841
 30
0.0
 11
51.09505162798602
 21
-10.10783869561277
 31
0.0
  0
LINE
  5
158
330
5A
100
AcDbEntity
  8
0
  6
Continuous
 62
     7
100
AcDbLine
 10
51.74242803819035
 20
-9.58657647321655
 30
0.0
 11
51.82937759721115
 21
-9.91107664517841
 31
0.0
  0
LINE
  5
159
330
5A
100
AcDbEntity
  8
0
  6
Continuous
 62
     7
100
AcDbLine
 10
50.84589567352415
 20
-9.33163478177605
 30
0.0
 11
50.76263214107748
 21
-9.02089104826618
 31
0.0
  0
LINE
  5
15A
330
5A
100
AcDbEntity
  8
0
  6
Continuous
 62
     7
100
AcDbLine
 10
55.123168430203
 20
-8.68070981536067
 30
0.0
 11
51.74242803819035
 21
-9.58657647321655
 31
0.0
  0
LINE
  5
15B
330
5A
100
AcDbEntity
  8
0
  6
Continuous
 62
     7
100
AcDbLine
 10
65.35481607113212
 20
-43.00203535141912
 30
0.0
 11
56.34791330159402
 21
-9.38781659654848
 31
0.0
  0
ARC
  5
15C
330
5A
100
AcDbEntity
  8
0
  6
Continuous
 62
     7
100
AcDbCircle
 10
64.38889024484294
 20
-43.26085439652078
 30
0.0
 40
1.000000000000177
100
AcDbArc
 50
284.9999999999345
 51
14.99999999995072
  0
ARC
  5
15D
330
5A
100
AcDbEntity
  8
0
  6
Continuous
 62
     7
100
AcDbCircle
 10
40.79372014263103
 20
-11.22617868647302
 30
0.0
 40
0.5000000000002682
100
AcDbArc
 50
14.99999999994535
 51
104.999999999952
  0
ARC
  5
15E
330
5A
100
AcDbEntity
  8
0
  6
Continuous
 62
     7
100
AcDbCircle
 10
50.96530861512649
 20
-49.18706365964576
 30
0.0
 40
0.4999999999999292
100
AcDbArc
 50
284.9999999999545
 51
14.99999999994538
  0
ARC
  5
15F
330
5A
100
AcDbEntity
  8
0
  6
Continuous
 62
     7
100
AcDbCircle
 10
55.38198747530477
 20
-9.64663564165016
 30
0.0
 40
0.9999999999999608
100
AcDbArc
 50
14.99999999995124
 51
104.999999999952
  0
SPLINE
  5
160
330
5A
100
AcDbEntity
  8
0
  6
Continuous
 62
     7
100
AcDbSpline
210
0.0
220
0.0
230
1.0
 70
     8
 71
     3
 72
    11
 73
     7
 74
     5
 42
0.000000001
 43
0.0000000001
 44
0.00000001
 40
0.0
 40
0.0
 40
0.0
 40
0.0
 40
0.2230022301571212
 40
0.4487652474511278
 40
0.671948580833274
 40
0.8976343441809058
 40
0.8976343441809058
 40
0.8976343441809058
 40
0.8976343441809058
 10
54.95154157078048
 20
-21.56315122414284
 30
0.0
 10
54.8788283669001
 20
-21.54771279904215
 30
0.0
 10
54.73250176018143
 20
-21.51664483451551
 30
0.0
 10
54.51339331856258
 20
-21.47017104537398
 30
0.0
 10
54.29340365850395
 20
-21.42354077532854
 30
0.0
 10
54.14702675490873
 20
-21.3925431308008
 30
0.0
 10
54.07343027842121
 20
-21.37695791048233
 30
0.0
 11
54.95154157078048
 21
-21.56315122414284
 31
0.0
 11
54.73340037853158
 21
-21.51684339651452
 31
0.0
 11
54.51255110041234
 21
-21.46999751801235
 31
0.0
 11
54.29421820801001
 21
-21.4237206512701
 31
0.0
 11
54.07343027842121
 21
-21.37695791048233
 31
0.0
  0
SPLINE
  5
161
330
5A
100
AcDbEntity
  8
0
  6
Continuous
 62
     7
100
AcDbSpline
210
0.0
220
0.0
230
1.0
 70
     8
 71
     3
 72
    11
 73
     7
 74
     5
 42
0.000000001
 43
0.0000000001
 44
0.00000001
 40
0.0
 40
0.0
 40
0.0
 40
0.0
 40
0.2255148068540264
 40
0.4488690967296907
 40
0.6744035432072732
 40
0.8976343441807886
 40
0.8976343441807886
 40
0.8976343441807886
 40
0.8976343441807886
 10
57.39048533563786
 20
-33.75637591556298
 30
0.0
 10
57.44638676781561
 20
-33.70611858083024
 30
0.0
 10
57.55765406534935
 20
-33.60608538448145
 30
0.0
 10
57.7247989234113
 20
-33.45575851426263
 30
0.0
 10
57.89135788148302
 20
-33.30591871131276
 30
0.0
 10
58.00254646207964
 20
-33.2058497660861
 30
0.0
 10
58.05785536534174
 20
-33.15607212973981
 30
0.0
 11
57.39048533563786
 21
-33.75637591556298
 31
0.0
 11
57.5581848013211
 21
-33.60559853887717
 31
0.0
 11
57.72425531904827
 21
-33.45624084088883
 31
0.0
 11
57.89192355164458
 21
-33.30539936672899
 31
0.0
 11
58.05785536534174
 21
-33.15607212973981
 31
0.0
  0
SPLINE
  5
162
330
5A
100
AcDbEntity
  8
0
  6
Continuous
 62
     7
100
AcDbSpline
210
0.0
220
0.0
230
1.0
 70
     8
 71
     3
 72
    11
 73
     7
 74
     5
 42
0.000000001
 43
0.0000000001
 44
0.00000001
 40
0.0
 40
0.0
 40
0.0
 40
0.0
 40
0.2230956807260225
 40
0.4487652474511936
 40
0.6720731253701364
 40
0.8976343441808696
 40
0.8976343441808696
 40
0.8976343441808696
 40
0.8976343441808696
 10
59.62686244163049
 20
-39.01168625590574
 30
0.0
 10
59.57158701774053
 20
-39.06143376351644
 30
0.0
 10
59.46039843961222
 20
-39.16150271148504
 30
0.0
 10
59.29385098955068
 20
-39.31133217485851
 30
0.0
 10
59.12667264525836
 20
-39.46168916618939
 30
0.0
 10
59.01540534848606
 20
-39.56172236338537
 30
0.0
 10
58.95949241192659
 20
-39.61199004172897
 30
0.0
 11
59.62686244163049
 21
-39.01168625590574
 31
0.0
 11
59.46103107270271
 21
-39.16092311408266
 31
0.0
 11
59.29326239533714
 21
-39.31185496705501
 31
0.0
 11
59.12722638860483
 21
-39.46118163181966
 31
0.0
 11
58.95949241192659
 21
-39.61199004172897
 31
0.0
  0
SPLINE
  5
163
330
5A
100
AcDbEntity
  8
0
  6
Continuous
 62
     7
100
AcDbSpline
210
0.0
220
0.0
230
1.0
 70
     8
 71
     3
 72
    11
 73
     7
 74
     5
 42
0.000000001
 43
0.0000000001
 44
0.00000001
 40
0.0
 40
0.0
 40
0.0
 40
0.0
 40
0.2680954855453179
 40
0.5332223103201188
 40
0.8013480840977957
 40
1.066415597479874
 40
1.066415597479874
 40
1.066415597479874
 40
1.066415597479874
 10
59.51047841018647
 20
-41.66829778150139
 30
0.0
 10
59.55996353574402
 20
-41.59388437846293
 30
0.0
 10
59.65838581833243
 20
-41.4458815546732
 30
0.0
 10
59.80624659556084
 20
-41.22342220107994
 30
0.0
 10
59.95351267831745
 20
-41.00177951571216
 30
0.0
 10
60.05183340052675
 20
-40.85372081722501
 30
0.0
 10
60.1007117841329
 20
-40.78011607726438
 30
0.0
 11
59.51047841018647
 21
-41.66829778150139
 31
0.0
 11
59.65892499958628
 21
-41.44505173010122
 31
0.0
 11
59.80568731036655
 21
-41.22425078501584
 31
0.0
 11
59.95406738005297
 21
-41.00092415094635
 31
0.0
 11
60.1007117841329
 21
-40.78011607726438
 31
0.0
  0
SPLINE
  5
164
330
5A
100
AcDbEntity
  8
0
  6
Continuous
 62
     7
100
AcDbSpline
210
0.0
220
0.0
230
1.0
 70
     8
 71
     3
 72
    11
 73
     7
 74
     5
 42
0.000000001
 43
0.0000000001
 44
0.00000001
 40
0.0
 40
0.0
 40
0.0
 40
0.0
 40
0.2653193058670115
 40
0.5331932871597814
 40
0.7984327801838514
 40
1.066415597479854
 40
1.066415597479854
 40
1.066415597479854
 40
1.066415597479854
 10
61.00657844198872
 20
-44.16085646927695
 30
0.0
 10
60.95765362440617
 20
-44.23453112540135
 30
0.0
 10
60.85933289516107
 20
-44.38258981921786
 30
0.0
 10
60.71204600977771
 20
-44.60426377294573
 30
0.0
 10
60.56423168407638
 20
-44.8266532220365
 30
0.0
 10
60.4658093986811
 20
-44.97465604395894
 30
0.0
 10
60.41634506804232
 20
-45.04903817351399
 30
0.0
 11
61.00657844198872
 21
-44.16085646927695
 31
0.0
 11
60.85979471704189
 21
-44.38187427886936
 31
0.0
 11
60.71155396822229
 21
-44.60499117702841
 31
0.0
 11
60.56472928070031
 21
-44.82588594789168
 31
0.0
 11
60.41634506804232
 21
-45.04903817351399
 31
0.0
  0
SPLINE
  5
165
330
5A
100
AcDbEntity
  8
0
  6
Continuous
 62
     7
100
AcDbSpline
210
0.0
220
0.0
230
1.0
 70
     8
 71
     3
 72
    11
 73
     7
 74
     5
 42
0.000000001
 43
0.0000000001
 44
0.00000001
 40
0.0
 40
0.0
 40
0.0
 40
0.0
 40
0.2868366591028684
 40
0.5707427748941015
 40
0.8574816590779895
 40
1.141485710262801
 40
1.141485710262801
 40
1.141485710262801
 40
1.141485710262801
 10
60.61801994053491
 20
-45.8016990442693
 30
0.0
 10
60.66512053982072
 20
-45.71849309398736
 30
0.0
 10
60.75884050953135
 20
-45.55293128186486
 30
0.0
 10
60.89958616631883
 20
-45.30415857276937
 30
0.0
 10
61.0398263176312
 20
-45.05618471373182
 30
0.0
 10
61.13343785585464
 20
-44.89056150686837
 30
0.0
 10
61.18001933891117
 20
-44.80814670870416
 30
0.0
 11
60.61801994053491
 21
-45.8016990442693
 31
0.0
 11
60.75931184044572
 21
-45.55207559179469
 31
0.0
 11
60.89911450465519
 21
-45.30497662849319
 31
0.0
 11
61.04026443711349
 21
-45.05538519380202
 31
0.0
 11
61.18001933891117
 21
-44.80814670870416
 31
0.0
  0
SPLINE
  5
166
330
5A
100
AcDbEntity
  8
0
  6
Continuous
 62
     7
100
AcDbSpline
210
0.0
220
0.0
230
1.0
 70
     8
 71
     3
 72
    11
 73
     7
 74
     5
 42
0.000000001
 43
0.0000000001
 44
0.00000001
 40
0.0
 40
0.0
 40
0.0
 40
0.0
 40
0.2837144120552957
 40
0.5707429353688073
 40
0.8546705606086835
 40
1.141485710262856
 40
1.141485710262856
 40
1.141485710262856
 40
1.141485710262856
 10
51.82937759721115
 20
-9.911076645178412
 30
0.0
 10
51.74791261910651
 20
-9.863043110273217
 30
0.0
 10
51.58403105043489
 20
-9.76641496639446
 30
0.0
 10
51.33858642356853
 20
-9.621779717854611
 30
0.0
 10
51.09222756671376
 20
-9.476660060912138
 30
0.0
 10
50.92828278576863
 20
-9.380139311035853
 30
0.0
 10
50.84589567352415
 20
-9.331634781776046
 30
0.0
 11
51.82937759721115
 21
-9.911076645178412
 31
0.0
 11
51.58497657877165
 21
-9.76698636169544
 31
0.0
 11
51.33769191480548
 21
-9.621261730408094
 31
0.0
 11
51.09305124022298
 21
-9.47715816794258
 31
0.0
 11
50.84589567352415
 21
-9.331634781776046
 31
0.0
  0
SPLINE
  5
167
330
5A
100
AcDbEntity
  8
0
  6
Continuous
 62
     7
100
AcDbSpline
210
0.0
220
0.0
230
1.0
 70
     8
 71
     3
 72
    11
 73
     7
 74
     5
 42
0.000000001
 43
0.0000000001
 44
0.00000001
 40
0.0
 40
0.0
 40
0.0
 40
0.0
 40
0.2678763810304986
 40
0.5332223103200721
 40
0.8014552245828804
 40
1.066415597479787
 40
1.066415597479787
 40
1.066415597479787
 40
1.066415597479787
 10
51.04757054601684
 20
-10.08429565253135
 30
0.0
 10
51.12756719302765
 20
-10.12396453786818
 30
0.0
 10
51.28680480476751
 20
-10.20292759610841
 30
0.0
 10
51.526117671721
 20
-10.32166851460408
 30
0.0
 10
51.76454059752818
 20
-10.44001615088234
 30
0.0
 10
51.92371818836206
 20
-10.51907838706116
 30
0.0
 10
52.00281849413339
 20
-10.5583668846057
 30
0.0
 11
51.04757054601684
 21
-10.08429565253135
 31
0.0
 11
51.28755580663546
 21
-10.20331174472157
 31
0.0
 11
51.52525245123835
 21
-10.32124718187288
 31
0.0
 11
51.7655126407147
 21
-10.44051133259633
 31
0.0
 11
52.00281849413339
 21
-10.5583668846057
 31
0.0
  0
SPLINE
  5
168
330
5A
100
AcDbEntity
  8
0
  6
Continuous
 62
     7
100
AcDbSpline
210
0.0
220
0.0
230
1.0
 70
     8
 71
     3
 72
    11
 73
     7
 74
     5
 42
0.000000001
 43
0.0000000001
 44
0.00000001
 40
0.0
 40
0.0
 40
0.0
 40
0.0
 40
0.2650771053918907
 40
0.5331932871597291
 40
0.7982746906057214
 40
1.066415597479933
 40
1.066415597479933
 40
1.066415597479933
 40
1.066415597479933
 10
52.90868515198918
 20
-13.93910727661827
 30
0.0
 10
52.82954999647858
 20
-13.89980147160327
 30
0.0
 10
52.6703724039474
 20
-13.82073923884043
 30
0.0
 10
52.432028453668
 20
-13.70243081667591
 30
0.0
 10
52.19275045355936
 20
-13.58370717118801
 30
0.0
 10
52.03351284523208
 20
-13.50474410606299
 30
0.0
 10
51.95343720387254
 20
-13.46503604454381
 30
0.0
 11
52.90868515198918
 21
-13.93910727661827
 31
0.0
 11
52.67127474460243
 21
-13.82119981176577
 31
0.0
 11
52.43111910909411
 21
-13.70198757388545
 31
0.0
 11
52.19365943734293
 21
-13.58416968583056
 31
0.0
 11
51.95343720387254
 21
-13.46503604454381
 31
0.0
  0
SPLINE
  5
169
330
5A
100
AcDbEntity
  8
0
  6
Continuous
 62
     7
100
AcDbSpline
210
0.0
220
0.0
230
1.0
 70
     8
 71
     3
 72
    11
 73
     7
 74
     5
 42
0.000000001
 43
0.0000000001
 44
0.00000001
 40
0.0
 40
0.0
 40
0.0
 40
0.0
 40
0.2257255359651855
 40
0.4488690967296043
 40
0.6745516389606969
 40
0.8976343441807401
 40
0.8976343441807401
 40
0.8976343441807401
 40
0.8976343441807401
 10
52.50442320213247
 20
-15.52134378431634
 30
0.0
 10
52.57803264843574
 20
-15.5369317516745
 30
0.0
 10
52.72440955183969
 20
-15.56792939710575
 30
0.0
 10
52.94437296927786
 20
-15.61455410777582
 30
0.0
 10
53.16346844311914
 20
-15.66102514026185
 30
0.0
 10
53.30979505029085
 20
-15.69209310265618
 30
0.0
 10
53.38253449449158
 20
-15.7075370979768
 30
0.0
 11
52.50442320213247
 21
-15.52134378431634
 31
0.0
 11
52.72525004058045
 21
-15.5681147689984
 31
0.0
 11
52.94354402412344
 21
-15.61438339184625
 31
0.0
 11
53.16431458004746
 21
-15.66121256550569
 31
0.0
 11
53.38253449449158
 21
-15.7075370979768
 31
0.0
  0
ENDBLK
  5
5C
330
5A
100
AcDbEntity
  8
0
100
AcDbBlockEnd
  0
BLOCK
  5
5E
330
5D
100
AcDbEntity
  8
0
100
AcDbBlockBegin
  2
Dichtstopfen
 70
     0
 10
96.6735627409119
 20
-77.3153449152311
 30
0.0
  3
Dichtstopfen
  1

  0
LINE
  5
16A
330
5D
100
AcDbEntity
  8
0
  6
Continuous
 62
     7
100
AcDbLine
 10
90.46829394728775
 20
-78.30511216002844
 30
0.0
 11
104.9571813416272
 21
-74.4228264835038
 31
0.0
  0
LINE
  5
16B
330
5D
100
AcDbEntity
  8
0
  6
Continuous
 62
     7
100
AcDbLine
 10
104.9571813416272
 20
-74.4228264835038
 30
0.0
 11
105.9369061082923
 21
-74.16031002347205
 31
0.0
  0
LINE
  5
16C
330
5D
100
AcDbEntity
  8
0
  6
Continuous
 62
     7
100
AcDbLine
 10
89.48856918062302
 20
-78.56762862006002
 30
0.0
 11
90.46829394728775
 21
-78.30511216002844
 31
0.0
  0
LINE
  5
16D
330
5D
100
AcDbEntity
  8
0
  6
Continuous
 62
     7
100
AcDbLine
 10
105.9369061082923
 20
-74.16031002347205
 30
0.0
 11
106.8890329942059
 21
-73.90518839330042
 31
0.0
  0
LINE
  5
16E
330
5D
100
AcDbEntity
  8
0
  6
Continuous
 62
     7
100
AcDbLine
 10
86.12162772898583
 20
-79.46979786298579
 30
0.0
 11
89.48856918062302
 21
-78.56762862006002
 31
0.0
  0
LINE
  5
16F
330
5D
100
AcDbEntity
  8
0
  6
Continuous
 62
     7
100
AcDbLine
 10
107.225497752838
 20
-75.16089196747652
 30
0.0
 11
106.8890329942059
 21
-73.90518839330042
 31
0.0
  0
LINE
  5
170
330
5D
100
AcDbEntity
  8
0
  6
Continuous
 62
     7
100
AcDbLine
 10
86.45809248761793
 20
-80.72550143716177
 30
0.0
 11
86.12162772898583
 21
-79.46979786298579
 31
0.0
  0
LINE
  5
171
330
5D
100
AcDbEntity
  8
0
  6
Continuous
 62
     7
100
AcDbLine
 10
86.45809248761793
 20
-80.72550143716177
 30
0.0
 11
107.225497752838
 21
-75.16089196747652
 31
0.0
  0
ENDBLK
  5
5F
330
5D
100
AcDbEntity
  8
0
100
AcDbBlockEnd
  0
BLOCK
  5
F3
330
EB
100
AcDbEntity
  8
0
100
AcDbBlockBegin
  2
*D8
 70
     1
 10
0.0
 20
0.0
 30
0.0
  3
*D8
  1

  0
LINE
  5
EC
330
EB
100
AcDbEntity
  8
1
  6
Continuous
 62
     4
100
AcDbLine
 10
-38.13259927285698
 20
-166.0
 30
0.0
 11
-38.13259927285698
 21
-8.5
 31
0.0
  0
LINE
  5
ED
330
EB
100
AcDbEntity
  8
1
  6
Continuous
 62
     4
100
AcDbLine
 10
-28.13259927285617
 20
-8.5
 30
0.0
 11
-40.13259927285698
 21
-8.5
 31
0.0
  0
LINE
  5
EE
330
EB
100
AcDbEntity
  8
1
  6
Continuous
 62
     4
100
AcDbLine
 10
-13.99999999999943
 20
-166.0
 30
0.0
 11
-40.13259927285698
 21
-166.0
 31
0.0
  0
SOLID
  5
EF
330
EB
100
AcDbEntity
  8
1
 62
     4
100
AcDbTrace
 10
-39.05416675596875
 20
-159.0
 30
0.0
 11
-37.21103178974521
 21
-159.0
 31
0.0
 12
-38.13259927285698
 22
-166.0
 32
0.0
 13
-38.13259927285698
 23
-166.0
 33
0.0
  0
SOLID
  5
F0
330
EB
100
AcDbEntity
  8
1
 62
     4
100
AcDbTrace
 10
-37.21103178974521
 20
-15.5
 30
0.0
 11
-39.05416675596875
 21
-15.5
 31
0.0
 12
-38.13259927285698
 22
-8.5
 32
0.0
 13
-38.13259927285698
 23
-8.5
 33
0.0
  0
MTEXT
  5
F2
330
EB
100
AcDbEntity
  8
1
 62
     1
100
AcDbMText
 10
-40.13259927285698
 20
-86.37662231243141
 30
0.0
 40
7.0
 41
0.0
 71
     7
 72
     1
  1
157
  7
CONVERTER_11
 11
0.0
 21
1.0
 31
0.0
 73
     1
 44
0.60024009603842
  0
ENDBLK
  5
F4
330
EB
100
AcDbEntity
  8
0
100
AcDbBlockEnd
  0
BLOCK
  5
FE
330
F7
100
AcDbEntity
  8
0
100
AcDbBlockBegin
  2
*D9
 70
     1
 10
0.0
 20
0.0
 30
0.0
  3
*D9
  1

  0
LINE
  5
F8
330
F7
100
AcDbEntity
  8
1
  6
Continuous
 62
     4
100
AcDbLine
 10
-15.99999999999897
 20
-180.5509149770564
 30
0.0
 11
15.99999999999796
 21
-180.5509149770564
 31
0.0
  0
LINE
  5
F9
330
F7
100
AcDbEntity
  8
1
  6
Continuous
 62
     4
100
AcDbLine
 10
15.99999999999796
 20
-162.5000000000018
 30
0.0
 11
15.99999999999796
 21
-182.5509149770564
 31
0.0
  0
LINE
  5
FA
330
F7
100
AcDbEntity
  8
1
  6
Continuous
 62
     4
100
AcDbLine
 10
-15.99999999999897
 20
-162.5000000000018
 30
0.0
 11
-15.99999999999897
 21
-182.5509149770564
 31
0.0
  0
SOLID
  5
FB
330
F7
100
AcDbEntity
  8
1
 62
     4
100
AcDbTrace
 10
8.99999999999795
 20
-181.4724824601682
 30
0.0
 11
8.99999999999796
 21
-179.6293474939446
 31
0.0
 12
15.99999999999796
 22
-180.5509149770564
 32
0.0
 13
15.99999999999796
 23
-180.5509149770564
 33
0.0
  0
SOLID
  5
FC
330
F7
100
AcDbEntity
  8
1
 62
     4
100
AcDbTrace
 10
-8.99999999999897
 20
-179.6293474939446
 30
0.0
 11
-8.99999999999897
 21
-181.4724824601682
 31
0.0
 12
-15.99999999999897
 22
-180.5509149770564
 32
0.0
 13
-15.99999999999897
 23
-180.5509149770564
 33
0.0
  0
MTEXT
  5
FD
330
F7
100
AcDbEntity
  8
1
 62
     1
100
AcDbMText
 10
-8.68866602246288
 20
-178.5509428053617
 30
0.0
 40
7.0
 41
0.0
 71
     7
 72
     1
  1
\C1;DN\C1;32
  7
CONVERTER_11
 11
0.9999999999970619
 21
2.424068405545306E-6
 31
0.0
 73
     1
 44
0.60024009603842
  0
ENDBLK
  5
FF
330
F7
100
AcDbEntity
  8
0
100
AcDbBlockEnd
  0
BLOCK
  5
109
330
102
100
AcDbEntity
  8
0
100
AcDbBlockBegin
  2
*D10
 70
     1
 10
0.0
 20
0.0
 30
0.0
  3
*D10
  1

  0
LINE
  5
103
330
102
100
AcDbEntity
  8
1
  6
Continuous
 62
     4
100
AcDbLine
 10
-24.00000042635872
 20
13.99999999999137
 30
0.0
 11
23.99999957364128
 21
13.99999999999137
 31
0.0
  0
LINE
  5
104
330
102
100
AcDbEntity
  8
1
  6
Continuous
 62
     4
100
AcDbLine
 10
23.99999957364128
 20
2.99999999999148
 30
0.0
 11
23.99999957364128
 21
15.99999999999137
 31
0.0
  0
LINE
  5
105
330
102
100
AcDbEntity
  8
1
  6
Continuous
 62
     4
100
AcDbLine
 10
-24.00000042635872
 20
3.99999999999148
 30
0.0
 11
-24.00000042635872
 21
15.99999999999137
 31
0.0
  0
SOLID
  5
106
330
102
100
AcDbEntity
  8
1
 62
     4
100
AcDbTrace
 10
-17.00000042635872
 20
14.92156748310314
 30
0.0
 11
-17.00000042635872
 21
13.0784325168796
 31
0.0
 12
-24.00000042635872
 22
13.99999999999137
 32
0.0
 13
-24.00000042635872
 23
13.99999999999137
 33
0.0
  0
SOLID
  5
107
330
102
100
AcDbEntity
  8
1
 62
     4
100
AcDbTrace
 10
16.99999957364128
 20
13.0784325168796
 30
0.0
 11
16.99999957364128
 21
14.92156748310314
 31
0.0
 12
23.99999957364128
 22
13.99999999999137
 32
0.0
 13
23.99999957364128
 23
13.99999999999137
 33
0.0
  0
MTEXT
  5
108
330
102
100
AcDbEntity
  8
1
 62
     1
100
AcDbMText
 10
-8.64468974941902
 20
15.99999999999137
 30
0.0
 40
7.0
 41
0.0
 71
     7
 72
     1
  1
5/4"
  7
CONVERTER_11
 11
0.9999999999970619
 21
2.424068405545306E-6
 31
0.0
 73
     1
 44
0.60024009603842
  0
ENDBLK
  5
10A
330
102
100
AcDbEntity
  8
0
100
AcDbBlockEnd
  0
BLOCK
  5
116
330
10D
100
AcDbEntity
  8
0
100
AcDbBlockBegin
  2
*D11
 70
     1
 10
0.0
 20
0.0
 30
0.0
  3
*D11
  1

  0
LINE
  5
10E
330
10D
100
AcDbEntity
  8
1
  6
Continuous
 62
     4
100
AcDbLine
 10
68.37215338095965
 20
-102.3235622559424
 30
0.0
 11
94.01302094944462
 21
-95.4531124977585
 31
0.0
  0
LINE
  5
10F
330
10D
100
AcDbEntity
  8
1
  6
Continuous
 62
     4
100
AcDbLine
 10
94.01302094944462
 20
-95.4531124977585
 30
0.0
 11
110.4613578771139
 21
-91.04579390117053
 31
0.0
  0
LINE
  5
110
330
10D
100
AcDbEntity
  8
1
  6
Continuous
 62
     4
100
AcDbLine
 10
110.4613578771139
 20
-91.04579390117053
 30
0.0
 11
123.9843194451641
 21
-87.42232726974751
 31
0.0
  0
LINE
  5
111
330
10D
100
AcDbEntity
  8
1
  6
Continuous
 62
     4
100
AcDbLine
 10
89.48856918062302
 20
-78.56762862006002
 30
0.0
 11
94.53065903964792
 21
-97.38496415033711
 31
0.0
  0
LINE
  5
112
330
10D
100
AcDbEntity
  8
1
  6
Continuous
 62
     4
100
AcDbLine
 10
105.9369061082922
 20
-74.16031002347205
 30
0.0
 11
110.9789959673172
 21
-92.97764555374913
 31
0.0
  0
SOLID
  5
113
330
10D
100
AcDbEntity
  8
1
 62
     4
100
AcDbTrace
 10
87.49005938139521
 20
-98.1550116460761
 30
0.0
 11
87.01302094944378
 21
-96.37467998086392
 31
0.0
 12
94.01302094944462
 22
-95.4531124977585
 32
0.0
 13
94.01302094944462
 23
-95.4531124977585
 33
0.0
  0
SOLID
  5
114
330
10D
100
AcDbEntity
  8
1
 62
     4
100
AcDbTrace
 10
116.9843194451633
 20
-88.34389475285292
 30
0.0
 11
117.4613578771147
 21
-90.1242264180651
 31
0.0
 12
110.4613578771139
 22
-91.04579390117053
 32
0.0
 13
110.4613578771139
 23
-91.04579390117053
 33
0.0
  0
MTEXT
  5
115
330
10D
100
AcDbEntity
  8
1
 62
     1
100
AcDbMText
 10
67.85451529075634
 20
-100.3917106033638
 30
0.0
 40
7.0
 41
0.0
 71
     7
 72
     1
  1
3/4"
  7
CONVERTER_11
 11
0.9659258262893036
 21
0.2588190451016434
 31
0.0
 73
     1
 44
0.60024009603842
  0
ENDBLK
  5
117
330
10D
100
AcDbEntity
  8
0
100
AcDbBlockEnd
  0
ENDSEC
  0
SECTION
  2
ENTITIES
  0
INSERT
  5
60
330
1F
100
AcDbEntity
  8
0
100
AcDbBlockReference
  2
HL13_30
 10
38.42586008615357
 20
-79.77545748853252
 30
0.0
  0
INSERT
  5
61
330
1F
100
AcDbEntity
  8
0
100
AcDbBlockReference
  2
Holländermutter_1
 10
52.06067460617231
 20
-29.41715015232179
 30
0.0
  0
INSERT
  5
62
330
1F
100
AcDbEntity
  8
0
100
AcDbBlockReference
  2
Dichtstopfen
 10
96.6735627409119
 20
-77.3153449152311
 30
0.0
  0
ENDSEC
  0
SECTION
  2
OBJECTS
  0
DICTIONARY
  5
C
330
0
100
AcDbDictionary
281
     1
  3
ACAD_GROUP
350
D
  3
ACAD_LAYOUT
350
1A
  3
ACAD_MATERIAL
350
3B
  3
ACAD_MLEADERSTYLE
350
174
  3
ACAD_MLINESTYLE
350
17
  3
ACAD_PLOTSETTINGS
350
19
  3
ACAD_PLOTSTYLENAME
350
E
  3
ACAD_VISUALSTYLE
350
2A
  3
AcDbVariableDictionary
350
172
  0
DICTIONARY
  5
D
102
{ACAD_REACTORS
330
C
102
}
330
C
100
AcDbDictionary
281
     1
  0
DICTIONARY
  5
1A
102
{ACAD_REACTORS
330
C
102
}
330
C
100
AcDbDictionary
281
     1
  3
Layout1
350
1E
  3
Layout2
350
26
  3
Model
350
22
  0
DICTIONARY
  5
3B
102
{ACAD_REACTORS
330
C
102
}
330
C
100
AcDbDictionary
281
     1
  3
ByBlock
350
3D
  3
ByLayer
350
3C
  3
Global
350
3E
  0
DICTIONARY
  5
174
102
{ACAD_REACTORS
330
C
102
}
330
C
100
AcDbDictionary
281
     1
  0
DICTIONARY
  5
17
102
{ACAD_REACTORS
330
C
102
}
330
C
100
AcDbDictionary
281
     1
  3
Standard
350
18
  0
DICTIONARY
  5
19
102
{ACAD_REACTORS
330
C
102
}
330
C
100
AcDbDictionary
281
     1
  0
ACDBDICTIONARYWDFLT
  5
E
102
{ACAD_REACTORS
330
C
102
}
330
C
100
AcDbDictionary
281
     1
  3
Normal
350
F
100
AcDbDictionaryWithDefault
340
F
  0
DICTIONARY
  5
2A
102
{ACAD_REACTORS
330
C
102
}
330
C
100
AcDbDictionary
281
     1
  3
2dWireframe
350
2F
  3
3D Hidden
350
31
  3
3dWireframe
350
30
  3
Basic
350
32
  3
Brighten
350
36
  3
ColorChange
350
3A
  3
Conceptual
350
34
  3
Dim
350
35
  3
Facepattern
350
39
  3
Flat
350
2B
  3
FlatWithEdges
350
2C
  3
Gouraud
350
2D
  3
GouraudWithEdges
350
2E
  3
Linepattern
350
38
  3
Realistic
350
33
  3
Thicken
350
37
  0
DICTIONARY
  5
172
102
{ACAD_REACTORS
330
C
102
}
330
C
100
AcDbDictionary
281
     1
  3
DIMASSOC
350
175
  3
HIDETEXT
350
176
  0
LAYOUT
  5
1E
102
{ACAD_REACTORS
330
1A
102
}
330
1A
100
AcDbPlotSettings
  1

  2
none_device
  4

  6

 40
0.0
 41
0.0
 42
0.0
 43
0.0
 44
0.0
 45
0.0
 46
0.0
 47
0.0
 48
0.0
 49
0.0
140
0.0
141
0.0
142
1.0
143
1.0
 70
   688
 72
     0
 73
     0
 74
     5
  7

 75
    16
147
1.0
148
0.0
149
0.0
100
AcDbLayout
  1
Layout1
 70
     1
 71
     1
 10
0.0
 20
0.0
 11
12.0
 21
9.0
 12
0.0
 22
0.0
 32
0.0
 14
1.00000000000000E+20
 24
1.00000000000000E+20
 34
1.00000000000000E+20
 15
-1.00000000000000E+20
 25
-1.00000000000000E+20
 35
-1.00000000000000E+20
146
0.0
 13
0.0
 23
0.0
 33
0.0
 16
1.0
 26
0.0
 36
0.0
 17
0.0
 27
1.0
 37
0.0
 76
     0
330
1B
  0
LAYOUT
  5
26
102
{ACAD_REACTORS
330
1A
102
}
330
1A
100
AcDbPlotSettings
  1

  2
none_device
  4

  6

 40
0.0
 41
0.0
 42
0.0
 43
0.0
 44
0.0
 45
0.0
 46
0.0
 47
0.0
 48
0.0
 49
0.0
140
0.0
141
0.0
142
1.0
143
1.0
 70
   688
 72
     0
 73
     0
 74
     5
  7

 75
    16
147
1.0
148
0.0
149
0.0
100
AcDbLayout
  1
Layout2
 70
     1
 71
     2
 10
0.0
 20
0.0
 11
0.0
 21
0.0
 12
0.0
 22
0.0
 32
0.0
 14
0.0
 24
0.0
 34
0.0
 15
0.0
 25
0.0
 35
0.0
146
0.0
 13
0.0
 23
0.0
 33
0.0
 16
1.0
 26
0.0
 36
0.0
 17
0.0
 27
1.0
 37
0.0
 76
     0
330
23
  0
LAYOUT
  5
22
102
{ACAD_REACTORS
330
1A
102
}
330
1A
100
AcDbPlotSettings
  1

  2
none_device
  4

  6

 40
0.0
 41
0.0
 42
0.0
 43
0.0
 44
0.0
 45
0.0
 46
0.0
 47
0.0
 48
0.0
 49
0.0
140
0.0
141
0.0
142
1.0
143
1.0
 70
  1712
 72
     0
 73
     0
 74
     0
  7

 75
     0
147
1.0
148
0.0
149
0.0
100
AcDbLayout
  1
Model
 70
     1
 71
     0
 10
0.0
 20
0.0
 11
12.0
 21
9.0
 12
0.0
 22
0.0
 32
0.0
 14
-47.13259927285698
 24
-182.5509149770564
 34
0.0
 15
123.9843194451641
 25
22.99999999999137
 35
0.0
146
0.0
 13
0.0
 23
0.0
 33
0.0
 16
1.0
 26
0.0
 36
0.0
 17
0.0
 27
1.0
 37
0.0
 76
     0
330
1F
331
29
  0
MATERIAL
  5
3D
102
{ACAD_REACTORS
330
3B
102
}
102
{ACAD_XDICTIONARY
360
199
102
}
330
3B
100
AcDbMaterial
  1
ByBlock
  0
MATERIAL
  5
3C
102
{ACAD_REACTORS
330
3B
102
}
102
{ACAD_XDICTIONARY
360
197
102
}
330
3B
100
AcDbMaterial
  1
ByLayer
  0
MATERIAL
  5
3E
102
{ACAD_REACTORS
330
3B
102
}
102
{ACAD_XDICTIONARY
360
19B
102
}
330
3B
100
AcDbMaterial
  1
Global
  0
MLINESTYLE
  5
18
102
{ACAD_REACTORS
330
17
102
}
330
17
100
AcDbMlineStyle
  2
Standard
 70
     0
  3

 62
   256
 51
90.0
 52
90.0
 71
     2
 49
0.5
 62
   256
  6
BYLAYER
 49
-0.5
 62
   256
  6
BYLAYER
  0
ACDBPLACEHOLDER
  5
F
102
{ACAD_REACTORS
330
E
102
}
330
E
  0
VISUALSTYLE
  5
2F
102
{ACAD_REACTORS
330
2A
102
}
102
{ACAD_XDICTIONARY
360
17F
102
}
330
2A
100
AcDbVisualStyle
  2
2dWireframe
 70
     4
 71
     0
 72
     2
 73
     0
 90
        0
 40
-0.6
 41
-30.0
 62
     5
 63
     7
 74
     1
 91
        4
 64
     7
 65
   257
 75
     1
175
     1
 42
1.0
 92
        0
 66
   257
 43
1.0
 76
     1
 77
     6
 78
     2
 67
     7
 79
     5
170
     0
171
     0
290
     0
174
     0
 93
        1
 44
0.0
173
     0
291
     0
 45
0.0
1001
ACAD
1000
AcDbSavedByObjectVersion
1070
     0
  0
VISUALSTYLE
  5
31
102
{ACAD_REACTORS
330
2A
102
}
102
{ACAD_XDICTIONARY
360
183
102
}
330
2A
100
AcDbVisualStyle
  2
3D Hidden
 70
     6
 71
     1
 72
     2
 73
     2
 90
        0
 40
-0.6
 41
-30.0
 62
     5
 63
     7
 74
     2
 91
        2
 64
     7
 65
   257
 75
     2
175
     1
 42
40.0
 92
        0
 66
   257
 43
1.0
 76
     1
 77
     6
 78
     2
 67
     7
 79
     3
170
     0
171
     0
290
     0
174
     0
 93
        1
 44
0.0
173
     0
291
     0
 45
0.0
1001
ACAD
1000
AcDbSavedByObjectVersion
1070
     0
  0
VISUALSTYLE
  5
30
102
{ACAD_REACTORS
330
2A
102
}
102
{ACAD_XDICTIONARY
360
181
102
}
330
2A
100
AcDbVisualStyle
  2
3dWireframe
 70
     5
 71
     0
 72
     2
 73
     0
 90
        0
 40
-0.6
 41
-30.0
 62
     5
 63
     7
 74
     1
 91
        4
 64
     7
 65
   257
 75
     1
175
     1
 42
1.0
 92
        0
 66
   257
 43
1.0
 76
     1
 77
     6
 78
     2
 67
     7
 79
     5
170
     0
171
     0
290
     0
174
     0
 93
        1
 44
0.0
173
     0
291
     0
 45
0.0
1001
ACAD
1000
AcDbSavedByObjectVersion
1070
     0
  0
VISUALSTYLE
  5
32
102
{ACAD_REACTORS
330
2A
102
}
102
{ACAD_XDICTIONARY
360
185
102
}
330
2A
100
AcDbVisualStyle
  2
Basic
 70
     7
 71
     1
 72
     0
 73
     1
 90
        0
 40
-0.6
 41
-30.0
 62
     5
 63
     7
 74
     0
 91
        4
 64
     7
 65
   257
 75
     1
175
     1
 42
1.0
 92
        8
 66
     7
 43
1.0
 76
     1
 77
     6
 78
     2
 67
     7
 79
     5
170
     0
171
     0
290
     0
174
     0
 93
        1
 44
0.0
173
     0
291
     1
 45
0.0
1001
ACAD
1000
AcDbSavedByObjectVersion
1070
     0
  0
VISUALSTYLE
  5
36
102
{ACAD_REACTORS
330
2A
102
}
102
{ACAD_XDICTIONARY
360
18D
102
}
330
2A
100
AcDbVisualStyle
  2
Brighten
 70
    12
 71
     2
 72
     2
 73
     0
 90
        0
 40
-0.6
 41
-30.0
 62
     5
 63
     7
 74
     1
 91
        4
 64
     7
 65
   257
 75
     1
175
     1
 42
1.0
 92
        8
 66
     7
 43
1.0
 76
     1
 77
     6
 78
     2
 67
     7
 79
     5
170
     0
171
     0
290
     0
174
     0
 93
        1
 44
50.0
173
     0
291
     1
 45
0.0
1001
ACAD
1000
AcDbSavedByObjectVersion
1070
     0
  0
VISUALSTYLE
  5
3A
102
{ACAD_REACTORS
330
2A
102
}
102
{ACAD_XDICTIONARY
360
195
102
}
330
2A
100
AcDbVisualStyle
  2
ColorChange
 70
    16
 71
     2
 72
     2
 73
     3
 90
        0
 40
-0.6
 41
-30.0
 62
     5
 63
     8
 74
     1
 91
        4
 64
     7
 65
   257
 75
     1
175
     1
 42
1.0
 92
        8
 66
     8
 43
1.0
 76
     1
 77
     6
 78
     2
 67
     7
 79
     5
170
     0
171
     0
290
     0
174
     0
 93
        1
 44
0.0
173
     0
291
     1
 45
0.0
1001
ACAD
1000
AcDbSavedByObjectVersion
1070
     0
  0
VISUALSTYLE
  5
34
102
{ACAD_REACTORS
330
2A
102
}
102
{ACAD_XDICTIONARY
360
189
102
}
330
2A
100
AcDbVisualStyle
  2
Conceptual
 70
     9
 71
     3
 72
     2
 73
     0
 90
        0
 40
-0.6
 41
-30.0
 62
     5
 63
     7
 74
     2
 91
        2
 64
     7
 65
   257
 75
     1
175
     1
 42
40.0
 92
        8
 66
     7
 43
1.0
 76
     1
 77
     6
 78
     2
 67
     7
 79
     3
170
     0
171
     0
290
     0
174
     0
 93
        1
 44
0.0
173
     0
291
     0
 45
0.0
1001
ACAD
1000
AcDbSavedByObjectVersion
1070
     0
  0
VISUALSTYLE
  5
35
102
{ACAD_REACTORS
330
2A
102
}
102
{ACAD_XDICTIONARY
360
18B
102
}
330
2A
100
AcDbVisualStyle
  2
Dim
 70
    11
 71
     2
 72
     2
 73
     0
 90
        0
 40
-0.6
 41
-30.0
 62
     5
 63
     7
 74
     1
 91
        4
 64
     7
 65
   257
 75
     1
175
     1
 42
1.0
 92
        8
 66
     7
 43
1.0
 76
     1
 77
     6
 78
     2
 67
     7
 79
     5
170
     0
171
     0
290
     0
174
     0
 93
        1
 44
-50.0
173
     0
291
     1
 45
0.0
1001
ACAD
1000
AcDbSavedByObjectVersion
1070
     0
  0
VISUALSTYLE
  5
39
102
{ACAD_REACTORS
330
2A
102
}
102
{ACAD_XDICTIONARY
360
193
102
}
330
2A
100
AcDbVisualStyle
  2
Facepattern
 70
    15
 71
     2
 72
     2
 73
     0
 90
        0
 40
-0.6
 41
-30.0
 62
     5
 63
     7
 74
     1
 91
        4
 64
     7
 65
   257
 75
     1
175
     1
 42
1.0
 92
        8
 66
     7
 43
1.0
 76
     1
 77
     6
 78
     2
 67
     7
 79
     5
170
     0
171
     0
290
     0
174
     0
 93
        1
 44
0.0
173
     0
291
     1
 45
0.0
1001
ACAD
1000
AcDbSavedByObjectVersion
1070
     0
  0
VISUALSTYLE
  5
2B
102
{ACAD_REACTORS
330
2A
102
}
102
{ACAD_XDICTIONARY
360
177
102
}
330
2A
100
AcDbVisualStyle
  2
Flat
 70
     0
 71
     2
 72
     1
 73
     1
 90
        2
 40
-0.6
 41
30.0
 62
     5
 63
     7
 74
     0
 91
        4
 64
     7
 65
   257
 75
     1
175
     1
 42
1.0
 92
        8
 66
     7
 43
1.0
 76
     1
 77
     6
 78
     2
 67
     7
 79
     5
170
     0
171
     0
290
     0
174
     0
 93
       13
 44
0.0
173
     0
291
     1
 45
0.0
1001
ACAD
1000
AcDbSavedByObjectVersion
1070
     0
  0
VISUALSTYLE
  5
2C
102
{ACAD_REACTORS
330
2A
102
}
102
{ACAD_XDICTIONARY
360
179
102
}
330
2A
100
AcDbVisualStyle
  2
FlatWithEdges
 70
     1
 71
     2
 72
     1
 73
     1
 90
        2
 40
-0.6
 41
30.0
 62
     5
 63
     7
 74
     1
 91
        4
 64
     7
 65
   257
 75
     1
175
     1
 42
1.0
 92
        0
 66
   257
 43
1.0
 76
     1
 77
     6
 78
     2
 67
     7
 79
     5
170
     0
171
     0
290
     0
174
     0
 93
       13
 44
0.0
173
     0
291
     1
 45
0.0
1001
ACAD
1000
AcDbSavedByObjectVersion
1070
     0
  0
VISUALSTYLE
  5
2D
102
{ACAD_REACTORS
330
2A
102
}
102
{ACAD_XDICTIONARY
360
17B
102
}
330
2A
100
AcDbVisualStyle
  2
Gouraud
 70
     2
 71
     2
 72
     2
 73
     1
 90
        2
 40
-0.6
 41
30.0
 62
     5
 63
     7
 74
     0
 91
        4
 64
     7
 65
   257
 75
     1
175
     1
 42
1.0
 92
        0
 66
     7
 43
1.0
 76
     1
 77
     6
 78
     2
 67
     7
 79
     5
170
     0
171
     0
290
     0
174
     0
 93
       13
 44
0.0
173
     0
291
     1
 45
0.0
1001
ACAD
1000
AcDbSavedByObjectVersion
1070
     0
  0
VISUALSTYLE
  5
2E
102
{ACAD_REACTORS
330
2A
102
}
102
{ACAD_XDICTIONARY
360
17D
102
}
330
2A
100
AcDbVisualStyle
  2
GouraudWithEdges
 70
     3
 71
     2
 72
     2
 73
     1
 90
        2
 40
-0.6
 41
30.0
 62
     5
 63
     7
 74
     1
 91
        4
 64
     7
 65
   257
 75
     1
175
     1
 42
1.0
 92
        0
 66
   257
 43
1.0
 76
     1
 77
     6
 78
     2
 67
     7
 79
     5
170
     0
171
     0
290
     0
174
     0
 93
       13
 44
0.0
173
     0
291
     1
 45
0.0
1001
ACAD
1000
AcDbSavedByObjectVersion
1070
     0
  0
VISUALSTYLE
  5
38
102
{ACAD_REACTORS
330
2A
102
}
102
{ACAD_XDICTIONARY
360
191
102
}
330
2A
100
AcDbVisualStyle
  2
Linepattern
 70
    14
 71
     2
 72
     2
 73
     0
 90
        0
 40
-0.6
 41
-30.0
 62
     5
 63
     7
 74
     1
 91
        4
 64
     7
 65
   257
 75
     7
175
     7
 42
1.0
 92
        8
 66
     7
 43
1.0
 76
     1
 77
     6
 78
     2
 67
     7
 79
     5
170
     0
171
     0
290
     0
174
     0
 93
        1
 44
0.0
173
     0
291
     1
 45
0.0
1001
ACAD
1000
AcDbSavedByObjectVersion
1070
     0
  0
VISUALSTYLE
  5
33
102
{ACAD_REACTORS
330
2A
102
}
102
{ACAD_XDICTIONARY
360
187
102
}
330
2A
100
AcDbVisualStyle
  2
Realistic
 70
     8
 71
     2
 72
     2
 73
     0
 90
        0
 40
-0.6
 41
-30.0
 62
     5
 63
     7
 74
     1
 91
        0
 64
     7
 65
   257
 75
     1
175
     1
 42
1.0
 92
        8
 66
     8
 43
1.0
 76
     1
 77
     6
 78
     2
 67
     7
 79
     5
170
     0
171
     0
290
     0
174
     0
 93
       13
 44
0.0
173
     0
291
     0
 45
0.0
1001
ACAD
1000
AcDbSavedByObjectVersion
1070
     0
  0
VISUALSTYLE
  5
37
102
{ACAD_REACTORS
330
2A
102
}
102
{ACAD_XDICTIONARY
360
18F
102
}
330
2A
100
AcDbVisualStyle
  2
Thicken
 70
    13
 71
     2
 72
     2
 73
     0
 90
        0
 40
-0.6
 41
-30.0
 62
     5
 63
     7
 74
     1
 91
        4
 64
     7
 65
   257
 75
     1
175
     1
 42
1.0
 92
       12
 66
     7
 43
1.0
 76
     1
 77
     6
 78
     2
 67
     7
 79
     5
170
     0
171
     0
290
     0
174
     0
 93
        1
 44
0.0
173
     0
291
     1
 45
0.0
1001
ACAD
1000
AcDbSavedByObjectVersion
1070
     0
  0
DICTIONARYVAR
  5
175
102
{ACAD_REACTORS
330
172
102
}
330
172
100
DictionaryVariables
280
     0
  1
2
  0
DICTIONARYVAR
  5
176
102
{ACAD_REACTORS
330
172
102
}
330
172
100
DictionaryVariables
280
     0
  1
1
  0
DICTIONARY
  5
199
330
3D
100
AcDbDictionary
280
     1
281
     1
  3
ACAD_XREC_ROUNDTRIP
360
19A
  0
DICTIONARY
  5
197
330
3C
100
AcDbDictionary
280
     1
281
     1
  3
ACAD_XREC_ROUNDTRIP
360
198
  0
DICTIONARY
  5
19B
330
3E
100
AcDbDictionary
280
     1
281
     1
  3
ACAD_XREC_ROUNDTRIP
360
19C
  0
DICTIONARY
  5
17F
330
2F
100
AcDbDictionary
280
     1
281
     1
  3
ACAD_XREC_ROUNDTRIP
360
180
  0
DICTIONARY
  5
183
330
31
100
AcDbDictionary
280
     1
281
     1
  3
ACAD_XREC_ROUNDTRIP
360
184
  0
DICTIONARY
  5
181
330
30
100
AcDbDictionary
280
     1
281
     1
  3
ACAD_XREC_ROUNDTRIP
360
182
  0
DICTIONARY
  5
185
330
32
100
AcDbDictionary
280
     1
281
     1
  3
ACAD_XREC_ROUNDTRIP
360
186
  0
DICTIONARY
  5
18D
330
36
100
AcDbDictionary
280
     1
281
     1
  3
ACAD_XREC_ROUNDTRIP
360
18E
  0
DICTIONARY
  5
195
330
3A
100
AcDbDictionary
280
     1
281
     1
  3
ACAD_XREC_ROUNDTRIP
360
196
  0
DICTIONARY
  5
189
330
34
100
AcDbDictionary
280
     1
281
     1
  3
ACAD_XREC_ROUNDTRIP
360
18A
  0
DICTIONARY
  5
18B
330
35
100
AcDbDictionary
280
     1
281
     1
  3
ACAD_XREC_ROUNDTRIP
360
18C
  0
DICTIONARY
  5
193
330
39
100
AcDbDictionary
280
     1
281
     1
  3
ACAD_XREC_ROUNDTRIP
360
194
  0
DICTIONARY
  5
177
330
2B
100
AcDbDictionary
280
     1
281
     1
  3
ACAD_XREC_ROUNDTRIP
360
178
  0
DICTIONARY
  5
179
330
2C
100
AcDbDictionary
280
     1
281
     1
  3
ACAD_XREC_ROUNDTRIP
360
17A
  0
DICTIONARY
  5
17B
330
2D
100
AcDbDictionary
280
     1
281
     1
  3
ACAD_XREC_ROUNDTRIP
360
17C
  0
DICTIONARY
  5
17D
330
2E
100
AcDbDictionary
280
     1
281
     1
  3
ACAD_XREC_ROUNDTRIP
360
17E
  0
DICTIONARY
  5
191
330
38
100
AcDbDictionary
280
     1
281
     1
  3
ACAD_XREC_ROUNDTRIP
360
192
  0
DICTIONARY
  5
187
330
33
100
AcDbDictionary
280
     1
281
     1
  3
ACAD_XREC_ROUNDTRIP
360
188
  0
DICTIONARY
  5
18F
330
37
100
AcDbDictionary
280
     1
281
     1
  3
ACAD_XREC_ROUNDTRIP
360
190
  0
XRECORD
  5
19A
102
{ACAD_REACTORS
330
199
102
}
330
199
100
AcDbXrecord
280
     1
102
MATERIAL
148
0.0
149
0.0
149
0.0
 93
        0
 94
      127
282
     0
 72
     1
 77
     1
171
     1
175
     1
179
     1
273
     0
  0
XRECORD
  5
198
102
{ACAD_REACTORS
330
197
102
}
330
197
100
AcDbXrecord
280
     1
102
MATERIAL
148
0.0
149
0.0
149
0.0
 93
        0
 94
      127
282
     0
 72
     1
 77
     1
171
     1
175
     1
179
     1
273
     0
  0
XRECORD
  5
19C
102
{ACAD_REACTORS
330
19B
102
}
330
19B
100
AcDbXrecord
280
     1
102
MATERIAL
148
0.0
149
0.0
149
0.0
 93
        0
 94
      127
282
     0
 72
     1
 77
     1
171
     1
175
     1
179
     1
273
     0
  0
XRECORD
  5
180
102
{ACAD_REACTORS
330
17F
102
}
330
17F
100
AcDbXrecord
280
     1
102
RTVSPropertyOp0
 70
     1
102
RTVSPropertyOp1
 70
     1
102
RTVSPropertyOp2
 70
     1
102
RTVSPropertyOp3
 70
     1
102
RTVSPropertyOp4
 70
     1
102
RTVSPropertyOp5
 70
     1
102
RTVSPropertyOp6
 70
     1
102
RTVSPropertyOp7
 70
     1
102
RTVSPropertyOp8
 70
     1
102
RTVSPropertyOp9
 70
     1
102
RTVSPropertyOp10
 70
     1
102
RTVSPropertyOp11
 70
     1
102
RTVSPropertyOp12
 70
     1
102
RTVSPropertyOp13
 70
     1
102
RTVSPropertyOp14
 70
     1
102
RTVSPropertyOp15
 70
     1
102
RTVSPropertyOp16
 70
     1
102
RTVSPropertyOp17
 70
     1
102
RTVSPropertyOp18
 70
     1
102
RTVSPropertyOp19
 70
     1
102
RTVSPropertyOp20
 70
     1
102
RTVSPropertyOp21
 70
     1
102
RTVSPropertyOp22
 70
     1
102
RTVSPropertyOp23
 70
     1
102
RTVSPropertyOp24
 70
     1
102
RTVSPropertyOp25
 70
     1
102
RTVSPropertyOp26
 70
     1
102
RTVSPropertyOp27
 70
     1
102
RTVSPropertyOp28
 70
     1
102
RTVSPropertyOp29
 70
     1
102
RTVSPropertyOp30
 70
     1
102
RTVSPropertyOp31
 70
     1
102
RTVSPropertyOp32
 70
     1
  0
XRECORD
  5
184
102
{ACAD_REACTORS
330
183
102
}
330
183
100
AcDbXrecord
280
     1
102
RTVSPropertyOp0
 70
     1
102
RTVSPropertyOp1
 70
     1
102
RTVSPropertyOp2
 70
     1
102
RTVSPropertyOp3
 70
     1
102
RTVSPropertyOp4
 70
     1
102
RTVSPropertyOp5
 70
     1
102
RTVSPropertyOp6
 70
     1
102
RTVSPropertyOp7
 70
     1
102
RTVSPropertyOp8
 70
     1
102
RTVSPropertyOp9
 70
     1
102
RTVSPropertyOp10
 70
     1
102
RTVSPropertyOp11
 70
     1
102
RTVSPropertyOp12
 70
     1
102
RTVSPropertyOp13
 70
     1
102
RTVSPropertyOp14
 70
     1
102
RTVSPropertyOp15
 70
     1
102
RTVSPropertyOp16
 70
     1
102
RTVSPropertyOp17
 70
     1
102
RTVSPropertyOp18
 70
     1
102
RTVSPropertyOp19
 70
     1
102
RTVSPropertyOp20
 70
     1
102
RTVSPropertyOp21
 70
     1
102
RTVSPropertyOp22
 70
     1
102
RTVSPropertyOp23
 70
     1
102
RTVSPropertyOp24
 70
     1
102
RTVSPropertyOp25
 70
     1
102
RTVSPropertyOp26
 70
     1
102
RTVSPropertyOp27
 70
     1
102
RTVSPropertyOp28
 70
     1
102
RTVSPropertyOp29
 70
     1
102
RTVSPropertyOp30
 70
     1
102
RTVSPropertyOp31
 70
     1
102
RTVSPropertyOp32
 70
     1
  0
XRECORD
  5
182
102
{ACAD_REACTORS
330
181
102
}
330
181
100
AcDbXrecord
280
     1
102
RTVSPropertyOp0
 70
     1
102
RTVSPropertyOp1
 70
     1
102
RTVSPropertyOp2
 70
     1
102
RTVSPropertyOp3
 70
     1
102
RTVSPropertyOp4
 70
     1
102
RTVSPropertyOp5
 70
     1
102
RTVSPropertyOp6
 70
     1
102
RTVSPropertyOp7
 70
     1
102
RTVSPropertyOp8
 70
     1
102
RTVSPropertyOp9
 70
     1
102
RTVSPropertyOp10
 70
     1
102
RTVSPropertyOp11
 70
     1
102
RTVSPropertyOp12
 70
     1
102
RTVSPropertyOp13
 70
     1
102
RTVSPropertyOp14
 70
     1
102
RTVSPropertyOp15
 70
     1
102
RTVSPropertyOp16
 70
     1
102
RTVSPropertyOp17
 70
     1
102
RTVSPropertyOp18
 70
     1
102
RTVSPropertyOp19
 70
     1
102
RTVSPropertyOp20
 70
     1
102
RTVSPropertyOp21
 70
     1
102
RTVSPropertyOp22
 70
     1
102
RTVSPropertyOp23
 70
     1
102
RTVSPropertyOp24
 70
     1
102
RTVSPropertyOp25
 70
     1
102
RTVSPropertyOp26
 70
     1
102
RTVSPropertyOp27
 70
     1
102
RTVSPropertyOp28
 70
     1
102
RTVSPropertyOp29
 70
     1
102
RTVSPropertyOp30
 70
     1
102
RTVSPropertyOp31
 70
     1
102
RTVSPropertyOp32
 70
     1
  0
XRECORD
  5
186
102
{ACAD_REACTORS
330
185
102
}
330
185
100
AcDbXrecord
280
     1
102
RTVSPropertyOp0
 70
     1
102
RTVSPropertyOp1
 70
     1
102
RTVSPropertyOp2
 70
     1
102
RTVSPropertyOp3
 70
     1
102
RTVSPropertyOp4
 70
     1
102
RTVSPropertyOp5
 70
     1
102
RTVSPropertyOp6
 70
     1
102
RTVSPropertyOp7
 70
     1
102
RTVSPropertyOp8
 70
     1
102
RTVSPropertyOp9
 70
     1
102
RTVSPropertyOp10
 70
     1
102
RTVSPropertyOp11
 70
     1
102
RTVSPropertyOp12
 70
     1
102
RTVSPropertyOp13
 70
     1
102
RTVSPropertyOp14
 70
     1
102
RTVSPropertyOp15
 70
     1
102
RTVSPropertyOp16
 70
     1
102
RTVSPropertyOp17
 70
     1
102
RTVSPropertyOp18
 70
     1
102
RTVSPropertyOp19
 70
     1
102
RTVSPropertyOp20
 70
     1
102
RTVSPropertyOp21
 70
     1
102
RTVSPropertyOp22
 70
     1
102
RTVSPropertyOp23
 70
     1
102
RTVSPropertyOp24
 70
     1
102
RTVSPropertyOp25
 70
     1
102
RTVSPropertyOp26
 70
     1
102
RTVSPropertyOp27
 70
     1
102
RTVSPropertyOp28
 70
     1
102
RTVSPropertyOp29
 70
     1
102
RTVSPropertyOp30
 70
     1
102
RTVSPropertyOp31
 70
     1
102
RTVSPropertyOp32
 70
     1
  0
XRECORD
  5
18E
102
{ACAD_REACTORS
330
18D
102
}
330
18D
100
AcDbXrecord
280
     1
102
RTVSPropertyOp0
 70
     1
102
RTVSPropertyOp1
 70
     1
102
RTVSPropertyOp2
 70
     1
102
RTVSPropertyOp3
 70
     1
102
RTVSPropertyOp4
 70
     1
102
RTVSPropertyOp5
 70
     1
102
RTVSPropertyOp6
 70
     1
102
RTVSPropertyOp7
 70
     1
102
RTVSPropertyOp8
 70
     1
102
RTVSPropertyOp9
 70
     1
102
RTVSPropertyOp10
 70
     1
102
RTVSPropertyOp11
 70
     1
102
RTVSPropertyOp12
 70
     1
102
RTVSPropertyOp13
 70
     1
102
RTVSPropertyOp14
 70
     1
102
RTVSPropertyOp15
 70
     1
102
RTVSPropertyOp16
 70
     1
102
RTVSPropertyOp17
 70
     1
102
RTVSPropertyOp18
 70
     1
102
RTVSPropertyOp19
 70
     1
102
RTVSPropertyOp20
 70
     1
102
RTVSPropertyOp21
 70
     1
102
RTVSPropertyOp22
 70
     1
102
RTVSPropertyOp23
 70
     1
102
RTVSPropertyOp24
 70
     1
102
RTVSPropertyOp25
 70
     1
102
RTVSPropertyOp26
 70
     1
102
RTVSPropertyOp27
 70
     1
102
RTVSPropertyOp28
 70
     1
102
RTVSPropertyOp29
 70
     1
102
RTVSPropertyOp30
 70
     1
102
RTVSPropertyOp31
 70
     1
102
RTVSPropertyOp32
 70
     1
  0
XRECORD
  5
196
102
{ACAD_REACTORS
330
195
102
}
330
195
100
AcDbXrecord
280
     1
102
RTVSPropertyOp0
 70
     1
102
RTVSPropertyOp1
 70
     1
102
RTVSPropertyOp2
 70
     1
102
RTVSPropertyOp3
 70
     1
102
RTVSPropertyOp4
 70
     1
102
RTVSPropertyOp5
 70
     1
102
RTVSPropertyOp6
 70
     1
102
RTVSPropertyOp7
 70
     1
102
RTVSPropertyOp8
 70
     1
102
RTVSPropertyOp9
 70
     1
102
RTVSPropertyOp10
 70
     1
102
RTVSPropertyOp11
 70
     1
102
RTVSPropertyOp12
 70
     1
102
RTVSPropertyOp13
 70
     1
102
RTVSPropertyOp14
 70
     1
102
RTVSPropertyOp15
 70
     1
102
RTVSPropertyOp16
 70
     1
102
RTVSPropertyOp17
 70
     1
102
RTVSPropertyOp18
 70
     1
102
RTVSPropertyOp19
 70
     1
102
RTVSPropertyOp20
 70
     1
102
RTVSPropertyOp21
 70
     1
102
RTVSPropertyOp22
 70
     1
102
RTVSPropertyOp23
 70
     1
102
RTVSPropertyOp24
 70
     1
102
RTVSPropertyOp25
 70
     1
102
RTVSPropertyOp26
 70
     1
102
RTVSPropertyOp27
 70
     1
102
RTVSPropertyOp28
 70
     1
102
RTVSPropertyOp29
 70
     1
102
RTVSPropertyOp30
 70
     1
102
RTVSPropertyOp31
 70
     1
102
RTVSPropertyOp32
 70
     1
  0
XRECORD
  5
18A
102
{ACAD_REACTORS
330
189
102
}
330
189
100
AcDbXrecord
280
     1
102
RTVSPropertyOp0
 70
     1
102
RTVSPropertyOp1
 70
     1
102
RTVSPropertyOp2
 70
     1
102
RTVSPropertyOp3
 70
     1
102
RTVSPropertyOp4
 70
     1
102
RTVSPropertyOp5
 70
     1
102
RTVSPropertyOp6
 70
     1
102
RTVSPropertyOp7
 70
     1
102
RTVSPropertyOp8
 70
     1
102
RTVSPropertyOp9
 70
     1
102
RTVSPropertyOp10
 70
     1
102
RTVSPropertyOp11
 70
     1
102
RTVSPropertyOp12
 70
     1
102
RTVSPropertyOp13
 70
     1
102
RTVSPropertyOp14
 70
     1
102
RTVSPropertyOp15
 70
     1
102
RTVSPropertyOp16
 70
     1
102
RTVSPropertyOp17
 70
     1
102
RTVSPropertyOp18
 70
     1
102
RTVSPropertyOp19
 70
     1
102
RTVSPropertyOp20
 70
     1
102
RTVSPropertyOp21
 70
     1
102
RTVSPropertyOp22
 70
     1
102
RTVSPropertyOp23
 70
     1
102
RTVSPropertyOp24
 70
     1
102
RTVSPropertyOp25
 70
     1
102
RTVSPropertyOp26
 70
     1
102
RTVSPropertyOp27
 70
     1
102
RTVSPropertyOp28
 70
     1
102
RTVSPropertyOp29
 70
     1
102
RTVSPropertyOp30
 70
     1
102
RTVSPropertyOp31
 70
     1
102
RTVSPropertyOp32
 70
     1
  0
XRECORD
  5
18C
102
{ACAD_REACTORS
330
18B
102
}
330
18B
100
AcDbXrecord
280
     1
102
RTVSPropertyOp0
 70
     1
102
RTVSPropertyOp1
 70
     1
102
RTVSPropertyOp2
 70
     1
102
RTVSPropertyOp3
 70
     1
102
RTVSPropertyOp4
 70
     1
102
RTVSPropertyOp5
 70
     1
102
RTVSPropertyOp6
 70
     1
102
RTVSPropertyOp7
 70
     1
102
RTVSPropertyOp8
 70
     1
102
RTVSPropertyOp9
 70
     1
102
RTVSPropertyOp10
 70
     1
102
RTVSPropertyOp11
 70
     1
102
RTVSPropertyOp12
 70
     1
102
RTVSPropertyOp13
 70
     1
102
RTVSPropertyOp14
 70
     1
102
RTVSPropertyOp15
 70
     1
102
RTVSPropertyOp16
 70
     1
102
RTVSPropertyOp17
 70
     1
102
RTVSPropertyOp18
 70
     1
102
RTVSPropertyOp19
 70
     1
102
RTVSPropertyOp20
 70
     1
102
RTVSPropertyOp21
 70
     1
102
RTVSPropertyOp22
 70
     1
102
RTVSPropertyOp23
 70
     1
102
RTVSPropertyOp24
 70
     1
102
RTVSPropertyOp25
 70
     1
102
RTVSPropertyOp26
 70
     1
102
RTVSPropertyOp27
 70
     1
102
RTVSPropertyOp28
 70
     1
102
RTVSPropertyOp29
 70
     1
102
RTVSPropertyOp30
 70
     1
102
RTVSPropertyOp31
 70
     1
102
RTVSPropertyOp32
 70
     1
  0
XRECORD
  5
194
102
{ACAD_REACTORS
330
193
102
}
330
193
100
AcDbXrecord
280
     1
102
RTVSPropertyOp0
 70
     1
102
RTVSPropertyOp1
 70
     1
102
RTVSPropertyOp2
 70
     1
102
RTVSPropertyOp3
 70
     1
102
RTVSPropertyOp4
 70
     1
102
RTVSPropertyOp5
 70
     1
102
RTVSPropertyOp6
 70
     1
102
RTVSPropertyOp7
 70
     1
102
RTVSPropertyOp8
 70
     1
102
RTVSPropertyOp9
 70
     1
102
RTVSPropertyOp10
 70
     1
102
RTVSPropertyOp11
 70
     1
102
RTVSPropertyOp12
 70
     1
102
RTVSPropertyOp13
 70
     1
102
RTVSPropertyOp14
 70
     1
102
RTVSPropertyOp15
 70
     1
102
RTVSPropertyOp16
 70
     1
102
RTVSPropertyOp17
 70
     1
102
RTVSPropertyOp18
 70
     1
102
RTVSPropertyOp19
 70
     1
102
RTVSPropertyOp20
 70
     1
102
RTVSPropertyOp21
 70
     1
102
RTVSPropertyOp22
 70
     1
102
RTVSPropertyOp23
 70
     1
102
RTVSPropertyOp24
 70
     1
102
RTVSPropertyOp25
 70
     1
102
RTVSPropertyOp26
 70
     1
102
RTVSPropertyOp27
 70
     1
102
RTVSPropertyOp28
 70
     1
102
RTVSPropertyOp29
 70
     1
102
RTVSPropertyOp30
 70
     1
102
RTVSPropertyOp31
 70
     1
102
RTVSPropertyOp32
 70
     1
  0
XRECORD
  5
178
102
{ACAD_REACTORS
330
177
102
}
330
177
100
AcDbXrecord
280
     1
102
RTVSPropertyOp0
 70
     1
102
RTVSPropertyOp1
 70
     1
102
RTVSPropertyOp2
 70
     1
102
RTVSPropertyOp3
 70
     1
102
RTVSPropertyOp4
 70
     1
102
RTVSPropertyOp5
 70
     1
102
RTVSPropertyOp6
 70
     1
102
RTVSPropertyOp7
 70
     1
102
RTVSPropertyOp8
 70
     1
102
RTVSPropertyOp9
 70
     1
102
RTVSPropertyOp10
 70
     1
102
RTVSPropertyOp11
 70
     1
102
RTVSPropertyOp12
 70
     1
102
RTVSPropertyOp13
 70
     1
102
RTVSPropertyOp14
 70
     1
102
RTVSPropertyOp15
 70
     1
102
RTVSPropertyOp16
 70
     1
102
RTVSPropertyOp17
 70
     1
102
RTVSPropertyOp18
 70
     1
102
RTVSPropertyOp19
 70
     1
102
RTVSPropertyOp20
 70
     1
102
RTVSPropertyOp21
 70
     1
102
RTVSPropertyOp22
 70
     1
102
RTVSPropertyOp23
 70
     1
102
RTVSPropertyOp24
 70
     1
102
RTVSPropertyOp25
 70
     1
102
RTVSPropertyOp26
 70
     1
102
RTVSPropertyOp27
 70
     1
102
RTVSPropertyOp28
 70
     1
102
RTVSPropertyOp29
 70
     1
102
RTVSPropertyOp30
 70
     1
102
RTVSPropertyOp31
 70
     1
102
RTVSPropertyOp32
 70
     1
  0
XRECORD
  5
17A
102
{ACAD_REACTORS
330
179
102
}
330
179
100
AcDbXrecord
280
     1
102
RTVSPropertyOp0
 70
     1
102
RTVSPropertyOp1
 70
     1
102
RTVSPropertyOp2
 70
     1
102
RTVSPropertyOp3
 70
     1
102
RTVSPropertyOp4
 70
     1
102
RTVSPropertyOp5
 70
     1
102
RTVSPropertyOp6
 70
     1
102
RTVSPropertyOp7
 70
     1
102
RTVSPropertyOp8
 70
     1
102
RTVSPropertyOp9
 70
     1
102
RTVSPropertyOp10
 70
     1
102
RTVSPropertyOp11
 70
     1
102
RTVSPropertyOp12
 70
     1
102
RTVSPropertyOp13
 70
     1
102
RTVSPropertyOp14
 70
     1
102
RTVSPropertyOp15
 70
     1
102
RTVSPropertyOp16
 70
     1
102
RTVSPropertyOp17
 70
     1
102
RTVSPropertyOp18
 70
     1
102
RTVSPropertyOp19
 70
     1
102
RTVSPropertyOp20
 70
     1
102
RTVSPropertyOp21
 70
     1
102
RTVSPropertyOp22
 70
     1
102
RTVSPropertyOp23
 70
     1
102
RTVSPropertyOp24
 70
     1
102
RTVSPropertyOp25
 70
     1
102
RTVSPropertyOp26
 70
     1
102
RTVSPropertyOp27
 70
     1
102
RTVSPropertyOp28
 70
     1
102
RTVSPropertyOp29
 70
     1
102
RTVSPropertyOp30
 70
     1
102
RTVSPropertyOp31
 70
     1
102
RTVSPropertyOp32
 70
     1
  0
XRECORD
  5
17C
102
{ACAD_REACTORS
330
17B
102
}
330
17B
100
AcDbXrecord
280
     1
102
RTVSPropertyOp0
 70
     1
102
RTVSPropertyOp1
 70
     1
102
RTVSPropertyOp2
 70
     1
102
RTVSPropertyOp3
 70
     1
102
RTVSPropertyOp4
 70
     1
102
RTVSPropertyOp5
 70
     1
102
RTVSPropertyOp6
 70
     1
102
RTVSPropertyOp7
 70
     1
102
RTVSPropertyOp8
 70
     1
102
RTVSPropertyOp9
 70
     1
102
RTVSPropertyOp10
 70
     1
102
RTVSPropertyOp11
 70
     1
102
RTVSPropertyOp12
 70
     1
102
RTVSPropertyOp13
 70
     1
102
RTVSPropertyOp14
 70
     1
102
RTVSPropertyOp15
 70
     1
102
RTVSPropertyOp16
 70
     1
102
RTVSPropertyOp17
 70
     1
102
RTVSPropertyOp18
 70
     1
102
RTVSPropertyOp19
 70
     1
102
RTVSPropertyOp20
 70
     1
102
RTVSPropertyOp21
 70
     1
102
RTVSPropertyOp22
 70
     1
102
RTVSPropertyOp23
 70
     1
102
RTVSPropertyOp24
 70
     1
102
RTVSPropertyOp25
 70
     1
102
RTVSPropertyOp26
 70
     1
102
RTVSPropertyOp27
 70
     1
102
RTVSPropertyOp28
 70
     1
102
RTVSPropertyOp29
 70
     1
102
RTVSPropertyOp30
 70
     1
102
RTVSPropertyOp31
 70
     1
102
RTVSPropertyOp32
 70
     1
  0
XRECORD
  5
17E
102
{ACAD_REACTORS
330
17D
102
}
330
17D
100
AcDbXrecord
280
     1
102
RTVSPropertyOp0
 70
     1
102
RTVSPropertyOp1
 70
     1
102
RTVSPropertyOp2
 70
     1
102
RTVSPropertyOp3
 70
     1
102
RTVSPropertyOp4
 70
     1
102
RTVSPropertyOp5
 70
     1
102
RTVSPropertyOp6
 70
     1
102
RTVSPropertyOp7
 70
     1
102
RTVSPropertyOp8
 70
     1
102
RTVSPropertyOp9
 70
     1
102
RTVSPropertyOp10
 70
     1
102
RTVSPropertyOp11
 70
     1
102
RTVSPropertyOp12
 70
     1
102
RTVSPropertyOp13
 70
     1
102
RTVSPropertyOp14
 70
     1
102
RTVSPropertyOp15
 70
     1
102
RTVSPropertyOp16
 70
     1
102
RTVSPropertyOp17
 70
     1
102
RTVSPropertyOp18
 70
     1
102
RTVSPropertyOp19
 70
     1
102
RTVSPropertyOp20
 70
     1
102
RTVSPropertyOp21
 70
     1
102
RTVSPropertyOp22
 70
     1
102
RTVSPropertyOp23
 70
     1
102
RTVSPropertyOp24
 70
     1
102
RTVSPropertyOp25
 70
     1
102
RTVSPropertyOp26
 70
     1
102
RTVSPropertyOp27
 70
     1
102
RTVSPropertyOp28
 70
     1
102
RTVSPropertyOp29
 70
     1
102
RTVSPropertyOp30
 70
     1
102
RTVSPropertyOp31
 70
     1
102
RTVSPropertyOp32
 70
     1
  0
XRECORD
  5
192
102
{ACAD_REACTORS
330
191
102
}
330
191
100
AcDbXrecord
280
     1
102
RTVSPropertyOp0
 70
     1
102
RTVSPropertyOp1
 70
     1
102
RTVSPropertyOp2
 70
     1
102
RTVSPropertyOp3
 70
     1
102
RTVSPropertyOp4
 70
     1
102
RTVSPropertyOp5
 70
     1
102
RTVSPropertyOp6
 70
     1
102
RTVSPropertyOp7
 70
     1
102
RTVSPropertyOp8
 70
     1
102
RTVSPropertyOp9
 70
     1
102
RTVSPropertyOp10
 70
     1
102
RTVSPropertyOp11
 70
     1
102
RTVSPropertyOp12
 70
     1
102
RTVSPropertyOp13
 70
     1
102
RTVSPropertyOp14
 70
     1
102
RTVSPropertyOp15
 70
     1
102
RTVSPropertyOp16
 70
     1
102
RTVSPropertyOp17
 70
     1
102
RTVSPropertyOp18
 70
     1
102
RTVSPropertyOp19
 70
     1
102
RTVSPropertyOp20
 70
     1
102
RTVSPropertyOp21
 70
     1
102
RTVSPropertyOp22
 70
     1
102
RTVSPropertyOp23
 70
     1
102
RTVSPropertyOp24
 70
     1
102
RTVSPropertyOp25
 70
     1
102
RTVSPropertyOp26
 70
     1
102
RTVSPropertyOp27
 70
     1
102
RTVSPropertyOp28
 70
     1
102
RTVSPropertyOp29
 70
     1
102
RTVSPropertyOp30
 70
     1
102
RTVSPropertyOp31
 70
     1
102
RTVSPropertyOp32
 70
     1
  0
XRECORD
  5
188
102
{ACAD_REACTORS
330
187
102
}
330
187
100
AcDbXrecord
280
     1
102
RTVSPropertyOp0
 70
     1
102
RTVSPropertyOp1
 70
     1
102
RTVSPropertyOp2
 70
     1
102
RTVSPropertyOp3
 70
     1
102
RTVSPropertyOp4
 70
     1
102
RTVSPropertyOp5
 70
     1
102
RTVSPropertyOp6
 70
     1
102
RTVSPropertyOp7
 70
     1
102
RTVSPropertyOp8
 70
     1
102
RTVSPropertyOp9
 70
     1
102
RTVSPropertyOp10
 70
     1
102
RTVSPropertyOp11
 70
     1
102
RTVSPropertyOp12
 70
     1
102
RTVSPropertyOp13
 70
     1
102
RTVSPropertyOp14
 70
     1
102
RTVSPropertyOp15
 70
     1
102
RTVSPropertyOp16
 70
     1
102
RTVSPropertyOp17
 70
     1
102
RTVSPropertyOp18
 70
     1
102
RTVSPropertyOp19
 70
     1
102
RTVSPropertyOp20
 70
     1
102
RTVSPropertyOp21
 70
     1
102
RTVSPropertyOp22
 70
     1
102
RTVSPropertyOp23
 70
     1
102
RTVSPropertyOp24
 70
     1
102
RTVSPropertyOp25
 70
     1
102
RTVSPropertyOp26
 70
     1
102
RTVSPropertyOp27
 70
     1
102
RTVSPropertyOp28
 70
     1
102
RTVSPropertyOp29
 70
     1
102
RTVSPropertyOp30
 70
     1
102
RTVSPropertyOp31
 70
     1
102
RTVSPropertyOp32
 70
     1
  0
XRECORD
  5
190
102
{ACAD_REACTORS
330
18F
102
}
330
18F
100
AcDbXrecord
280
     1
102
RTVSPropertyOp0
 70
     1
102
RTVSPropertyOp1
 70
     1
102
RTVSPropertyOp2
 70
     1
102
RTVSPropertyOp3
 70
     1
102
RTVSPropertyOp4
 70
     1
102
RTVSPropertyOp5
 70
     1
102
RTVSPropertyOp6
 70
     1
102
RTVSPropertyOp7
 70
     1
102
RTVSPropertyOp8
 70
     1
102
RTVSPropertyOp9
 70
     1
102
RTVSPropertyOp10
 70
     1
102
RTVSPropertyOp11
 70
     1
102
RTVSPropertyOp12
 70
     1
102
RTVSPropertyOp13
 70
     1
102
RTVSPropertyOp14
 70
     1
102
RTVSPropertyOp15
 70
     1
102
RTVSPropertyOp16
 70
     1
102
RTVSPropertyOp17
 70
     1
102
RTVSPropertyOp18
 70
     1
102
RTVSPropertyOp19
 70
     1
102
RTVSPropertyOp20
 70
     1
102
RTVSPropertyOp21
 70
     1
102
RTVSPropertyOp22
 70
     1
102
RTVSPropertyOp23
 70
     1
102
RTVSPropertyOp24
 70
     1
102
RTVSPropertyOp25
 70
     1
102
RTVSPropertyOp26
 70
     1
102
RTVSPropertyOp27
 70
     1
102
RTVSPropertyOp28
 70
     1
102
RTVSPropertyOp29
 70
     1
102
RTVSPropertyOp30
 70
     1
102
RTVSPropertyOp31
 70
     1
102
RTVSPropertyOp32
 70
     1
  0
ENDSEC
  0
EOF
