  0
SECTION
  2
HEADER
  9
$ACADVER
  1
AC1015
  9
$ACADMAINTVER
 70
     6
  9
$DWGCODEPAGE
  3
ANSI_1252
  9
$INSBASE
 10
0.0
 20
0.0
 30
0.0
  9
$EXTMIN
 10
-56.49999999999977
 20
-77.07470532319429
 30
0.0
  9
$EXTMAX
 10
67.5137595057036
 20
29.4902899239541
 30
0.0
  9
$LIMMIN
 10
0.0
 20
0.0
  9
$LIMMAX
 10
12.0
 20
9.0
  9
$ORTHOMODE
 70
     0
  9
$REGENMODE
 70
     1
  9
$FILLMODE
 70
     1
  9
$QTEXTMODE
 70
     0
  9
$MIRRTEXT
 70
     1
  9
$LTSCALE
 40
1.0
  9
$ATTMODE
 70
     1
  9
$TEXTSIZE
 40
0.2
  9
$TRACEWID
 40
0.05
  9
$TEXTSTYLE
  7
Standard
  9
$CLAYER
  8
0
  9
$CELTYPE
  6
ByLayer
  9
$CECOLOR
 62
   256
  9
$CELTSCALE
 40
1.0
  9
$DISPSILH
 70
     0
  9
$DIMSCALE
 40
1.0
  9
$DIMASZ
 40
0.18
  9
$DIMEXO
 40
0.0625
  9
$DIMDLI
 40
0.38
  9
$DIMRND
 40
0.0
  9
$DIMDLE
 40
0.0
  9
$DIMEXE
 40
0.18
  9
$DIMTP
 40
0.0
  9
$DIMTM
 40
0.0
  9
$DIMTXT
 40
0.18
  9
$DIMCEN
 40
0.09
  9
$DIMTSZ
 40
0.0
  9
$DIMTOL
 70
     0
  9
$DIMLIM
 70
     0
  9
$DIMTIH
 70
     1
  9
$DIMTOH
 70
     1
  9
$DIMSE1
 70
     0
  9
$DIMSE2
 70
     0
  9
$DIMTAD
 70
     0
  9
$DIMZIN
 70
     0
  9
$DIMBLK
  1

  9
$DIMASO
 70
     1
  9
$DIMSHO
 70
     1
  9
$DIMPOST
  1

  9
$DIMAPOST
  1

  9
$DIMALT
 70
     0
  9
$DIMALTD
 70
     2
  9
$DIMALTF
 40
25.4
  9
$DIMLFAC
 40
1.0
  9
$DIMTOFL
 70
     0
  9
$DIMTVP
 40
0.0
  9
$DIMTIX
 70
     0
  9
$DIMSOXD
 70
     0
  9
$DIMSAH
 70
     0
  9
$DIMBLK1
  1

  9
$DIMBLK2
  1

  9
$DIMSTYLE
  2
Standard
  9
$DIMCLRD
 70
     0
  9
$DIMCLRE
 70
     0
  9
$DIMCLRT
 70
     0
  9
$DIMTFAC
 40
1.0
  9
$DIMGAP
 40
0.09
  9
$DIMJUST
 70
     0
  9
$DIMSD1
 70
     0
  9
$DIMSD2
 70
     0
  9
$DIMTOLJ
 70
     1
  9
$DIMTZIN
 70
     0
  9
$DIMALTZ
 70
     0
  9
$DIMALTTZ
 70
     0
  9
$DIMUPT
 70
     0
  9
$DIMDEC
 70
     4
  9
$DIMTDEC
 70
     4
  9
$DIMALTU
 70
     2
  9
$DIMALTTD
 70
     2
  9
$DIMTXSTY
  7
Standard
  9
$DIMAUNIT
 70
     0
  9
$DIMADEC
 70
     0
  9
$DIMALTRND
 40
0.0
  9
$DIMAZIN
 70
     0
  9
$DIMDSEP
 70
    46
  9
$DIMATFIT
 70
     3
  9
$DIMFRAC
 70
     0
  9
$DIMLDRBLK
  1

  9
$DIMLUNIT
 70
     2
  9
$DIMLWD
 70
    -2
  9
$DIMLWE
 70
    -2
  9
$DIMTMOVE
 70
     0
  9
$LUNITS
 70
     2
  9
$LUPREC
 70
     4
  9
$SKETCHINC
 40
0.1
  9
$FILLETRAD
 40
0.5
  9
$AUNITS
 70
     0
  9
$AUPREC
 70
     0
  9
$MENU
  1
.
  9
$ELEVATION
 40
0.0
  9
$PELEVATION
 40
0.0
  9
$THICKNESS
 40
0.0
  9
$LIMCHECK
 70
     0
  9
$CHAMFERA
 40
0.5
  9
$CHAMFERB
 40
0.5
  9
$CHAMFERC
 40
1.0
  9
$CHAMFERD
 40
0.0
  9
$SKPOLY
 70
     0
  9
$TDCREATE
 40
2454397.305051285
  9
$TDUCREATE
 40
2454397.221717951
  9
$TDUPDATE
 40
2454397.305051297
  9
$TDUUPDATE
 40
2454397.221717963
  9
$TDINDWG
 40
0.0000000116
  9
$TDUSRTIMER
 40
0.0000000116
  9
$USRTIMER
 70
     1
  9
$ANGBASE
 50
0.0
  9
$ANGDIR
 70
     0
  9
$PDMODE
 70
     0
  9
$PDSIZE
 40
0.0
  9
$PLINEWID
 40
0.0
  9
$SPLFRAME
 70
     0
  9
$SPLINETYPE
 70
     6
  9
$SPLINESEGS
 70
     8
  9
$HANDSEED
  5
C6
  9
$SURFTAB1
 70
     6
  9
$SURFTAB2
 70
     6
  9
$SURFTYPE
 70
     6
  9
$SURFU
 70
     6
  9
$SURFV
 70
     6
  9
$UCSBASE
  2

  9
$UCSNAME
  2

  9
$UCSORG
 10
0.0
 20
0.0
 30
0.0
  9
$UCSXDIR
 10
1.0
 20
0.0
 30
0.0
  9
$UCSYDIR
 10
0.0
 20
1.0
 30
0.0
  9
$UCSORTHOREF
  2

  9
$UCSORTHOVIEW
 70
     0
  9
$UCSORGTOP
 10
0.0
 20
0.0
 30
0.0
  9
$UCSORGBOTTOM
 10
0.0
 20
0.0
 30
0.0
  9
$UCSORGLEFT
 10
0.0
 20
0.0
 30
0.0
  9
$UCSORGRIGHT
 10
0.0
 20
0.0
 30
0.0
  9
$UCSORGFRONT
 10
0.0
 20
0.0
 30
0.0
  9
$UCSORGBACK
 10
0.0
 20
0.0
 30
0.0
  9
$PUCSBASE
  2

  9
$PUCSNAME
  2

  9
$PUCSORG
 10
0.0
 20
0.0
 30
0.0
  9
$PUCSXDIR
 10
1.0
 20
0.0
 30
0.0
  9
$PUCSYDIR
 10
0.0
 20
1.0
 30
0.0
  9
$PUCSORTHOREF
  2

  9
$PUCSORTHOVIEW
 70
     0
  9
$PUCSORGTOP
 10
0.0
 20
0.0
 30
0.0
  9
$PUCSORGBOTTOM
 10
0.0
 20
0.0
 30
0.0
  9
$PUCSORGLEFT
 10
0.0
 20
0.0
 30
0.0
  9
$PUCSORGRIGHT
 10
0.0
 20
0.0
 30
0.0
  9
$PUCSORGFRONT
 10
0.0
 20
0.0
 30
0.0
  9
$PUCSORGBACK
 10
0.0
 20
0.0
 30
0.0
  9
$USERI1
 70
     0
  9
$USERI2
 70
     0
  9
$USERI3
 70
     0
  9
$USERI4
 70
     0
  9
$USERI5
 70
     0
  9
$USERR1
 40
14.0
  9
$USERR2
 40
0.0
  9
$USERR3
 40
0.0
  9
$USERR4
 40
0.0
  9
$USERR5
 40
0.0
  9
$WORLDVIEW
 70
     1
  9
$SHADEDGE
 70
     3
  9
$SHADEDIF
 70
    70
  9
$TILEMODE
 70
     1
  9
$MAXACTVP
 70
    64
  9
$PINSBASE
 10
0.0
 20
0.0
 30
0.0
  9
$PLIMCHECK
 70
     0
  9
$PEXTMIN
 10
1.00000000000000E+20
 20
1.00000000000000E+20
 30
1.00000000000000E+20
  9
$PEXTMAX
 10
-1.00000000000000E+20
 20
-1.00000000000000E+20
 30
-1.00000000000000E+20
  9
$PLIMMIN
 10
0.0
 20
0.0
  9
$PLIMMAX
 10
12.0
 20
9.0
  9
$UNITMODE
 70
     0
  9
$VISRETAIN
 70
     1
  9
$PLINEGEN
 70
     0
  9
$PSLTSCALE
 70
     1
  9
$TREEDEPTH
 70
  3020
  9
$CMLSTYLE
  2
Standard
  9
$CMLJUST
 70
     0
  9
$CMLSCALE
 40
1.0
  9
$PROXYGRAPHICS
 70
     1
  9
$MEASUREMENT
 70
     1
  9
$CELWEIGHT
370
    -1
  9
$ENDCAPS
280
     0
  9
$JOINSTYLE
280
     0
  9
$LWDISPLAY
290
     0
  9
$INSUNITS
 70
     1
  9
$HYPERLINKBASE
  1

  9
$STYLESHEET
  1

  9
$XEDIT
290
     1
  9
$CEPSNTYPE
380
     0
  9
$PSTYLEMODE
290
     1
  9
$FINGERPRINTGUID
  2
{AEA482EB-E933-4A26-8562-232CF7BDF57D}
  9
$VERSIONGUID
  2
{FAEB1C32-E019-11D5-929B-00C0DF256EC4}
  9
$EXTNAMES
290
     1
  9
$PSVPSCALE
 40
0.0
  9
$OLESTARTUP
290
     0
  0
ENDSEC
  0
SECTION
  2
CLASSES
  0
CLASS
  1
ACDBDICTIONARYWDFLT
  2
AcDbDictionaryWithDefault
  3
ObjectDBX Classes
 90
        0
280
     0
281
     0
  0
CLASS
  1
ACDBPLACEHOLDER
  2
AcDbPlaceHolder
  3
ObjectDBX Classes
 90
        0
280
     0
281
     0
  0
CLASS
  1
LAYOUT
  2
AcDbLayout
  3
ObjectDBX Classes
 90
        0
280
     0
281
     0
  0
ENDSEC
  0
SECTION
  2
TABLES
  0
TABLE
  2
VPORT
  5
8
330
0
100
AcDbSymbolTable
 70
     1
  0
VPORT
  5
29
330
8
100
AcDbSymbolTableRecord
100
AcDbViewportTableRecord
  2
*Active
 70
     0
 10
0.0
 20
0.0
 11
1.0
 21
1.0
 12
5.50687975285192
 22
-23.7922076996201
 13
0.0
 23
0.0
 14
0.5
 24
0.5
 15
0.5
 25
0.5
 16
0.0
 26
0.0
 36
1.0
 17
0.0
 27
0.0
 37
0.0
 40
117.2214947718633
 41
1.60267857142857
 42
50.0
 43
0.0
 44
0.0
 50
0.0
 51
0.0
 71
     0
 72
   100
 73
     1
 74
     3
 75
     0
 76
     0
 77
     0
 78
     0
281
     0
 65
     1
110
0.0
120
0.0
130
0.0
111
1.0
121
0.0
131
0.0
112
0.0
122
1.0
132
0.0
 79
     0
146
0.0
  0
ENDTAB
  0
TABLE
  2
LTYPE
  5
5
330
0
100
AcDbSymbolTable
 70
     8
  0
LTYPE
  5
14
330
5
100
AcDbSymbolTableRecord
100
AcDbLinetypeTableRecord
  2
ByBlock
 70
     0
  3

 72
    65
 73
     0
 40
0.0
  0
LTYPE
  5
15
330
5
100
AcDbSymbolTableRecord
100
AcDbLinetypeTableRecord
  2
ByLayer
 70
     0
  3

 72
    65
 73
     0
 40
0.0
  0
LTYPE
  5
16
330
5
100
AcDbSymbolTableRecord
100
AcDbLinetypeTableRecord
  2
Continuous
 70
     0
  3
Solid line
 72
    65
 73
     0
 40
0.0
  0
LTYPE
  5
2A
330
5
100
AcDbSymbolTableRecord
100
AcDbLinetypeTableRecord
  2
DASHED
 70
     0
  3
Dashed
 72
    65
 73
     2
 40
15.0
 49
7.0
 74
     0
 49
-8.0
 74
     0
  0
LTYPE
  5
2B
330
5
100
AcDbSymbolTableRecord
100
AcDbLinetypeTableRecord
  2
DOTTED
 70
     0
  3
Dotted
 72
    65
 73
     2
 40
1.0
 49
0.0
 74
     0
 49
-1.0
 74
     0
  0
LTYPE
  5
2C
330
5
100
AcDbSymbolTableRecord
100
AcDbLinetypeTableRecord
  2
DOT_CENTER
 70
     0
  3
Dot_Center
 72
    65
 73
     4
 40
14.0
 49
12.0
 74
     0
 49
-1.0
 74
     0
 49
0.0
 74
     0
 49
-1.0
 74
     0
  0
LTYPE
  5
2D
330
5
100
AcDbSymbolTableRecord
100
AcDbLinetypeTableRecord
  2
LONG_DASHED
 70
     0
  3
Long_Dashed
 72
    65
 73
     2
 40
15.0
 49
10.0
 74
     0
 49
-5.0
 74
     0
  0
LTYPE
  5
2E
330
5
100
AcDbSymbolTableRecord
100
AcDbLinetypeTableRecord
  2
DASH_CENTER
 70
     0
  3
Dash_Center
 72
    65
 73
     4
 40
14.0
 49
11.0
 74
     0
 49
-1.0
 74
     0
 49
1.0
 74
     0
 49
-1.0
 74
     0
  0
LTYPE
  5
2F
330
5
100
AcDbSymbolTableRecord
100
AcDbLinetypeTableRecord
  2
PHANTOM
 70
     0
  3
Phantom
 72
    65
 73
     6
 40
13.0
 49
10.0
 74
     0
 49
-1.0
 74
     0
 49
0.0
 74
     0
 49
-1.0
 74
     0
 49
0.0
 74
     0
 49
-1.0
 74
     0
  0
LTYPE
  5
30
330
5
100
AcDbSymbolTableRecord
100
AcDbLinetypeTableRecord
  2
CENTER_DASH_DASH
 70
     0
  3
Center_Dash_Dash
 72
    65
 73
     6
 40
14.0
 49
9.0
 74
     0
 49
-1.0
 74
     0
 49
1.0
 74
     0
 49
-1.0
 74
     0
 49
1.0
 74
     0
 49
-1.0
 74
     0
  0
ENDTAB
  0
TABLE
  2
LAYER
  5
2
330
0
100
AcDbSymbolTable
 70
     2
  0
LAYER
  5
10
330
2
100
AcDbSymbolTableRecord
100
AcDbLayerTableRecord
  2
0
 70
     0
 62
     7
  6
Continuous
370
    -3
390
F
  0
LAYER
  5
31
330
2
100
AcDbSymbolTableRecord
100
AcDbLayerTableRecord
  2
1
 70
     0
 62
     7
  6
Continuous
370
    -3
390
F
  0
ENDTAB
  0
TABLE
  2
STYLE
  5
3
330
0
100
AcDbSymbolTable
 70
     2
  0
STYLE
  5
11
330
3
100
AcDbSymbolTableRecord
100
AcDbTextStyleTableRecord
  2
Standard
 70
     0
 40
0.0
 41
1.0
 50
0.0
 71
     0
 42
0.2
  3
txt
  4

  0
STYLE
  5
9F
330
3
100
AcDbSymbolTableRecord
100
AcDbTextStyleTableRecord
  2
CONVERTER_1
 70
     0
 40
0.0
 41
0.9
 50
0.0
 71
     0
 42
0.2
  3
txt.shx
  4

  0
ENDTAB
  0
TABLE
  2
VIEW
  5
6
330
0
100
AcDbSymbolTable
 70
     0
  0
ENDTAB
  0
TABLE
  2
UCS
  5
7
330
0
100
AcDbSymbolTable
 70
     0
  0
ENDTAB
  0
TABLE
  2
APPID
  5
9
330
0
100
AcDbSymbolTable
 70
     1
  0
APPID
  5
12
330
9
100
AcDbSymbolTableRecord
100
AcDbRegAppTableRecord
  2
ACAD
 70
     0
  0
ENDTAB
  0
TABLE
  2
DIMSTYLE
  5
A
330
0
100
AcDbSymbolTable
 70
     5
100
AcDbDimStyleTable
  0
DIMSTYLE
105
27
330
A
100
AcDbSymbolTableRecord
100
AcDbDimStyleTableRecord
  2
Standard
 70
     0
340
11
  0
DIMSTYLE
105
A3
102
{ACAD_REACTORS
330
A4
102
}
330
A
100
AcDbSymbolTableRecord
100
AcDbDimStyleTableRecord
  2
ME10_DIM_0
 70
     0
 41
5.0
 42
0.0
 44
2.0
 73
     0
 74
     0
 77
     1
 78
     8
140
5.0
147
2.0
172
     1
173
     1
176
     4
177
     4
178
     1
271
     0
340
9F
  0
DIMSTYLE
105
AE
102
{ACAD_REACTORS
330
AF
102
}
330
A
100
AcDbSymbolTableRecord
100
AcDbDimStyleTableRecord
  2
ME10_DIM_1
 70
     0
  3
Ø<>
 41
5.0
 42
0.0
 44
2.0
 73
     0
 74
     0
 77
     1
 78
     8
140
5.0
147
2.0
172
     1
173
     1
176
     4
177
     4
178
     1
271
     2
340
9F
  0
DIMSTYLE
105
B9
102
{ACAD_REACTORS
330
BA
102
}
330
A
100
AcDbSymbolTableRecord
100
AcDbDimStyleTableRecord
  2
ME10_DIM_2
 70
     0
  3
Ø<>
 41
5.0
 42
0.0
 44
2.0
 73
     0
 74
     0
 77
     1
 78
     8
140
5.0
147
2.0
172
     1
173
     1
176
     4
177
     4
178
     1
271
     2
340
9F
  0
DIMSTYLE
105
C4
102
{ACAD_REACTORS
330
C5
102
}
330
A
100
AcDbSymbolTableRecord
100
AcDbDimStyleTableRecord
  2
ME10_DIM_3
 70
     0
 41
5.0
 42
0.0
 44
2.0
 73
     0
 74
     0
 77
     1
 78
     8
140
5.0
147
2.0
172
     1
173
     1
176
     4
177
     4
178
     1
271
     2
340
9F
  0
ENDTAB
  0
TABLE
  2
BLOCK_RECORD
  5
1
330
0
100
AcDbSymbolTable
 70
     9
  0
BLOCK_RECORD
  5
1F
330
1
100
AcDbSymbolTableRecord
100
AcDbBlockTableRecord
  2
*Model_Space
340
22
  0
BLOCK_RECORD
  5
1B
330
1
100
AcDbSymbolTableRecord
100
AcDbBlockTableRecord
  2
*Paper_Space
340
1E
  0
BLOCK_RECORD
  5
23
330
1
100
AcDbSymbolTableRecord
100
AcDbBlockTableRecord
  2
*Paper_Space0
340
26
  0
BLOCK_RECORD
  5
32
330
1
100
AcDbSymbolTableRecord
100
AcDbBlockTableRecord
  2
Ventilteller
340
0
102
{BLKREFS
331
3E
102
}
  0
BLOCK_RECORD
  5
35
330
1
100
AcDbSymbolTableRecord
100
AcDbBlockTableRecord
  2
Schaumstoffdichtung
340
0
102
{BLKREFS
331
3F
102
}
  0
BLOCK_RECORD
  5
38
330
1
100
AcDbSymbolTableRecord
100
AcDbBlockTableRecord
  2
Ventildichtung_108x5_3
340
0
102
{BLKREFS
331
40
102
}
  0
BLOCK_RECORD
  5
3B
330
1
100
AcDbSymbolTableRecord
100
AcDbBlockTableRecord
  2
Ablaufventil
340
0
102
{BLKREFS
331
41
102
}
  0
BLOCK_RECORD
  5
99
330
1
100
AcDbSymbolTableRecord
100
AcDbBlockTableRecord
  2
*D05
340
0
  0
BLOCK_RECORD
  5
A5
330
1
100
AcDbSymbolTableRecord
100
AcDbBlockTableRecord
  2
*D16
340
0
  0
BLOCK_RECORD
  5
B0
330
1
100
AcDbSymbolTableRecord
100
AcDbBlockTableRecord
  2
*D27
340
0
  0
BLOCK_RECORD
  5
BB
330
1
100
AcDbSymbolTableRecord
100
AcDbBlockTableRecord
  2
*D38
340
0
  0
ENDTAB
  0
ENDSEC
  0
SECTION
  2
BLOCKS
  0
BLOCK
  5
20
330
1F
100
AcDbEntity
  8
0
100
AcDbBlockBegin
  2
*Model_Space
 70
     0
 71
     0
 10
0.0
 20
0.0
 30
0.0
  3
*Model_Space
  1

  0
ENDBLK
  5
21
330
1F
100
AcDbEntity
  8
0
100
AcDbBlockEnd
  0
BLOCK
  5
1C
330
1B
100
AcDbEntity
 67
     1
  8
0
100
AcDbBlockBegin
  2
*Paper_Space
 70
     0
 71
     0
 10
0.0
 20
0.0
 30
0.0
  3
*Paper_Space
  1

  0
ENDBLK
  5
1D
330
1B
100
AcDbEntity
 67
     1
  8
0
100
AcDbBlockEnd
  0
BLOCK
  5
24
330
23
100
AcDbEntity
  8
0
100
AcDbBlockBegin
  2
*Paper_Space0
 70
     0
 71
     0
 10
0.0
 20
0.0
 30
0.0
  3
*Paper_Space0
  1

  0
ENDBLK
  5
25
330
23
100
AcDbEntity
  8
0
100
AcDbBlockEnd
  0
BLOCK
  5
33
330
32
100
AcDbEntity
  8
0
100
AcDbBlockBegin
  2
Ventilteller
 70
     0
 71
     0
 10
-56.49999999999977
 20
-0.7999999999999
 30
0.0
  3
Ventilteller
  1

  0
LINE
  5
42
330
32
100
AcDbEntity
  8
0
  6
Continuous
 62
     7
100
AcDbLine
 10
-56.49999999999977
 20
-0.59999999999999
 30
0.0
 11
-48.9304353138206
 21
-0.59999999999999
 31
0.0
  0
LINE
  5
43
330
32
100
AcDbEntity
  8
0
  6
Continuous
 62
     7
100
AcDbLine
 10
-48.9304353138206
 20
-0.59999999999999
 30
0.0
 11
-45.880169149919
 21
-0.59999999999999
 31
0.0
  0
LINE
  5
44
330
32
100
AcDbEntity
  8
0
  6
Continuous
 62
     7
100
AcDbLine
 10
-56.49999999999977
 20
0.0
 30
0.0
 11
-48.9304353138206
 21
0.0
 31
0.0
  0
LINE
  5
45
330
32
100
AcDbEntity
  8
0
  6
Continuous
 62
     7
100
AcDbLine
 10
-56.49999999999977
 20
-0.59999999999999
 30
0.0
 11
-56.49999999999977
 21
0.0
 31
0.0
  0
LINE
  5
46
330
32
100
AcDbEntity
  8
0
  6
Continuous
 62
     7
100
AcDbLine
 10
56.50000000000023
 20
-0.59999999999999
 30
0.0
 11
56.50000000000023
 21
0.0
 31
0.0
  0
LINE
  5
47
330
32
100
AcDbEntity
  8
0
  6
Continuous
 62
     7
100
AcDbLine
 10
-45.880169149919
 20
-0.59999999999999
 30
0.0
 11
45.88016914991951
 21
-0.59999999999999
 31
0.0
  0
LINE
  5
48
330
32
100
AcDbEntity
  8
0
  6
Continuous
 62
     7
100
AcDbLine
 10
45.88016914991951
 20
-0.59999999999999
 30
0.0
 11
56.50000000000023
 21
-0.59999999999999
 31
0.0
  0
LINE
  5
49
330
32
100
AcDbEntity
  8
0
  6
Continuous
 62
     7
100
AcDbLine
 10
-48.9304353138206
 20
0.0
 30
0.0
 11
56.50000000000023
 21
0.0
 31
0.0
  0
ARC
  5
4A
330
32
100
AcDbEntity
  8
0
  6
Continuous
 62
     7
100
AcDbCircle
 10
-45.88016914991908
 20
-2.59999999999999
 30
0.0
 40
2.000000000000067
100
AcDbArc
 50
64.15806723683525
 51
89.99999999999776
  0
ARC
  5
4B
330
32
100
AcDbEntity
  8
0
  6
Continuous
 62
     7
100
AcDbCircle
 10
45.88016914991951
 20
-2.59999999999999
 30
0.0
 40
2.0
100
AcDbArc
 50
90.0
 51
115.841932763162
  0
ENDBLK
  5
34
330
32
100
AcDbEntity
  8
0
100
AcDbBlockEnd
  0
BLOCK
  5
36
330
35
100
AcDbEntity
  8
0
100
AcDbBlockBegin
  2
Schaumstoffdichtung
 70
     0
 71
     0
 10
-54.99999999999977
 20
-2.59999999999991
 30
0.0
  3
Schaumstoffdichtung
  1

  0
LINE
  5
4C
330
35
100
AcDbEntity
  8
0
  6
Continuous
 62
     7
100
AcDbLine
 10
-54.99999999999977
 20
-0.7999999999999
 30
0.0
 11
-54.99999999999977
 21
-2.59999999999991
 31
0.0
  0
LINE
  5
4D
330
35
100
AcDbEntity
  8
0
  6
Continuous
 62
     7
100
AcDbLine
 10
55.00000000000023
 20
-0.7999999999999
 30
0.0
 11
55.00000000000023
 21
-2.59999999999991
 31
0.0
  0
LINE
  5
4E
330
35
100
AcDbEntity
  8
0
  6
Continuous
 62
     7
100
AcDbLine
 10
55.00000000000023
 20
-0.7999999999999
 30
0.0
 11
-54.99999999999977
 21
-0.7999999999999
 31
0.0
  0
LINE
  5
4F
330
35
100
AcDbEntity
  8
0
  6
Continuous
 62
     7
100
AcDbLine
 10
55.00000000000023
 20
-2.59999999999991
 30
0.0
 11
-54.99999999999977
 21
-2.59999999999991
 31
0.0
  0
ENDBLK
  5
37
330
35
100
AcDbEntity
  8
0
100
AcDbBlockEnd
  0
BLOCK
  5
39
330
38
100
AcDbEntity
  8
0
100
AcDbBlockBegin
  2
Ventildichtung_108x5_3
 70
     0
 71
     0
 10
-53.99999999999977
 20
-6.8900000000001
 30
0.0
  3
Ventildichtung_108x5_3
  1

  0
LINE
  5
50
330
38
100
AcDbEntity
  8
0
  6
Continuous
 62
     7
100
AcDbLine
 10
-47.99999999999977
 20
-6.8900000000001
 30
0.0
 11
-45.99999999999977
 21
-6.8900000000001
 31
0.0
  0
LINE
  5
51
330
38
100
AcDbEntity
  8
0
  6
Continuous
 62
     7
100
AcDbLine
 10
-51.99999999999977
 20
-6.8900000000001
 30
0.0
 11
-49.99999999999977
 21
-6.8900000000001
 31
0.0
  0
LINE
  5
52
330
38
100
AcDbEntity
  8
0
  6
Continuous
 62
     7
100
AcDbLine
 10
-53.99999999999977
 20
-6.8900000000001
 30
0.0
 11
-51.99999999999977
 21
-6.8900000000001
 31
0.0
  0
LINE
  5
53
330
38
100
AcDbEntity
  8
0
  6
Continuous
 62
     7
100
AcDbLine
 10
-49.99999999999977
 20
-6.8900000000001
 30
0.0
 11
-47.99999999999977
 21
-6.8900000000001
 31
0.0
  0
LINE
  5
54
330
38
100
AcDbEntity
  8
0
  6
Continuous
 62
     7
100
AcDbLine
 10
-53.99999999999977
 20
-3.59000000000012
 30
0.0
 11
-53.99999999999977
 21
-5.8900000000001
 31
0.0
  0
LINE
  5
55
330
38
100
AcDbEntity
  8
0
  6
Continuous
 62
     7
100
AcDbLine
 10
-53.00999999999968
 20
-2.59999999999991
 30
0.0
 11
-53.99999999999977
 21
-3.59000000000012
 31
0.0
  0
LINE
  5
56
330
38
100
AcDbEntity
  8
0
  6
Continuous
 62
     7
100
AcDbLine
 10
50.00000000000023
 20
-6.8900000000001
 30
0.0
 11
52.00000000000023
 21
-6.8900000000001
 31
0.0
  0
LINE
  5
57
330
38
100
AcDbEntity
  8
0
  6
Continuous
 62
     7
100
AcDbLine
 10
48.00000000000023
 20
-6.8900000000001
 30
0.0
 11
50.00000000000023
 21
-6.8900000000001
 31
0.0
  0
LINE
  5
58
330
38
100
AcDbEntity
  8
0
  6
Continuous
 62
     7
100
AcDbLine
 10
46.00000000000023
 20
-6.8900000000001
 30
0.0
 11
48.00000000000023
 21
-6.8900000000001
 31
0.0
  0
LINE
  5
59
330
38
100
AcDbEntity
  8
0
  6
Continuous
 62
     7
100
AcDbLine
 10
54.00000000000023
 20
-3.59000000000012
 30
0.0
 11
54.00000000000023
 21
-5.8900000000001
 31
0.0
  0
LINE
  5
5A
330
38
100
AcDbEntity
  8
0
  6
Continuous
 62
     7
100
AcDbLine
 10
53.01000000000002
 20
-2.59999999999991
 30
0.0
 11
54.00000000000023
 21
-3.59000000000012
 31
0.0
  0
LINE
  5
5B
330
38
100
AcDbEntity
  8
0
  6
Continuous
 62
     7
100
AcDbLine
 10
-45.99999999999977
 20
-6.8900000000001
 30
0.0
 11
46.00000000000023
 21
-6.8900000000001
 31
0.0
  0
LINE
  5
5C
330
38
100
AcDbEntity
  8
0
  6
Continuous
 62
     7
100
AcDbLine
 10
52.00000000000023
 20
-6.8900000000001
 30
0.0
 11
54.00000000000023
 21
-6.8900000000001
 31
0.0
  0
LINE
  5
5D
330
38
100
AcDbEntity
  8
0
  6
Continuous
 62
     7
100
AcDbLine
 10
54.00000000000023
 20
-3.59000000000012
 30
0.0
 11
-53.99999999999977
 21
-3.59000000000012
 31
0.0
  0
ENDBLK
  5
3A
330
38
100
AcDbEntity
  8
0
100
AcDbBlockEnd
  0
BLOCK
  5
3C
330
3B
100
AcDbEntity
  8
0
100
AcDbBlockBegin
  2
Ablaufventil
 70
     0
 71
     0
 10
-55.99999999999977
 20
-60.8900000000001
 30
0.0
  3
Ablaufventil
  1

  0
LINE
  5
5E
330
3B
100
AcDbEntity
  8
0
  6
Continuous
 62
     7
100
AcDbLine
 10
24.00000000000023
 20
-43.6088413326662
 30
0.0
 11
46.42836282905981
 21
-24.78921035489199
 31
0.0
  0
LINE
  5
5F
330
3B
100
AcDbEntity
  8
0
  6
Continuous
 62
     7
100
AcDbLine
 10
-18.76084908511029
 20
-43.608841332667
 30
0.0
 11
22.50000000000023
 21
-43.6088413326662
 31
0.0
  0
LINE
  5
60
330
3B
100
AcDbEntity
  8
0
  6
Continuous
 62
     7
100
AcDbLine
 10
-23.99999999999977
 20
-43.6088413326662
 30
0.0
 11
-46.42836282905938
 21
-24.78921035489199
 31
0.0
  0
LINE
  5
61
330
3B
100
AcDbEntity
  8
0
  6
Continuous
 62
     7
100
AcDbLine
 10
-22.49999999999977
 20
-43.6088413326662
 30
0.0
 11
-18.76084908511029
 21
-43.608841332667
 31
0.0
  0
LINE
  5
62
330
3B
100
AcDbEntity
  8
0
  6
Continuous
 62
     7
100
AcDbLine
 10
-23.99999999999977
 20
-43.6088413326662
 30
0.0
 11
-22.49999999999977
 21
-43.6088413326662
 31
0.0
  0
LINE
  5
63
330
3B
100
AcDbEntity
  8
0
  6
Continuous
 62
     7
100
AcDbLine
 10
-55.99999999999977
 20
-8.8900000000001
 30
0.0
 11
-55.99999999999977
 21
-6.8900000000001
 31
0.0
  0
LINE
  5
64
330
3B
100
AcDbEntity
  8
0
  6
Continuous
 62
     7
100
AcDbLine
 10
-55.99999999999977
 20
-6.8900000000001
 30
0.0
 11
-54.99999999999977
 21
-6.8900000000001
 31
0.0
  0
LINE
  5
65
330
3B
100
AcDbEntity
  8
0
  6
Continuous
 62
     7
100
AcDbLine
 10
-55.49999999999977
 20
-9.3900000000001
 30
0.0
 11
-48.49999999999977
 21
-9.3900000000001
 31
0.0
  0
LINE
  5
66
330
3B
100
AcDbEntity
  8
0
  6
Continuous
 62
     7
100
AcDbLine
 10
-47.49999999999977
 20
-10.3900000000001
 30
0.0
 11
-48.49999999999977
 21
-9.3900000000001
 31
0.0
  0
LINE
  5
67
330
3B
100
AcDbEntity
  8
0
  6
Continuous
 62
     7
100
AcDbLine
 10
-47.99999999999977
 20
-6.8900000000001
 30
0.0
 11
-45.99999999999977
 21
-6.8900000000001
 31
0.0
  0
LINE
  5
68
330
3B
100
AcDbEntity
  8
0
  6
Continuous
 62
     7
100
AcDbLine
 10
-54.99999999999977
 20
-6.8900000000001
 30
0.0
 11
-53.99999999999977
 21
-6.8900000000001
 31
0.0
  0
LINE
  5
69
330
3B
100
AcDbEntity
  8
0
  6
Continuous
 62
     7
100
AcDbLine
 10
-51.99999999999977
 20
-6.8900000000001
 30
0.0
 11
-49.99999999999977
 21
-6.8900000000001
 31
0.0
  0
LINE
  5
6A
330
3B
100
AcDbEntity
  8
0
  6
Continuous
 62
     7
100
AcDbLine
 10
-53.99999999999977
 20
-6.8900000000001
 30
0.0
 11
-51.99999999999977
 21
-6.8900000000001
 31
0.0
  0
LINE
  5
6B
330
3B
100
AcDbEntity
  8
0
  6
Continuous
 62
     7
100
AcDbLine
 10
-49.99999999999977
 20
-6.8900000000001
 30
0.0
 11
-47.99999999999977
 21
-6.8900000000001
 31
0.0
  0
LINE
  5
6C
330
3B
100
AcDbEntity
  8
0
  6
Continuous
 62
     7
100
AcDbLine
 10
-22.49999999999977
 20
-57.8900000000001
 30
0.0
 11
22.50000000000023
 21
-57.8900000000001
 31
0.0
  0
LINE
  5
6D
330
3B
100
AcDbEntity
  8
0
  6
Continuous
 62
     7
100
AcDbLine
 10
22.50000000000023
 20
-57.8900000000001
 30
0.0
 11
23.90150000000023
 21
-57.8900000000001
 31
0.0
  0
LINE
  5
6E
330
3B
100
AcDbEntity
  8
0
  6
Continuous
 62
     7
100
AcDbLine
 10
-23.9014999999998
 20
-57.8900000000001
 30
0.0
 11
-22.49999999999977
 21
-57.8900000000001
 31
0.0
  0
LINE
  5
6F
330
3B
100
AcDbEntity
  8
0
  6
Continuous
 62
     7
100
AcDbLine
 10
22.50000000000023
 20
-45.6088413326662
 30
0.0
 11
22.50000000000023
 21
-43.6088413326662
 31
0.0
  0
LINE
  5
70
330
3B
100
AcDbEntity
  8
0
  6
Continuous
 62
     7
100
AcDbLine
 10
22.50000000000023
 20
-60.8900000000001
 30
0.0
 11
22.50000000000023
 21
-57.8900000000001
 31
0.0
  0
LINE
  5
71
330
3B
100
AcDbEntity
  8
0
  6
Continuous
 62
     7
100
AcDbLine
 10
-22.49999999999977
 20
-45.6088413326662
 30
0.0
 11
22.50000000000023
 21
-45.6088413326662
 31
0.0
  0
LINE
  5
72
330
3B
100
AcDbEntity
  8
0
  6
Continuous
 62
     7
100
AcDbLine
 10
-23.9014999999998
 20
-45.6088413326662
 30
0.0
 11
-22.49999999999977
 21
-45.6088413326662
 31
0.0
  0
LINE
  5
73
330
3B
100
AcDbEntity
  8
0
  6
Continuous
 62
     7
100
AcDbLine
 10
22.50000000000023
 20
-45.6088413326662
 30
0.0
 11
23.90150000000023
 21
-45.6088413326662
 31
0.0
  0
LINE
  5
74
330
3B
100
AcDbEntity
  8
0
  6
Continuous
 62
     7
100
AcDbLine
 10
-22.49999999999977
 20
-45.6088413326662
 30
0.0
 11
-22.49999999999977
 21
-43.6088413326662
 31
0.0
  0
LINE
  5
75
330
3B
100
AcDbEntity
  8
0
  6
Continuous
 62
     7
100
AcDbLine
 10
-22.49999999999977
 20
-60.8900000000001
 30
0.0
 11
-22.49999999999977
 21
-57.8900000000001
 31
0.0
  0
LINE
  5
76
330
3B
100
AcDbEntity
  8
0
  6
Continuous
 62
     7
100
AcDbLine
 10
-23.9014999999998
 20
-57.8900000000001
 30
0.0
 11
-23.9014999999998
 21
-45.6088413326662
 31
0.0
  0
LINE
  5
77
330
3B
100
AcDbEntity
  8
0
  6
Continuous
 62
     7
100
AcDbLine
 10
23.90150000000023
 20
-57.8900000000001
 30
0.0
 11
23.90150000000023
 21
-45.6088413326662
 31
0.0
  0
LINE
  5
78
330
3B
100
AcDbEntity
  8
0
  6
Continuous
 62
     7
100
AcDbLine
 10
47.50000000000023
 20
-22.49107702553511
 30
0.0
 11
47.50000000000023
 21
-10.3900000000001
 31
0.0
  0
LINE
  5
79
330
3B
100
AcDbEntity
  8
0
  6
Continuous
 62
     7
100
AcDbLine
 10
47.50000000000023
 20
-10.3900000000001
 30
0.0
 11
48.50000000000023
 21
-9.3900000000001
 31
0.0
  0
LINE
  5
7A
330
3B
100
AcDbEntity
  8
0
  6
Continuous
 62
     7
100
AcDbLine
 10
56.00000000000023
 20
-8.8900000000001
 30
0.0
 11
56.00000000000023
 21
-6.8900000000001
 31
0.0
  0
LINE
  5
7B
330
3B
100
AcDbEntity
  8
0
  6
Continuous
 62
     7
100
AcDbLine
 10
50.00000000000023
 20
-6.8900000000001
 30
0.0
 11
52.00000000000023
 21
-6.8900000000001
 31
0.0
  0
LINE
  5
7C
330
3B
100
AcDbEntity
  8
0
  6
Continuous
 62
     7
100
AcDbLine
 10
48.00000000000023
 20
-6.8900000000001
 30
0.0
 11
50.00000000000023
 21
-6.8900000000001
 31
0.0
  0
LINE
  5
7D
330
3B
100
AcDbEntity
  8
0
  6
Continuous
 62
     7
100
AcDbLine
 10
46.00000000000023
 20
-6.8900000000001
 30
0.0
 11
48.00000000000023
 21
-6.8900000000001
 31
0.0
  0
LINE
  5
7E
330
3B
100
AcDbEntity
  8
0
  6
Continuous
 62
     7
100
AcDbLine
 10
55.00000000000023
 20
-6.8900000000001
 30
0.0
 11
55.00000000000023
 21
-5.8900000000001
 31
0.0
  0
LINE
  5
7F
330
3B
100
AcDbEntity
  8
0
  6
Continuous
 62
     3
100
AcDbLine
 10
-46.42836282905938
 20
-24.78921035489199
 30
0.0
 11
46.42836282905981
 21
-24.78921035489199
 31
0.0
  0
LINE
  5
80
330
3B
100
AcDbEntity
  8
0
  6
Continuous
 62
     3
100
AcDbLine
 10
-55.99999999999977
 20
-8.8900000000001
 30
0.0
 11
56.00000000000023
 21
-8.8900000000001
 31
0.0
  0
LINE
  5
81
330
3B
100
AcDbEntity
  8
0
  6
Continuous
 62
     7
100
AcDbLine
 10
-48.49999999999977
 20
-9.3900000000001
 30
0.0
 11
48.50000000000023
 21
-9.3900000000001
 31
0.0
  0
LINE
  5
82
330
3B
100
AcDbEntity
  8
0
  6
Continuous
 62
     7
100
AcDbLine
 10
48.50000000000023
 20
-9.3900000000001
 30
0.0
 11
55.50000000000023
 21
-9.3900000000001
 31
0.0
  0
LINE
  5
83
330
3B
100
AcDbEntity
  8
0
  6
Continuous
 62
     7
100
AcDbLine
 10
-47.49999999999977
 20
-10.3900000000001
 30
0.0
 11
47.50000000000023
 21
-10.3900000000001
 31
0.0
  0
LINE
  5
84
330
3B
100
AcDbEntity
  8
0
  6
Continuous
 62
     7
100
AcDbLine
 10
-47.49999999999977
 20
-22.49107702553511
 30
0.0
 11
-47.49999999999977
 21
-10.3900000000001
 31
0.0
  0
LINE
  5
85
330
3B
100
AcDbEntity
  8
0
  6
Continuous
 62
     3
100
AcDbLine
 10
-47.49999999999977
 20
-22.49107702553511
 30
0.0
 11
47.50000000000023
 21
-22.49107702553511
 31
0.0
  0
LINE
  5
86
330
3B
100
AcDbEntity
  8
0
  6
Continuous
 62
     7
100
AcDbLine
 10
55.00000000000023
 20
-6.8900000000001
 30
0.0
 11
56.00000000000023
 21
-6.8900000000001
 31
0.0
  0
LINE
  5
87
330
3B
100
AcDbEntity
  8
0
  6
Continuous
 62
     7
100
AcDbLine
 10
-45.99999999999977
 20
-6.8900000000001
 30
0.0
 11
46.00000000000023
 21
-6.8900000000001
 31
0.0
  0
LINE
  5
88
330
3B
100
AcDbEntity
  8
0
  6
Continuous
 62
     7
100
AcDbLine
 10
54.00000000000023
 20
-6.8900000000001
 30
0.0
 11
55.00000000000023
 21
-6.8900000000001
 31
0.0
  0
LINE
  5
89
330
3B
100
AcDbEntity
  8
0
  6
Continuous
 62
     7
100
AcDbLine
 10
52.00000000000023
 20
-6.8900000000001
 30
0.0
 11
54.00000000000023
 21
-6.8900000000001
 31
0.0
  0
LINE
  5
8A
330
3B
100
AcDbEntity
  8
0
  6
Continuous
 62
     7
100
AcDbLine
 10
-54.99999999999977
 20
-6.8900000000001
 30
0.0
 11
-54.99999999999977
 21
-5.8900000000001
 31
0.0
  0
LINE
  5
8B
330
3B
100
AcDbEntity
  8
0
  6
Continuous
 62
     7
100
AcDbLine
 10
-54.99999999999977
 20
-5.8900000000001
 30
0.0
 11
55.00000000000023
 21
-5.8900000000001
 31
0.0
  0
LINE
  5
8C
330
3B
100
AcDbEntity
  8
0
  6
Continuous
 62
     7
100
AcDbLine
 10
-22.49999999999977
 20
-60.8900000000001
 30
0.0
 11
22.50000000000023
 21
-60.8900000000001
 31
0.0
  0
LINE
  5
8D
330
3B
100
AcDbEntity
  8
0
  6
Continuous
 62
     7
100
AcDbLine
 10
22.50000000000023
 20
-43.6088413326662
 30
0.0
 11
24.00000000000023
 21
-43.6088413326662
 31
0.0
  0
LINE
  5
8E
330
3B
100
AcDbEntity
  8
1
  6
Continuous
 62
     2
100
AcDbLine
 10
-22.42249999999979
 20
-57.8900000000001
 30
0.0
 11
-22.42249999999979
 21
-45.6088413326662
 31
0.0
  0
LINE
  5
8F
330
3B
100
AcDbEntity
  8
1
  6
Continuous
 62
     7
100
AcDbLine
 10
-23.9014999999998
 20
-45.6088413326662
 30
0.0
 11
-22.42249999999979
 21
-45.6088413326662
 31
0.0
  0
LINE
  5
90
330
3B
100
AcDbEntity
  8
1
  6
Continuous
 62
     2
100
AcDbLine
 10
22.42250000000021
 20
-57.8900000000001
 30
0.0
 11
22.42250000000021
 21
-45.6088413326662
 31
0.0
  0
LINE
  5
91
330
3B
100
AcDbEntity
  8
1
  6
Continuous
 62
     7
100
AcDbLine
 10
23.90150000000023
 20
-45.6088413326662
 30
0.0
 11
22.42250000000021
 21
-45.6088413326662
 31
0.0
  0
LINE
  5
92
330
3B
100
AcDbEntity
  8
1
  6
DOT_CENTER
 62
     2
100
AcDbLine
 10
0.00000000000023
 20
-64.35574144486711
 30
0.0
 11
0.0
 21
1.92971482889686
 31
0.0
  0
ARC
  5
93
330
3B
100
AcDbEntity
  8
0
  6
Continuous
 62
     7
100
AcDbCircle
 10
-44.49999999999977
 20
-22.49107702553511
 30
0.0
 40
3.0
100
AcDbArc
 50
180.0
 51
-130.0000000000005
  0
ARC
  5
94
330
3B
100
AcDbEntity
  8
0
  6
Continuous
 62
     7
100
AcDbCircle
 10
44.50000000000023
 20
-22.49107702553511
 30
0.0
 40
2.999999999999934
100
AcDbArc
 50
-49.99999999999989
 51
0.0
  0
ARC
  5
95
330
3B
100
AcDbEntity
  8
0
  6
Continuous
 62
     7
100
AcDbCircle
 10
55.50000000000023
 20
-8.8900000000001
 30
0.0
 40
0.5
100
AcDbArc
 50
-90.0
 51
0.0
  0
ARC
  5
96
330
3B
100
AcDbEntity
  8
0
  6
Continuous
 62
     7
100
AcDbCircle
 10
-55.49999999999977
 20
-8.8900000000001
 30
0.0
 40
0.5
100
AcDbArc
 50
180.0
 51
-90.0
  0
ENDBLK
  5
3D
330
3B
100
AcDbEntity
  8
0
100
AcDbBlockEnd
  0
BLOCK
  5
A1
330
99
100
AcDbEntity
  8
0
100
AcDbBlockBegin
  2
*D05
 70
     1
 71
     0
 10
0.0
 20
0.0
 30
0.0
  3
*D05
  1

  0
LINE
  5
9A
330
99
100
AcDbEntity
  8
1
  6
Continuous
 62
     4
100
AcDbLine
 10
65.5137595057036
 20
-2.59999999999992
 30
0.0
 11
65.5137595057036
 21
-60.8900000000001
 31
0.0
  0
LINE
  5
9B
330
99
100
AcDbEntity
  8
1
  6
Continuous
 62
     4
100
AcDbLine
 10
22.50000000000021
 20
-60.8900000000001
 30
0.0
 11
67.5137595057036
 21
-60.8900000000001
 31
0.0
  0
LINE
  5
9C
330
99
100
AcDbEntity
  8
1
  6
Continuous
 62
     4
100
AcDbLine
 10
55.00000000000022
 20
-2.59999999999992
 30
0.0
 11
67.5137595057036
 21
-2.59999999999992
 31
0.0
  0
SOLID
  5
9D
330
99
100
AcDbEntity
  8
1
 62
     4
100
AcDbTrace
 10
66.17202199364058
 20
-7.59999999999992
 30
0.0
 11
64.85549701776662
 21
-7.59999999999992
 31
0.0
 12
65.5137595057036
 22
-2.59999999999992
 32
0.0
 13
65.5137595057036
 23
-2.59999999999992
 33
0.0
  0
SOLID
  5
9E
330
99
100
AcDbEntity
  8
1
 62
     4
100
AcDbTrace
 10
64.85549701776662
 20
-55.8900000000001
 30
0.0
 11
66.17202199364058
 21
-55.8900000000001
 31
0.0
 12
65.5137595057036
 22
-60.8900000000001
 32
0.0
 13
65.5137595057036
 23
-60.8900000000001
 33
0.0
  0
MTEXT
  5
A0
330
99
100
AcDbEntity
  8
1
 62
     1
100
AcDbMText
 10
63.5137595057036
 20
-39.68924904943
 30
0.0
 40
5.0
 41
0.0
 71
     7
 72
     1
  1
60
  7
CONVERTER_1
 11
0.0
 21
1.0
 31
0.0
 73
     1
 44
0.60024009603842
  0
ENDBLK
  5
A2
330
99
100
AcDbEntity
  8
0
100
AcDbBlockEnd
  0
BLOCK
  5
AC
330
A5
100
AcDbEntity
  8
0
100
AcDbBlockBegin
  2
*D16
 70
     1
 71
     0
 10
0.0
 20
0.0
 30
0.0
  3
*D16
  1

  0
LINE
  5
A6
330
A5
100
AcDbEntity
  8
1
  6
Continuous
 62
     4
100
AcDbLine
 10
56.50000000000023
 20
22.4902899239541
 30
0.0
 11
-56.49999999999977
 21
22.4902899239541
 31
0.0
  0
LINE
  5
A7
330
A5
100
AcDbEntity
  8
1
  6
Continuous
 62
     4
100
AcDbLine
 10
-56.49999999999977
 20
-0.6
 30
0.0
 11
-56.49999999999977
 21
24.4902899239541
 31
0.0
  0
LINE
  5
A8
330
A5
100
AcDbEntity
  8
1
  6
Continuous
 62
     4
100
AcDbLine
 10
56.50000000000023
 20
-0.6
 30
0.0
 11
56.50000000000023
 21
24.4902899239541
 31
0.0
  0
SOLID
  5
A9
330
A5
100
AcDbEntity
  8
1
 62
     4
100
AcDbTrace
 10
51.50000000000023
 20
21.83202743601713
 30
0.0
 11
51.50000000000023
 21
23.14855241189108
 31
0.0
 12
56.50000000000023
 22
22.4902899239541
 32
0.0
 13
56.50000000000023
 23
22.4902899239541
 33
0.0
  0
SOLID
  5
AA
330
A5
100
AcDbEntity
  8
1
 62
     4
100
AcDbTrace
 10
-51.49999999999977
 20
23.14855241189108
 30
0.0
 11
-51.49999999999977
 21
21.83202743601712
 31
0.0
 12
-56.49999999999977
 22
22.4902899239541
 32
0.0
 13
-56.49999999999977
 23
22.4902899239541
 33
0.0
  0
MTEXT
  5
AB
330
A5
100
AcDbEntity
  8
1
 62
     1
100
AcDbMText
 10
-14.90477661595731
 20
24.49027998527364
 30
0.0
 40
5.0
 41
0.0
 71
     7
 72
     1
  1
\C1;Ø\C1;113
  7
CONVERTER_1
 11
0.9999999999970621
 21
2.424068405545307E-6
 31
0.0
 73
     1
 44
0.60024009603842
  0
ENDBLK
  5
AD
330
A5
100
AcDbEntity
  8
0
100
AcDbBlockEnd
  0
BLOCK
  5
B7
330
B0
100
AcDbEntity
  8
0
100
AcDbBlockBegin
  2
*D27
 70
     1
 71
     0
 10
0.0
 20
0.0
 30
0.0
  3
*D27
  1

  0
LINE
  5
B1
330
B0
100
AcDbEntity
  8
1
  6
Continuous
 62
     4
100
AcDbLine
 10
45.00000000000007
 20
13.39801330798447
 30
0.0
 11
-45.0
 21
13.39801330798447
 31
0.0
  0
LINE
  5
B2
330
B0
100
AcDbEntity
  8
1
  6
Continuous
 62
     4
100
AcDbLine
 10
-45.0
 20
1.39801330798447
 30
0.0
 11
-45.0
 21
15.39801330798447
 31
0.0
  0
LINE
  5
B3
330
B0
100
AcDbEntity
  8
1
  6
Continuous
 62
     4
100
AcDbLine
 10
45.00000000000007
 20
3.39801330798447
 30
0.0
 11
45.00000000000007
 21
15.39801330798447
 31
0.0
  0
SOLID
  5
B4
330
B0
100
AcDbEntity
  8
1
 62
     4
100
AcDbTrace
 10
40.00000000000007
 20
12.73975082004749
 30
0.0
 11
40.00000000000007
 21
14.05627579592145
 31
0.0
 12
45.00000000000007
 22
13.39801330798447
 32
0.0
 13
45.00000000000007
 23
13.39801330798447
 33
0.0
  0
SOLID
  5
B5
330
B0
100
AcDbEntity
  8
1
 62
     4
100
AcDbTrace
 10
-40.0
 20
14.05627579592145
 30
0.0
 11
-40.0
 21
12.73975082004749
 31
0.0
 12
-45.0
 22
13.39801330798447
 32
0.0
 13
-45.0
 23
13.39801330798447
 33
0.0
  0
MTEXT
  5
B6
330
B0
100
AcDbEntity
  8
1
 62
     1
100
AcDbMText
 10
5.78403041826325
 20
15.39800336930401
 30
0.0
 40
5.0
 41
0.0
 71
     7
 72
     1
  1
\C1;Ø\C1;90
  7
CONVERTER_1
 11
0.9999999999970621
 21
2.424068405545307E-6
 31
0.0
 73
     1
 44
0.60024009603842
  0
ENDBLK
  5
B8
330
B0
100
AcDbEntity
  8
0
100
AcDbBlockEnd
  0
BLOCK
  5
C2
330
BB
100
AcDbEntity
  8
0
100
AcDbBlockBegin
  2
*D38
 70
     1
 71
     0
 10
0.0
 20
0.0
 30
0.0
  3
*D38
  1

  0
LINE
  5
BC
330
BB
100
AcDbEntity
  8
1
  6
Continuous
 62
     4
100
AcDbLine
 10
-23.90149999999981
 20
-75.07470532319429
 30
0.0
 11
23.90150000000023
 21
-75.07470532319429
 31
0.0
  0
LINE
  5
BD
330
BB
100
AcDbEntity
  8
1
  6
Continuous
 62
     4
100
AcDbLine
 10
23.90150000000023
 20
-57.8900000000001
 30
0.0
 11
23.90150000000023
 21
-77.07470532319429
 31
0.0
  0
LINE
  5
BE
330
BB
100
AcDbEntity
  8
1
  6
Continuous
 62
     4
100
AcDbLine
 10
-23.90149999999981
 20
-57.8900000000001
 30
0.0
 11
-23.90149999999981
 21
-77.07470532319429
 31
0.0
  0
SOLID
  5
BF
330
BB
100
AcDbEntity
  8
1
 62
     4
100
AcDbTrace
 10
-18.90149999999981
 20
-74.41644283525731
 30
0.0
 11
-18.90149999999981
 21
-75.73296781113128
 31
0.0
 12
-23.90149999999981
 22
-75.07470532319429
 32
0.0
 13
-23.90149999999981
 23
-75.07470532319429
 33
0.0
  0
SOLID
  5
C0
330
BB
100
AcDbEntity
  8
1
 62
     4
100
AcDbTrace
 10
18.90150000000023
 20
-75.73296781113128
 30
0.0
 11
18.90150000000023
 21
-74.41644283525731
 31
0.0
 12
23.90150000000023
 22
-75.07470532319429
 32
0.0
 13
23.90150000000023
 23
-75.07470532319429
 33
0.0
  0
MTEXT
  5
C1
330
BB
100
AcDbEntity
  8
1
 62
     1
100
AcDbMText
 10
-7.22262357414427
 20
-73.07470532319429
 30
0.0
 40
5.0
 41
0.0
 71
     7
 72
     1
  1
6/4"
  7
CONVERTER_1
 11
0.9999999999970621
 21
2.424068405545307E-6
 31
0.0
 73
     1
 44
0.60024009603842
  0
ENDBLK
  5
C3
330
BB
100
AcDbEntity
  8
0
100
AcDbBlockEnd
  0
ENDSEC
  0
SECTION
  2
ENTITIES
  0
INSERT
  5
3E
330
1F
100
AcDbEntity
  8
0
100
AcDbBlockReference
  2
Ventilteller
 10
-56.49999999999977
 20
-0.7999999999999
 30
0.0
  0
INSERT
  5
3F
330
1F
100
AcDbEntity
  8
0
100
AcDbBlockReference
  2
Schaumstoffdichtung
 10
-54.99999999999977
 20
-2.59999999999991
 30
0.0
  0
INSERT
  5
40
330
1F
100
AcDbEntity
  8
0
100
AcDbBlockReference
  2
Ventildichtung_108x5_3
 10
-53.99999999999977
 20
-6.8900000000001
 30
0.0
  0
INSERT
  5
41
330
1F
100
AcDbEntity
  8
0
100
AcDbBlockReference
  2
Ablaufventil
 10
-55.99999999999977
 20
-60.8900000000001
 30
0.0
  0
LINE
  5
97
330
1F
100
AcDbEntity
  8
1
  6
DOT_CENTER
 62
     2
100
AcDbLine
 10
45.00000000000007
 20
3.39801330798447
 30
0.0
 11
45.00000000000007
 21
1.39801330798447
 31
0.0
  0
LINE
  5
98
330
1F
100
AcDbEntity
  8
1
  6
DOT_CENTER
 62
     2
100
AcDbLine
 10
-45.0
 20
1.39801330798447
 30
0.0
 11
-45.0
 21
3.39801330798447
 31
0.0
  0
DIMENSION
  5
A4
330
1F
100
AcDbEntity
  8
1
100
AcDbDimension
  2
*D05
 10
65.5137595057036
 20
-2.59999999999992
 30
0.0
 11
61.0137595057036
 21
-35.93924904943
 31
0.0
 70
    32
  1
60
 71
     5
 42
-1.0
 53
-89.99999999999982
  3
ME10_DIM_0
100
AcDbAlignedDimension
 13
22.50000000000023
 23
-60.8900000000001
 33
0.0
 14
55.00000000000023
 24
-2.59999999999991
 34
0.0
 50
-89.99999999999982
100
AcDbRotatedDimension
  0
DIMENSION
  5
AF
330
1F
100
AcDbEntity
  8
1
100
AcDbDimension
  2
*D16
 10
56.50000000000023
 20
22.4902899239541
 30
0.0
 11
-9.30477661596936
 21
26.9902899239541
 31
0.0
 70
    32
  1
<>
 71
     5
 42
-1.0
 53
0.00013888888889
  3
ME10_DIM_1
100
AcDbAlignedDimension
 13
-56.49999999999977
 23
-0.59999999999999
 33
0.0
 14
56.50000000000023
 24
-0.59999999999999
 34
0.0
 50
0.0000000000002
100
AcDbRotatedDimension
  0
DIMENSION
  5
BA
330
1F
100
AcDbEntity
  8
1
100
AcDbDimension
  2
*D27
 10
45.00000000000007
 20
13.39801330798447
 30
0.0
 11
10.6340304182512
 21
17.89801330798447
 31
0.0
 70
    32
  1
<>
 71
     5
 42
-1.0
 53
0.00013888888889
  3
ME10_DIM_2
100
AcDbAlignedDimension
 13
-45.0
 23
1.39801330798447
 33
0.0
 14
45.00000000000007
 24
3.39801330798447
 34
0.0
 50
0.0000000000002
100
AcDbRotatedDimension
  0
DIMENSION
  5
C5
330
1F
100
AcDbEntity
  8
1
100
AcDbDimension
  2
*D38
 10
-23.90149999999981
 20
-75.07470532319429
 30
0.0
 11
-0.47262357414426
 21
-70.57470532319429
 31
0.0
 70
    32
  1
6/4"
 71
     5
 42
-1.0
 53
0.00013888888889
  3
ME10_DIM_3
100
AcDbAlignedDimension
 13
23.90150000000023
 23
-57.8900000000001
 33
0.0
 14
-23.9014999999998
 24
-57.8900000000001
 34
0.0
 50
0.0000000000002
100
AcDbRotatedDimension
  0
ENDSEC
  0
SECTION
  2
OBJECTS
  0
DICTIONARY
  5
C
330
0
100
AcDbDictionary
281
     1
  3
ACAD_GROUP
350
D
  3
ACAD_LAYOUT
350
1A
  3
ACAD_MLINESTYLE
350
17
  3
ACAD_PLOTSETTINGS
350
19
  3
ACAD_PLOTSTYLENAME
350
E
  0
DICTIONARY
  5
D
102
{ACAD_REACTORS
330
C
102
}
330
C
100
AcDbDictionary
281
     1
  0
DICTIONARY
  5
1A
102
{ACAD_REACTORS
330
C
102
}
330
C
100
AcDbDictionary
281
     1
  3
Layout1
350
1E
  3
Layout2
350
26
  3
Model
350
22
  0
DICTIONARY
  5
17
102
{ACAD_REACTORS
330
C
102
}
330
C
100
AcDbDictionary
281
     1
  3
Standard
350
18
  0
DICTIONARY
  5
19
102
{ACAD_REACTORS
330
C
102
}
330
C
100
AcDbDictionary
281
     1
  0
ACDBDICTIONARYWDFLT
  5
E
102
{ACAD_REACTORS
330
C
102
}
330
C
100
AcDbDictionary
281
     1
  3
Normal
350
F
100
AcDbDictionaryWithDefault
340
F
  0
LAYOUT
  5
1E
102
{ACAD_REACTORS
330
1A
102
}
330
1A
100
AcDbPlotSettings
  1

  2

  4

  6

 40
0.0
 41
0.0
 42
0.0
 43
0.0
 44
0.0
 45
0.0
 46
0.0
 47
0.0
 48
0.0
 49
0.0
140
0.0
141
0.0
142
1.0
143
1.0
 70
   688
 72
     0
 73
     0
 74
     5
  7

 75
    16
147
1.0
148
0.0
149
0.0
100
AcDbLayout
  1
Layout1
 70
     1
 71
     1
 10
0.0
 20
0.0
 11
0.0
 21
0.0
 12
0.0
 22
0.0
 32
0.0
 14
0.0
 24
0.0
 34
0.0
 15
0.0
 25
0.0
 35
0.0
146
0.0
 13
0.0
 23
0.0
 33
0.0
 16
1.0
 26
0.0
 36
0.0
 17
0.0
 27
1.0
 37
0.0
 76
     0
330
1B
  0
LAYOUT
  5
26
102
{ACAD_REACTORS
330
1A
102
}
330
1A
100
AcDbPlotSettings
  1

  2

  4

  6

 40
0.0
 41
0.0
 42
0.0
 43
0.0
 44
0.0
 45
0.0
 46
0.0
 47
0.0
 48
0.0
 49
0.0
140
0.0
141
0.0
142
1.0
143
1.0
 70
   688
 72
     0
 73
     0
 74
     5
  7

 75
    16
147
1.0
148
0.0
149
0.0
100
AcDbLayout
  1
Layout2
 70
     1
 71
     2
 10
0.0
 20
0.0
 11
0.0
 21
0.0
 12
0.0
 22
0.0
 32
0.0
 14
0.0
 24
0.0
 34
0.0
 15
0.0
 25
0.0
 35
0.0
146
0.0
 13
0.0
 23
0.0
 33
0.0
 16
1.0
 26
0.0
 36
0.0
 17
0.0
 27
1.0
 37
0.0
 76
     0
330
23
  0
LAYOUT
  5
22
102
{ACAD_REACTORS
330
1A
102
}
330
1A
100
AcDbPlotSettings
  1

  2

  4

  6

 40
0.0
 41
0.0
 42
0.0
 43
0.0
 44
0.0
 45
0.0
 46
0.0
 47
0.0
 48
0.0
 49
0.0
140
0.0
141
0.0
142
1.0
143
1.0
 70
  1712
 72
     0
 73
     0
 74
     0
  7

 75
     0
147
1.0
148
0.0
149
0.0
100
AcDbLayout
  1
Model
 70
     1
 71
     0
 10
0.0
 20
0.0
 11
0.0
 21
0.0
 12
0.0
 22
0.0
 32
0.0
 14
-56.49999999999977
 24
-77.07470532319429
 34
0.0
 15
67.5137595057036
 25
29.4902899239541
 35
0.0
146
0.0
 13
0.0
 23
0.0
 33
0.0
 16
1.0
 26
0.0
 36
0.0
 17
0.0
 27
1.0
 37
0.0
 76
     0
330
1F
  0
MLINESTYLE
  5
18
102
{ACAD_REACTORS
330
17
102
}
330
17
100
AcDbMlineStyle
  2
Standard
 70
     0
  3

 62
   256
 51
90.0
 52
90.0
 71
     2
 49
0.5
 62
   256
  6
BYLAYER
 49
-0.5
 62
   256
  6
BYLAYER
  0
ACDBPLACEHOLDER
  5
F
102
{ACAD_REACTORS
330
E
102
}
330
E
  0
ENDSEC
  0
EOF
