  0
SECTION
  2
HEADER
  9
$ACADVER
  1
AC1014
  9
$ACADMAINTVER
 70
             0
  9
$DWGCODEPAGE
  3
ANSI_1252
  9
$INSBASE
 10
0.0
 20
0.0
 30
0.0
  9
$EXTMIN
 10
-534.18251980041532
 20
-487.9434394342552
 30
0.0
  9
$EXTMAX
 10
-404.13616323291302
 20
-323.9434394342552
 30
0.0
  9
$LIMMIN
 10
0.0
 20
0.0
  9
$LIMMAX
 10
0.0
 20
0.0
  9
$ORTHOMODE
 70
             0
  9
$REGENMODE
 70
             1
  9
$FILLMODE
 70
             1
  9
$QTEXTMODE
 70
             0
  9
$MIRRTEXT
 70
             1
  9
$DRAGMODE
 70
             2
  9
$LTSCALE
 40
1.0
  9
$OSMODE
 70
             0
  9
$ATTMODE
 70
             1
  9
$TEXTSIZE
 40
0.2
  9
$TRACEWID
 40
0.05
  9
$TEXTSTYLE
  7
STANDARD
  9
$CLAYER
  8
0
  9
$CELTYPE
  6
CONTINUOUS
  9
$CECOLOR
 62
           256
  9
$CELTSCALE
 40
1.0
  9
$DELOBJ
 70
             1
  9
$DISPSILH
 70
             0
  9
$DIMSCALE
 40
1.0
  9
$DIMASZ
 40
0.18
  9
$DIMEXO
 40
0.0625
  9
$DIMDLI
 40
0.38
  9
$DIMRND
 40
0.0
  9
$DIMDLE
 40
0.0
  9
$DIMEXE
 40
0.18
  9
$DIMTP
 40
0.0
  9
$DIMTM
 40
0.0
  9
$DIMTXT
 40
0.18
  9
$DIMCEN
 40
0.09
  9
$DIMTSZ
 40
0.0
  9
$DIMTOL
 70
             0
  9
$DIMLIM
 70
             0
  9
$DIMTIH
 70
             1
  9
$DIMTOH
 70
             1
  9
$DIMSE1
 70
             0
  9
$DIMSE2
 70
             0
  9
$DIMTAD
 70
             0
  9
$DIMZIN
 70
             0
  9
$DIMBLK
  1

  9
$DIMASO
 70
             1
  9
$DIMSHO
 70
             1
  9
$DIMPOST
  1

  9
$DIMAPOST
  1

  9
$DIMALT
 70
             0
  9
$DIMALTD
 70
             2
  9
$DIMALTF
 40
25.4
  9
$DIMLFAC
 40
1.0
  9
$DIMTOFL
 70
             0
  9
$DIMTVP
 40
0.0
  9
$DIMTIX
 70
             0
  9
$DIMSOXD
 70
             0
  9
$DIMSAH
 70
             0
  9
$DIMBLK1
  1

  9
$DIMBLK2
  1

  9
$DIMSTYLE
  2
STANDARD
  9
$DIMCLRD
 70
             0
  9
$DIMCLRE
 70
             0
  9
$DIMCLRT
 70
             0
  9
$DIMTFAC
 40
1.0
  9
$DIMGAP
 40
0.09
  9
$DIMJUST
 70
             0
  9
$DIMSD1
 70
             0
  9
$DIMSD2
 70
             0
  9
$DIMTOLJ
 70
             1
  9
$DIMTZIN
 70
             0
  9
$DIMALTZ
 70
             0
  9
$DIMALTTZ
 70
             0
  9
$DIMFIT
 70
             3
  9
$DIMUPT
 70
             0
  9
$DIMUNIT
 70
             2
  9
$DIMDEC
 70
             4
  9
$DIMTDEC
 70
             4
  9
$DIMALTU
 70
             2
  9
$DIMALTTD
 70
             2
  9
$DIMTXSTY
  7
STANDARD
  9
$DIMAUNIT
 70
             0
  9
$LUNITS
 70
             2
  9
$LUPREC
 70
             4
  9
$SKETCHINC
 40
0.1
  9
$FILLETRAD
 40
0.0
  9
$AUNITS
 70
             0
  9
$AUPREC
 70
             0
  9
$MENU
  1
acad
  9
$ELEVATION
 40
0.0
  9
$PELEVATION
 40
0.0
  9
$THICKNESS
 40
0.0
  9
$LIMCHECK
 70
             0
  9
$BLIPMODE
 70
             1
  9
$CHAMFERA
 40
0.0
  9
$CHAMFERB
 40
0.0
  9
$CHAMFERC
 40
0.0
  9
$CHAMFERD
 40
0.0
  9
$SKPOLY
 70
             0
  9
$TDCREATE
 40
0.000000000
  9
$TDUPDATE
 40
0.000000000
  9
$TDINDWG
 40
0.0000000000
  9
$TDUSRTIMER
 40
0.0000000000
  9
$USRTIMER
 70
             1
  9
$ANGBASE
 50
0.0
  9
$ANGDIR
 70
             0
  9
$PDMODE
 70
             0
  9
$PDSIZE
 40
0.0
  9
$PLINEWID
 40
0.0
  9
$COORDS
 70
             0
  9
$SPLFRAME
 70
             0
  9
$SPLINETYPE
 70
             6
  9
$SPLINESEGS
 70
             8
  9
$ATTDIA
 70
             0
  9
$ATTREQ
 70
             1
  9
$HANDLING
 70
             1
  9
$HANDSEED
  5
11F
  9
$SURFTAB1
 70
             6
  9
$SURFTAB2
 70
             6
  9
$SURFTYPE
 70
             6
  9
$SURFU
 70
             6
  9
$SURFV
 70
             6
  9
$UCSNAME
  2

  9
$UCSORG
 10
0.0
 20
0.0
 30
0.0
  9
$UCSXDIR
 10
1.0
 20
0.0
 30
0.0
  9
$UCSYDIR
 10
0.0
 20
1.0
 30
0.0
  9
$PUCSNAME
  2

  9
$PUCSORG
 10
0.0
 20
0.0
 30
0.0
  9
$PUCSXDIR
 10
1.0
 20
0.0
 30
0.0
  9
$PUCSYDIR
 10
0.0
 20
1.0
 30
0.0
  9
$USERI1
 70
             0
  9
$USERI2
 70
             0
  9
$USERI3
 70
             0
  9
$USERI4
 70
             0
  9
$USERI5
 70
             0
  9
$USERR1
 40
12.01
  9
$USERR2
 40
0.0
  9
$USERR3
 40
0.0
  9
$USERR4
 40
0.0
  9
$USERR5
 40
0.0
  9
$WORLDVIEW
 70
             1
  9
$SHADEDGE
 70
             3
  9
$SHADEDIF
 70
            70
  9
$TILEMODE
 70
             1
  9
$MAXACTVP
 70
            16
  9
$PINSBASE
 10
0.0
 20
0.0
 30
0.0
  9
$PLIMCHECK
 70
             0
  9
$PEXTMIN
 10
1.00000000000000E+20
 20
1.00000000000000E+20
 30
1.00000000000000E+20
  9
$PEXTMAX
 10
-1.00000000000000E+20
 20
-1.00000000000000E+20
 30
-1.00000000000000E+20
  9
$PLIMMIN
 10
0.0
 20
0.0
  9
$PLIMMAX
 10
12.0
 20
9.0
  9
$UNITMODE
 70
             0
  9
$VISRETAIN
 70
             0
  9
$PLINEGEN
 70
             1
  9
$PSLTSCALE
 70
             0
  9
$TREEDEPTH
 70
          3020
  9
$PICKSTYLE
 70
             1
  9
$CMLSTYLE
  2
STANDARD
  9
$CMLJUST
 70
             0
  9
$CMLSCALE
 40
1.0
  9
$PROXYGRAPHICS
 70
             0
  9
$MEASUREMENT
 70
             1
  0
ENDSEC
  0
SECTION
  2
CLASSES
  0
CLASS
  1
LWPOLYLINE
  2
AcDbPolyline
  3
"AutoCAD"
 90
        0
280
             0
281
             1
  0
CLASS
  1
IMAGE
  2
AcDbRasterImage
  3
ISM
 90
      127
280
             0
281
             1
  0
CLASS
  1
OLE2FRAME
  2
AcDbOle2Frame
  3
""
 90
        0
280
             0
281
             1
  0
CLASS
  1
HATCH
  2
AcDbHatch
  3
"ACAD_SEDONA"
 90
        0
280
             0
281
             1
  0
CLASS
  1
DICTIONARYVAR
  2
AcDbDictionaryVar
  3
"AutoCAD"
 90
        0
280
             0
281
             0
  0
CLASS
  1
RASTERVARIABLES
  2
AcDbRasterVariables
  3
ISM
 90
        0
280
             0
281
             0
  0
CLASS
  1
IMAGEDEF
  2
AcDbRasterImageDef
  3
ISM
 90
        0
280
             0
281
             0
  0
CLASS
  1
IMAGEDEF_REACTOR
  2
AcDbRasterImageDefReactor
  3
ISM
 90
        1
280
             0
281
             0
  0
CLASS
  1
IDBUFFER
  2
AcDbIdBuffer
  3
"Acad"
 90
        0
280
             0
281
             0
  0
CLASS
  1
SPATIAL_FILTER
  2
AcDbSpatialFilter
  3
"Acad"
 90
        0
280
             0
281
             0
  0
CLASS
  1
XRECORD
  2
AcDbXrecord
  3
"<Built In>"
 90
        0
280
             0
281
             0
  0
CLASS
  1
SORTENTSTABLE
  2
AcDbSortentsTable
  3
"AutoCAD"
 90
        0
280
             0
281
             0
  0
CLASS
  1
LAYER_INDEX
  2
AcDbLayerIndex
  3
"Acad"
 90
        0
280
             0
281
             0
  0
CLASS
  1
SPATIAL_INDEX
  2
AcDbSpatialIndex
  3
"Acad"
 90
        0
280
             0
281
             0
  0
CLASS
  1
OBJECT_PTR
  2
CAseDLPNTableRecord
  3
"ASE-LPNTableRecord"
 90
        1
280
             0
281
             0
  0
CLASS
  1
LAYOUT
  2
AcDbLayout
  3
"AutoCAD 2000"
 90
        0
280
             0
281
             0
  0
CLASS
  1
PLOTSETTINGS
  2
AcDbPlotSettings
  3
"AutoCAD 2000"
 90
        0
280
             0
281
             0
  0
CLASS
  1
ACDBDICTIONARYWDFLT
  2
AcDbDictionaryWithDefault
  3
"AutoCAD 2000"
 90
        0
280
             0
281
             0
  0
CLASS
  1
ACDBPLACEHOLDER
  2
AcDbPlaceHolder
  3
"AutoCAD 2000"
 90
        0
280
             0
281
             0
  0
ENDSEC
  0
SECTION
  2
TABLES
  0
TABLE
  2
VPORT
  5
7
100
AcDbSymbolTable
 70
             1
  0
VPORT
  5
15
100
AcDbSymbolTableRecord
100
AcDbViewportTableRecord
  2
*ACTIVE
 70
             0
 10
0.0
 20
0.0
 11
1.0
 21
1.0
 12
-469.1593415166642
 22
-405.9434394342552
 13
0.0
 23
0.0
 14
1.0
 24
1.0
 15
0.0
 25
0.0
 16
0.0
 26
0.0
 36
1.0
 17
0.0
 27
0.0
 37
0.0
 40
180.40000000000001
 41
1.60267857142857
 42
50.0
 43
0.0
 44
0.0
 50
0.0
 51
0.0
 71
             0
 72
           100
 73
             1
 74
             1
 75
             0
 76
             0
 77
             0
 78
             0
  0
ENDTAB
  0
TABLE
  2
LTYPE
  5
4
100
AcDbSymbolTable
 70
            10
  0
LTYPE
  5
11
100
AcDbSymbolTableRecord
100
AcDbLinetypeTableRecord
  2
BYBLOCK
 70
            64
  3

 72
            65
 73
             0
 40
0.0
  0
LTYPE
  5
12
100
AcDbSymbolTableRecord
100
AcDbLinetypeTableRecord
  2
BYLAYER
 70
            64
  3

 72
            65
 73
             0
 40
0.0
  0
LTYPE
  5
13
100
AcDbSymbolTableRecord
100
AcDbLinetypeTableRecord
  2
CONTINUOUS
 70
            64
  3
Solid line
 72
            65
 73
             0
 40
0.0
  0
LTYPE
  5
1D
100
AcDbSymbolTableRecord
100
AcDbLinetypeTableRecord
  2
DASHED
 70
            64
  3
Dashed
 72
            65
 73
             2
 40
15.0
 49
7.0
 74
             0
 49
-8.0
 74
             0
  0
LTYPE
  5
1E
100
AcDbSymbolTableRecord
100
AcDbLinetypeTableRecord
  2
DOTTED
 70
            64
  3
Dotted
 72
            65
 73
             2
 40
1.0
 49
0.0
 74
             0
 49
-1.0
 74
             0
  0
LTYPE
  5
1F
100
AcDbSymbolTableRecord
100
AcDbLinetypeTableRecord
  2
DOT_CENTER
 70
            64
  3
Dot_Center
 72
            65
 73
             4
 40
14.0
 49
12.0
 74
             0
 49
-1.0
 74
             0
 49
0.0
 74
             0
 49
-1.0
 74
             0
  0
LTYPE
  5
20
100
AcDbSymbolTableRecord
100
AcDbLinetypeTableRecord
  2
LONG_DASHED
 70
            64
  3
Long_Dashed
 72
            65
 73
             2
 40
15.0
 49
10.0
 74
             0
 49
-5.0
 74
             0
  0
LTYPE
  5
21
100
AcDbSymbolTableRecord
100
AcDbLinetypeTableRecord
  2
DASH_CENTER
 70
            64
  3
Dash_Center
 72
            65
 73
             4
 40
14.0
 49
11.0
 74
             0
 49
-1.0
 74
             0
 49
1.0
 74
             0
 49
-1.0
 74
             0
  0
LTYPE
  5
22
100
AcDbSymbolTableRecord
100
AcDbLinetypeTableRecord
  2
PHANTOM
 70
            64
  3
Phantom
 72
            65
 73
             6
 40
13.0
 49
10.0
 74
             0
 49
-1.0
 74
             0
 49
0.0
 74
             0
 49
-1.0
 74
             0
 49
0.0
 74
             0
 49
-1.0
 74
             0
  0
LTYPE
  5
23
100
AcDbSymbolTableRecord
100
AcDbLinetypeTableRecord
  2
CENTER_DASH_DASH
 70
            64
  3
Center_Dash_Dash
 72
            65
 73
             6
 40
14.0
 49
9.0
 74
             0
 49
-1.0
 74
             0
 49
1.0
 74
             0
 49
-1.0
 74
             0
 49
1.0
 74
             0
 49
-1.0
 74
             0
  0
ENDTAB
  0
TABLE
  2
LAYER
  5
2
100
AcDbSymbolTable
 70
             2
  0
LAYER
  5
14
100
AcDbSymbolTableRecord
100
AcDbLayerTableRecord
  2
0
 70
             0
 62
             7
  6
CONTINUOUS
  0
LAYER
  5
24
100
AcDbSymbolTableRecord
100
AcDbLayerTableRecord
  2
1
 70
             0
 62
             7
  6
CONTINUOUS
  0
ENDTAB
  0
TABLE
  2
STYLE
  5
3
100
AcDbSymbolTable
 70
             2
  0
STYLE
  5
17
100
AcDbSymbolTableRecord
100
AcDbTextStyleTableRecord
  2
STANDARD
 70
             0
 40
0.0
 41
1.0
 50
0.0
 71
             0
 42
0.0
  3
txt
  4

  0
STYLE
  5
10C
100
AcDbSymbolTableRecord
100
AcDbTextStyleTableRecord
  2
CONVERTER_1
 70
             0
 40
0.0
 41
0.9
 50
0.0
 71
             0
 42
0.0
  3
txt.shx
  4

  0
ENDTAB
  0
TABLE
  2
VIEW
  5
5
100
AcDbSymbolTable
 70
             0
  0
ENDTAB
  0
TABLE
  2
UCS
  5
6
100
AcDbSymbolTable
 70
             0
  0
ENDTAB
  0
TABLE
  2
APPID
  5
8
100
AcDbSymbolTable
 70
             1
  0
APPID
  5
16
100
AcDbSymbolTableRecord
100
AcDbRegAppTableRecord
  2
ACAD
 70
             0
  0
ENDTAB
  0
TABLE
  2
DIMSTYLE
  5
9
100
AcDbSymbolTable
 70
             3
  0
DIMSTYLE
105
18
100
AcDbSymbolTableRecord
100
AcDbDimStyleTableRecord
  2
STANDARD
 70
             0
  3

  4

  5

  6

  7

 40
1.0
 41
0.18
 42
0.0625
 43
0.38
 44
0.18
 45
0.0
 46
0.0
 47
0.0
 48
0.0
 71
             0
 72
             0
 73
             1
 74
             1
 75
             0
 76
             0
 77
             0
 78
             0
140
0.18
141
0.09
142
0.0
143
25.4
144
1.0
145
0.0
146
1.0
147
0.09
170
             0
171
             2
172
             0
173
             0
174
             0
175
             0
176
             0
177
             0
178
             0
270
             2
271
             4
272
             4
273
             2
274
             2
275
             0
280
             0
281
             0
282
             0
283
             1
284
             0
285
             0
286
             0
287
             3
288
             0
340
17
  0
DIMSTYLE
105
10F
100
AcDbSymbolTableRecord
100
AcDbDimStyleTableRecord
  2
ME10_DIM_0
 70
             0
  3
x115
  4

  5

  6

  7

 40
1.0
 41
7.0
 42
0.0
 43
0.38
 44
2.0
 45
0.0
 46
0.0
 47
0.0
 48
0.0
 71
             0
 72
             0
 73
             0
 74
             0
 75
             0
 76
             0
 77
             1
 78
             8
140
7.0
141
0.09
142
0.0
143
25.4
144
1.0
145
0.0
146
1.0
147
0.625
170
             0
171
             2
172
             1
173
             1
174
             0
175
             0
176
             4
177
             4
178
             1
270
             2
271
             2
272
             4
273
             2
274
             2
275
             0
280
             0
281
             0
282
             0
283
             1
284
             0
285
             0
286
             0
287
             3
288
             0
340
10C
  0
DIMSTYLE
105
11C
100
AcDbSymbolTableRecord
100
AcDbDimStyleTableRecord
  2
ME10_DIM_1
 70
             0
  3

  4

  5

  6

  7

 40
1.0
 41
7.0
 42
0.0
 43
0.38
 44
2.0
 45
0.0
 46
0.0
 47
0.0
 48
0.0
 71
             0
 72
             0
 73
             0
 74
             0
 75
             0
 76
             0
 77
             1
 78
             8
140
7.0
141
0.09
142
0.0
143
25.4
144
1.0
145
0.0
146
1.0
147
0.625
170
             0
171
             2
172
             1
173
             1
174
             0
175
             0
176
             4
177
             4
178
             1
270
             2
271
             2
272
             4
273
             2
274
             2
275
             0
280
             0
281
             0
282
             0
283
             1
284
             0
285
             0
286
             0
287
             3
288
             0
340
10C
  0
ENDTAB
  0
TABLE
  2
BLOCK_RECORD
  5
1
100
AcDbSymbolTable
 70
             4
  0
BLOCK_RECORD
  5
A
100
AcDbSymbolTableRecord
100
AcDbBlockTableRecord
  2
*MODEL_SPACE
  0
BLOCK_RECORD
  5
B
100
AcDbSymbolTableRecord
100
AcDbBlockTableRecord
  2
*PAPER_SPACE
  0
BLOCK_RECORD
  5
25
100
AcDbSymbolTableRecord
100
AcDbBlockTableRecord
  2
EINLAUFROST_115X115__1
  0
BLOCK_RECORD
  5
27
100
AcDbSymbolTableRecord
100
AcDbBlockTableRecord
  2
EINLAUFROST_115X115__2
  0
BLOCK_RECORD
  5
105
100
AcDbSymbolTableRecord
100
AcDbBlockTableRecord
  2
*D2
  0
BLOCK_RECORD
  5
111
100
AcDbSymbolTableRecord
100
AcDbBlockTableRecord
  2
*D3
  0
ENDTAB
  0
ENDSEC
  0
SECTION
  2
BLOCKS
  0
BLOCK
  5
D
100
AcDbEntity
  8
0
100
AcDbBlockBegin
  2
*MODEL_SPACE
 70
             0
 10
0.0
 20
0.0
 30
0.0
  3
*MODEL_SPACE
  1

  0
ENDBLK
  5
E
100
AcDbEntity
  8
0
100
AcDbBlockEnd
  0
BLOCK
  5
F
100
AcDbEntity
 67
             1
  8
0
100
AcDbBlockBegin
  2
*PAPER_SPACE
 70
             0
 10
0.0
 20
0.0
 30
0.0
  3
*PAPER_SPACE
  1

  0
ENDBLK
  5
10
100
AcDbEntity
 67
             1
  8
0
100
AcDbBlockEnd
  0
BLOCK
  5
26
100
AcDbEntity
  8
0
100
AcDbBlockBegin
  2
EINLAUFROST_115X115__1
 70
             0
 10
-40.22302152774864
 20
-149.44838038464511
 30
0.0
  3
EINLAUFROST_115X115__1
  1

  0
HATCH
  5
6E
100
AcDbEntity
  8
1
  6
CONTINUOUS
 62
             3
100
AcDbHatch
 10
0.0
 20
0.0
 30
0.0
210
0.0
220
0.0
230
1.0
  2
USER
 70
             0
 71
             1
 91
        1
 92
        1
 93
       12
 72
             2
 10
-532.18251980041532
 20
-342.9434394342552
 40
2.0
 50
-180.0
 51
-90.0
 73
             0
 72
             1
 10
-532.18251980041532
 20
-340.9434394342552
 11
-530.18251980041532
 21
-340.9434394342552
 72
             2
 10
-530.18251980041532
 20
-342.9434394342552
 40
2.0
 50
-90.0
 51
0.0
 73
             0
 72
             1
 10
-528.18251980041532
 20
-342.9434394342552
 11
-528.18251980041532
 21
-344.4434394342552
 72
             1
 10
-528.18251980041532
 20
-344.4434394342552
 11
-529.68251980041532
 21
-344.4434394342552
 72
             1
 10
-529.68251980041532
 20
-344.4434394342552
 11
-529.68251980041532
 21
-342.9434394342552
 72
             2
 10
-530.18251980041532
 20
-342.9434394342552
 40
0.5
 50
0.0
 51
90.0
 73
             1
 72
             1
 10
-530.18251980041532
 20
-342.4434394342552
 11
-532.18251980041532
 21
-342.4434394342552
 72
             2
 10
-532.18251980041532
 20
-342.9434394342552
 40
0.5
 50
90.0
 51
180.0
 73
             1
 72
             1
 10
-532.68251980041532
 20
-342.9434394342552
 11
-532.68251980041532
 21
-345.9434394342552
 72
             1
 10
-532.68251980041532
 20
-345.9434394342552
 11
-534.18251980041532
 21
-345.9434394342552
 72
             1
 10
-534.18251980041532
 20
-345.9434394342552
 11
-534.18251980041532
 21
-342.9434394342552
 97
       12
330
6A
330
54
330
63
330
49
330
50
330
51
330
67
330
57
330
6B
330
59
330
5A
330
53
 75
             1
 76
             0
 52
45.0
 41
1.0
 77
             0
 78
             1
 53
45.0
 43
0.0
 44
0.0
 45
-0.7071067811865475
 46
0.7071067811865476
 79
             0
 98
        1
 10
0.0
 20
0.0
  0
HATCH
  5
6D
100
AcDbEntity
  8
1
  6
CONTINUOUS
 62
             3
100
AcDbHatch
 10
0.0
 20
0.0
 30
0.0
210
0.0
220
0.0
230
1.0
  2
USER
 70
             0
 71
             1
 91
        1
 92
        1
 93
       12
 72
             1
 10
-428.18251980041532
 20
-340.9434394342552
 11
-421.18251980041532
 21
-340.9434394342552
 72
             2
 10
-421.18251980041532
 20
-342.9434394342552
 40
2.0
 50
-90.0
 51
0.0
 73
             0
 72
             1
 10
-419.18251980041532
 20
-342.9434394342552
 11
-419.18251980041532
 21
-345.9434394342552
 72
             1
 10
-419.18251980041532
 20
-345.9434394342552
 11
-420.68251980041532
 21
-345.9434394342552
 72
             1
 10
-420.68251980041532
 20
-345.9434394342552
 11
-420.68251980041532
 21
-342.9434394342552
 72
             2
 10
-421.18251980041532
 20
-342.9434394342552
 40
0.5
 50
0.0
 51
90.0
 73
             1
 72
             1
 10
-421.18251980041532
 20
-342.4434394342552
 11
-428.18251980041532
 21
-342.4434394342552
 72
             2
 10
-428.18251980041532
 20
-342.9434394342552
 40
0.5
 50
90.0
 51
180.0
 73
             1
 72
             1
 10
-428.68251980041532
 20
-342.9434394342552
 11
-428.68251980041532
 21
-344.4434394342552
 72
             1
 10
-428.68251980041532
 20
-344.4434394342552
 11
-430.18251980041532
 21
-344.4434394342552
 72
             1
 10
-430.18251980041532
 20
-344.4434394342552
 11
-430.18251980041532
 21
-342.9434394342552
 72
             2
 10
-428.18251980041532
 20
-342.9434394342552
 40
2.0
 50
-180.0
 51
-90.0
 73
             0
 97
       12
330
37
330
69
330
5B
330
55
330
56
330
68
330
3D
330
64
330
4A
330
3F
330
40
330
60
 75
             1
 76
             0
 52
45.0
 41
1.0
 77
             0
 78
             1
 53
45.0
 43
0.0
 44
0.0
 45
-0.7071067811865475
 46
0.7071067811865476
 79
             0
 98
        1
 10
0.0
 20
0.0
  0
HATCH
  5
6C
100
AcDbEntity
  8
1
  6
CONTINUOUS
 62
             3
100
AcDbHatch
 10
0.0
 20
0.0
 30
0.0
210
0.0
220
0.0
230
1.0
  2
USER
 70
             0
 71
             1
 91
        1
 92
        1
 93
       12
 72
             1
 10
-453.18251980041532
 20
-342.9434394342552
 11
-453.18251980041532
 21
-344.4434394342552
 72
             1
 10
-453.18251980041532
 20
-344.4434394342552
 11
-454.68251980041532
 21
-344.4434394342552
 72
             1
 10
-454.68251980041532
 20
-344.4434394342552
 11
-454.68251980041532
 21
-342.9434394342552
 72
             2
 10
-455.18251980041532
 20
-342.9434394342552
 40
0.5
 50
0.0
 51
90.0
 73
             1
 72
             1
 10
-455.18251980041532
 20
-342.4434394342552
 11
-493.18251980041532
 21
-342.4434394342552
 72
             2
 10
-493.18251980041532
 20
-342.9434394342552
 40
0.5
 50
90.0
 51
180.0
 73
             1
 72
             1
 10
-493.68251980041532
 20
-342.9434394342552
 11
-493.68251980041532
 21
-344.4434394342552
 72
             1
 10
-493.68251980041532
 20
-344.4434394342552
 11
-495.18251980041532
 21
-344.4434394342552
 72
             1
 10
-495.18251980041532
 20
-344.4434394342552
 11
-495.18251980041532
 21
-342.9434394342552
 72
             2
 10
-493.18251980041532
 20
-342.9434394342552
 40
2.0
 50
-180.0
 51
-90.0
 73
             0
 72
             1
 10
-493.18251980041532
 20
-340.9434394342552
 11
-455.18251980041532
 21
-340.9434394342552
 72
             2
 10
-455.18251980041532
 20
-342.9434394342552
 40
2.0
 50
-90.0
 51
0.0
 73
             0
 97
       12
330
44
330
4D
330
4C
330
65
330
4E
330
66
330
4F
330
45
330
46
330
62
330
39
330
61
 75
             1
 76
             0
 52
45.0
 41
1.0
 77
             0
 78
             1
 53
45.0
 43
0.0
 44
0.0
 45
-0.7071067811865475
 46
0.7071067811865476
 79
             0
 98
        1
 10
0.0
 20
0.0
  0
ARC
  5
6B
102
{ACAD_REACTORS
330
6E
102
}
100
AcDbEntity
  8
1
  6
CONTINUOUS
 62
             7
100
AcDbCircle
 10
-532.18251980041532
 20
-342.9434394342552
 40
0.5
100
AcDbArc
 50
90.0
 51
180.0
  0
ARC
  5
6A
102
{ACAD_REACTORS
330
6E
102
}
100
AcDbEntity
  8
1
  6
CONTINUOUS
 62
             7
100
AcDbCircle
 10
-532.18251980041532
 20
-342.9434394342552
 40
2.0
100
AcDbArc
 50
90.0
 51
180.0
  0
ARC
  5
69
102
{ACAD_REACTORS
330
6D
102
}
100
AcDbEntity
  8
1
  6
CONTINUOUS
 62
             7
100
AcDbCircle
 10
-421.18251980041532
 20
-342.9434394342552
 40
2.0
100
AcDbArc
 50
0.0
 51
90.0
  0
ARC
  5
68
102
{ACAD_REACTORS
330
6D
102
}
100
AcDbEntity
  8
1
  6
CONTINUOUS
 62
             7
100
AcDbCircle
 10
-421.18251980041532
 20
-342.9434394342552
 40
0.5
100
AcDbArc
 50
0.0
 51
90.0
  0
ARC
  5
67
102
{ACAD_REACTORS
330
6E
102
}
100
AcDbEntity
  8
1
  6
CONTINUOUS
 62
             7
100
AcDbCircle
 10
-530.18251980041532
 20
-342.9434394342552
 40
0.5
100
AcDbArc
 50
0.0
 51
90.0
  0
ARC
  5
66
102
{ACAD_REACTORS
330
6C
102
}
100
AcDbEntity
  8
1
  6
CONTINUOUS
 62
             7
100
AcDbCircle
 10
-493.18251980041532
 20
-342.9434394342552
 40
0.5
100
AcDbArc
 50
90.0
 51
180.0
  0
ARC
  5
65
102
{ACAD_REACTORS
330
6C
102
}
100
AcDbEntity
  8
1
  6
CONTINUOUS
 62
             7
100
AcDbCircle
 10
-455.18251980041532
 20
-342.9434394342552
 40
0.5
100
AcDbArc
 50
0.0
 51
90.0
  0
ARC
  5
64
102
{ACAD_REACTORS
330
6D
102
}
100
AcDbEntity
  8
1
  6
CONTINUOUS
 62
             7
100
AcDbCircle
 10
-428.18251980041532
 20
-342.9434394342552
 40
0.5
100
AcDbArc
 50
90.0
 51
180.0
  0
ARC
  5
63
102
{ACAD_REACTORS
330
6E
102
}
100
AcDbEntity
  8
1
  6
CONTINUOUS
 62
             7
100
AcDbCircle
 10
-530.18251980041532
 20
-342.9434394342552
 40
2.0
100
AcDbArc
 50
0.0
 51
90.0
  0
ARC
  5
62
102
{ACAD_REACTORS
330
6C
102
}
100
AcDbEntity
  8
1
  6
CONTINUOUS
 62
             7
100
AcDbCircle
 10
-493.18251980041532
 20
-342.9434394342552
 40
2.0
100
AcDbArc
 50
90.0
 51
180.0
  0
ARC
  5
61
102
{ACAD_REACTORS
330
6C
102
}
100
AcDbEntity
  8
1
  6
CONTINUOUS
 62
             7
100
AcDbCircle
 10
-455.18251980041532
 20
-342.9434394342552
 40
2.0
100
AcDbArc
 50
0.0
 51
90.0
  0
ARC
  5
60
102
{ACAD_REACTORS
330
6D
102
}
100
AcDbEntity
  8
1
  6
CONTINUOUS
 62
             7
100
AcDbCircle
 10
-428.18251980041532
 20
-342.9434394342552
 40
2.0
100
AcDbArc
 50
90.0
 51
180.0
  0
XLINE
  5
5F
100
AcDbEntity
  8
1
  6
DOT_CENTER
 62
             3
 60
             1
100
AcDbXline
 10
-476.68251980041532
 20
-322.13804583843
 30
0.0
 11
0.0
 21
1.0
 31
0.0
  0
XLINE
  5
5E
100
AcDbEntity
  8
1
  6
DOT_CENTER
 62
             3
 60
             1
100
AcDbXline
 10
-476.68251980041532
 20
-322.13804583843
 30
0.0
 11
0.0
 21
1.0
 31
0.0
  0
XLINE
  5
5D
100
AcDbEntity
  8
1
  6
DOT_CENTER
 62
             3
 60
             1
100
AcDbXline
 10
-476.68251980041532
 20
-312.20979957594602
 30
0.0
 11
0.0
 21
1.0
 31
0.0
  0
XLINE
  5
5C
100
AcDbEntity
  8
1
  6
DOT_CENTER
 62
             3
 60
             1
100
AcDbXline
 10
-449.0
 20
-302.0
 30
0.0
 11
0.0
 21
1.0
 31
0.0
  0
LINE
  5
5B
102
{ACAD_REACTORS
330
6D
102
}
100
AcDbEntity
  8
0
  6
CONTINUOUS
 62
             7
100
AcDbLine
 10
-419.18251980041532
 20
-345.9434394342552
 11
-419.18251980041532
 21
-342.9434394342552
  0
LINE
  5
5A
102
{ACAD_REACTORS
330
6E
102
}
100
AcDbEntity
  8
0
  6
CONTINUOUS
 62
             7
100
AcDbLine
 10
-534.18251980041532
 20
-345.9434394342552
 11
-532.68251980041532
 21
-345.9434394342552
  0
LINE
  5
59
102
{ACAD_REACTORS
330
6E
102
}
100
AcDbEntity
  8
1
  6
CONTINUOUS
 62
             7
100
AcDbLine
 10
-532.68251980041532
 20
-345.9434394342552
 11
-532.68251980041532
 21
-342.9434394342552
  0
LINE
  5
58
100
AcDbEntity
  8
0
  6
CONTINUOUS
 62
             7
100
AcDbLine
 10
-532.68251980041532
 20
-345.9434394342552
 11
-420.68251980041532
 21
-345.9434394342552
  0
LINE
  5
57
102
{ACAD_REACTORS
330
6E
102
}
100
AcDbEntity
  8
1
  6
CONTINUOUS
 62
             7
100
AcDbLine
 10
-532.18251980041532
 20
-342.4434394342552
 11
-530.18251980041532
 21
-342.4434394342552
  0
LINE
  5
56
102
{ACAD_REACTORS
330
6D
102
}
100
AcDbEntity
  8
1
  6
CONTINUOUS
 62
             7
100
AcDbLine
 10
-420.68251980041532
 20
-342.9434394342552
 11
-420.68251980041532
 21
-345.9434394342552
  0
LINE
  5
55
102
{ACAD_REACTORS
330
6D
102
}
100
AcDbEntity
  8
0
  6
CONTINUOUS
 62
             7
100
AcDbLine
 10
-420.68251980041532
 20
-345.9434394342552
 11
-419.18251980041532
 21
-345.9434394342552
  0
LINE
  5
54
102
{ACAD_REACTORS
330
6E
102
}
100
AcDbEntity
  8
1
  6
CONTINUOUS
 62
             7
100
AcDbLine
 10
-532.18251980041532
 20
-340.9434394342552
 11
-530.18251980041532
 21
-340.9434394342552
  0
LINE
  5
53
102
{ACAD_REACTORS
330
6E
102
}
100
AcDbEntity
  8
0
  6
CONTINUOUS
 62
             7
100
AcDbLine
 10
-534.18251980041532
 20
-342.9434394342552
 11
-534.18251980041532
 21
-345.9434394342552
  0
LINE
  5
52
100
AcDbEntity
  8
1
  6
PHANTOM
 62
             2
100
AcDbLine
 10
-476.68251980041532
 20
-339.20979957594602
 11
-476.68251980041532
 21
-349.13804583843
  0
LINE
  5
51
102
{ACAD_REACTORS
330
6E
102
}
100
AcDbEntity
  8
1
  6
CONTINUOUS
 62
             7
100
AcDbLine
 10
-529.68251980041532
 20
-342.9434394342552
 11
-529.68251980041532
 21
-344.4434394342552
  0
LINE
  5
50
102
{ACAD_REACTORS
330
6E
102
}
100
AcDbEntity
  8
1
  6
CONTINUOUS
 62
             7
100
AcDbLine
 10
-529.68251980041532
 20
-344.4434394342552
 11
-528.18251980041532
 21
-344.4434394342552
  0
LINE
  5
4F
102
{ACAD_REACTORS
330
6C
102
}
100
AcDbEntity
  8
1
  6
CONTINUOUS
 62
             7
100
AcDbLine
 10
-493.68251980041532
 20
-344.4434394342552
 11
-493.68251980041532
 21
-342.9434394342552
  0
LINE
  5
4E
102
{ACAD_REACTORS
330
6C
102
}
100
AcDbEntity
  8
1
  6
CONTINUOUS
 62
             7
100
AcDbLine
 10
-493.18251980041532
 20
-342.4434394342552
 11
-455.18251980041532
 21
-342.4434394342552
  0
LINE
  5
4D
102
{ACAD_REACTORS
330
6C
102
}
100
AcDbEntity
  8
1
  6
CONTINUOUS
 62
             7
100
AcDbLine
 10
-454.68251980041532
 20
-344.4434394342552
 11
-453.18251980041532
 21
-344.4434394342552
  0
LINE
  5
4C
102
{ACAD_REACTORS
330
6C
102
}
100
AcDbEntity
  8
1
  6
CONTINUOUS
 62
             7
100
AcDbLine
 10
-454.68251980041532
 20
-342.9434394342552
 11
-454.68251980041532
 21
-344.4434394342552
  0
LINE
  5
4B
100
AcDbEntity
  8
1
  6
CONTINUOUS
 62
             7
100
AcDbLine
 10
-454.68251980041532
 20
-344.4434394342552
 11
-453.18251980041532
 21
-344.4434394342552
  0
LINE
  5
4A
102
{ACAD_REACTORS
330
6D
102
}
100
AcDbEntity
  8
1
  6
CONTINUOUS
 62
             7
100
AcDbLine
 10
-428.68251980041532
 20
-344.4434394342552
 11
-428.68251980041532
 21
-342.9434394342552
  0
LINE
  5
49
102
{ACAD_REACTORS
330
6E
102
}
100
AcDbEntity
  8
1
  6
CONTINUOUS
 62
             7
100
AcDbLine
 10
-528.18251980041532
 20
-344.4434394342552
 11
-528.18251980041532
 21
-342.9434394342552
  0
LINE
  5
48
100
AcDbEntity
  8
1
  6
CONTINUOUS
 62
             7
100
AcDbLine
 10
-527.68251980041532
 20
-342.9434394342552
 11
-495.68251980041532
 21
-342.9434394342552
  0
LINE
  5
47
100
AcDbEntity
  8
1
  6
CONTINUOUS
 62
             7
100
AcDbLine
 10
-528.18251980041532
 20
-344.4434394342552
 11
-495.18251980041532
 21
-344.4434394342552
  0
LINE
  5
46
102
{ACAD_REACTORS
330
6C
102
}
100
AcDbEntity
  8
1
  6
CONTINUOUS
 62
             7
100
AcDbLine
 10
-495.18251980041532
 20
-342.9434394342552
 11
-495.18251980041532
 21
-344.4434394342552
  0
LINE
  5
45
102
{ACAD_REACTORS
330
6C
102
}
100
AcDbEntity
  8
1
  6
CONTINUOUS
 62
             7
100
AcDbLine
 10
-495.18251980041532
 20
-344.4434394342552
 11
-493.68251980041532
 21
-344.4434394342552
  0
LINE
  5
44
102
{ACAD_REACTORS
330
6C
102
}
100
AcDbEntity
  8
1
  6
CONTINUOUS
 62
             7
100
AcDbLine
 10
-453.18251980041532
 20
-342.9434394342552
 11
-453.18251980041532
 21
-344.4434394342552
  0
LINE
  5
43
100
AcDbEntity
  8
1
  6
CONTINUOUS
 62
             7
100
AcDbLine
 10
-452.68251980041532
 20
-342.9434394342552
 11
-430.68251980041532
 21
-342.9434394342552
  0
LINE
  5
42
100
AcDbEntity
  8
1
  6
CONTINUOUS
 62
             7
100
AcDbLine
 10
-453.18251980041532
 20
-344.4434394342552
 11
-430.18251980041532
 21
-344.4434394342552
  0
LINE
  5
41
100
AcDbEntity
  8
1
  6
CONTINUOUS
 62
             7
100
AcDbLine
 10
-453.18251980041532
 20
-344.4434394342552
 11
-430.18251980041532
 21
-344.4434394342552
  0
LINE
  5
40
102
{ACAD_REACTORS
330
6D
102
}
100
AcDbEntity
  8
1
  6
CONTINUOUS
 62
             7
100
AcDbLine
 10
-430.18251980041532
 20
-342.9434394342552
 11
-430.18251980041532
 21
-344.4434394342552
  0
LINE
  5
3F
102
{ACAD_REACTORS
330
6D
102
}
100
AcDbEntity
  8
1
  6
CONTINUOUS
 62
             7
100
AcDbLine
 10
-430.18251980041532
 20
-344.4434394342552
 11
-428.68251980041532
 21
-344.4434394342552
  0
LINE
  5
3E
100
AcDbEntity
  8
1
  6
CONTINUOUS
 62
             7
100
AcDbLine
 10
-430.18251980041532
 20
-344.4434394342552
 11
-428.68251980041532
 21
-344.4434394342552
  0
LINE
  5
3D
102
{ACAD_REACTORS
330
6D
102
}
100
AcDbEntity
  8
1
  6
CONTINUOUS
 62
             7
100
AcDbLine
 10
-428.18251980041532
 20
-342.4434394342552
 11
-421.18251980041532
 21
-342.4434394342552
  0
LINE
  5
3C
100
AcDbEntity
  8
1
  6
CONTINUOUS
 62
             7
100
AcDbLine
 10
-487.18251980041532
 20
-344.4434394342552
 11
-493.68251980041532
 21
-344.4434394342552
  0
LINE
  5
3B
100
AcDbEntity
  8
1
  6
CONTINUOUS
 62
             7
100
AcDbLine
 10
-454.68251980041532
 20
-344.4434394342552
 11
-487.18251980041532
 21
-344.4434394342552
  0
LINE
  5
3A
100
AcDbEntity
  8
1
  6
CONTINUOUS
 62
             7
100
AcDbLine
 10
-530.18251980041532
 20
-340.9434394342552
 11
-493.18251980041532
 21
-340.9434394342552
  0
LINE
  5
39
102
{ACAD_REACTORS
330
6C
102
}
100
AcDbEntity
  8
1
  6
CONTINUOUS
 62
             7
100
AcDbLine
 10
-493.18251980041532
 20
-340.9434394342552
 11
-455.18251980041532
 21
-340.9434394342552
  0
LINE
  5
38
100
AcDbEntity
  8
1
  6
CONTINUOUS
 62
             7
100
AcDbLine
 10
-455.18251980041532
 20
-340.9434394342552
 11
-428.18251980041532
 21
-340.9434394342552
  0
LINE
  5
37
102
{ACAD_REACTORS
330
6D
102
}
100
AcDbEntity
  8
1
  6
CONTINUOUS
 62
             7
100
AcDbLine
 10
-428.18251980041532
 20
-340.9434394342552
 11
-421.18251980041532
 21
-340.9434394342552
  0
POINT
  5
36
100
AcDbEntity
  8
1
 62
             3
 60
             1
100
AcDbPoint
 10
-532.68251980041532
 20
-318.9434394342552
  0
POINT
  5
35
100
AcDbEntity
  8
1
 62
             3
 60
             1
100
AcDbPoint
 10
-420.68251980041532
 20
-318.9434394342552
  0
POINT
  5
34
100
AcDbEntity
  8
1
 62
             3
 60
             1
100
AcDbPoint
 10
-476.68251980041532
 20
-322.13804583843
  0
POINT
  5
33
100
AcDbEntity
  8
1
 62
             3
 60
             1
100
AcDbPoint
 10
-528.18251980041532
 20
-317.4434394342552
  0
POINT
  5
32
100
AcDbEntity
  8
1
 62
             3
 60
             1
100
AcDbPoint
 10
-528.18251980041532
 20
-315.9434394342552
  0
POINT
  5
31
100
AcDbEntity
  8
1
 62
             3
 60
             1
100
AcDbPoint
 10
-495.18251980041532
 20
-315.9434394342552
  0
POINT
  5
30
100
AcDbEntity
  8
1
 62
             3
 60
             1
100
AcDbPoint
 10
-495.18251980041532
 20
-317.4434394342552
  0
POINT
  5
2F
100
AcDbEntity
  8
1
 62
             3
 60
             1
100
AcDbPoint
 10
-453.18251980041532
 20
-317.4434394342552
  0
POINT
  5
2E
100
AcDbEntity
  8
1
 62
             3
 60
             1
100
AcDbPoint
 10
-430.18251980041532
 20
-317.4434394342552
  0
POINT
  5
2D
100
AcDbEntity
  8
1
 62
             3
 60
             1
100
AcDbPoint
 10
-449.0
 20
-302.0
  0
ENDBLK
  5
6F
100
AcDbEntity
  8
0
100
AcDbBlockEnd
  0
BLOCK
  5
28
100
AcDbEntity
  8
0
100
AcDbBlockBegin
  2
EINLAUFROST_115X115__2
 70
             0
 10
-40.22302152774864
 20
-293.44838038464508
 30
0.0
  3
EINLAUFROST_115X115__2
  1

  0
ARC
  5
102
100
AcDbEntity
  8
1
  6
CONTINUOUS
 62
             7
100
AcDbCircle
 10
-518.04826649982454
 20
-408.87668260806618
 40
3.49999999999999
100
AcDbArc
 50
134.99999999985195
 51
-134.99999999999935
  0
ARC
  5
101
100
AcDbEntity
  8
1
  6
CONTINUOUS
 62
             7
100
AcDbCircle
 10
-518.04826649982454
 20
-408.87668260806618
 40
3.49999999999987
100
AcDbArc
 50
44.99999999999869
 51
134.99999999985195
  0
ARC
  5
100
100
AcDbEntity
  8
1
  6
CONTINUOUS
 62
             7
100
AcDbCircle
 10
-511.68430546914823
 20
-395.4416537655232
 40
3.49999999999991
100
AcDbArc
 50
135.00000000015461
 51
-134.99999999999935
  0
ARC
  5
FF
100
AcDbEntity
  8
1
  6
CONTINUOUS
 62
             7
100
AcDbCircle
 10
-511.68430546914823
 20
-395.4416537655232
 40
3.49999999999991
100
AcDbArc
 50
45.00000000000066
 51
135.00000000015461
  0
ARC
  5
FE
100
AcDbEntity
  8
1
  6
CONTINUOUS
 62
             7
100
AcDbCircle
 10
-491.17820881473841
 20
-415.94775041993472
 40
3.49999999999991
100
AcDbArc
 50
-44.99999999985064
 51
45.00000000000132
  0
ARC
  5
FD
100
AcDbEntity
  8
1
  6
CONTINUOUS
 62
             7
100
AcDbCircle
 10
-491.17820881473841
 20
-415.94775041993472
 40
3.50000000000003
100
AcDbArc
 50
-135.00000000000134
 51
-44.99999999985064
  0
ARC
  5
FC
100
AcDbEntity
  8
1
  6
CONTINUOUS
 62
             7
100
AcDbCircle
 10
-504.6132376572815
 20
-422.31171145061103
 40
3.50000000000003
100
AcDbArc
 50
-45.00000000014476
 51
45.00000000000066
  0
ARC
  5
FB
100
AcDbEntity
  8
1
  6
CONTINUOUS
 62
             7
100
AcDbCircle
 10
-504.6132376572815
 20
-422.31171145061103
 40
3.50000000000003
100
AcDbArc
 50
-134.99999999999866
 51
-45.00000000014476
  0
ARC
  5
FA
100
AcDbEntity
  8
1
  6
CONTINUOUS
 62
             7
100
AcDbCircle
 10
-462.18683078609308
 20
-444.93912844857999
 40
3.50000000000107
100
AcDbArc
 50
45.0
 51
135.00000000014805
  0
ARC
  5
F9
100
AcDbEntity
  8
1
  6
CONTINUOUS
 62
             7
100
AcDbCircle
 10
-462.18683078609308
 20
-444.93912844857999
 40
3.49999999999999
100
AcDbArc
 50
135.00000000014805
 51
-135.00000000000065
  0
ARC
  5
F8
100
AcDbEntity
  8
1
  6
CONTINUOUS
 62
             7
100
AcDbCircle
 10
-468.55079181677388
 20
-458.3741572911257
 40
3.50000000000003
100
AcDbArc
 50
135.00000000000134
 51
-135.00000000000134
  0
ARC
  5
F7
100
AcDbEntity
  8
1
  6
CONTINUOUS
 62
             7
100
AcDbCircle
 10
-468.55079181677502
 20
-458.37415729112672
 40
3.49999999999999
100
AcDbArc
 50
45.00000000000724
 51
134.99999999999935
  0
ARC
  5
F6
100
AcDbEntity
  8
1
  6
CONTINUOUS
 62
             7
100
AcDbCircle
 10
-448.7518019435492
 20
-438.57516741790278
 40
3.49999999999999
100
AcDbArc
 50
134.99999999985459
 51
-134.99999999999804
  0
ARC
  5
F5
100
AcDbEntity
  8
1
  6
CONTINUOUS
 62
             7
100
AcDbCircle
 10
-448.7518019435492
 20
-438.57516741790278
 40
3.50000000000003
100
AcDbArc
 50
45.00000000000132
 51
134.99999999985459
  0
ARC
  5
F4
100
AcDbEntity
  8
1
  6
CONTINUOUS
 62
             7
100
AcDbCircle
 10
-435.31677310100622
 20
-452.01019626044751
 40
3.50000000000007
100
AcDbArc
 50
-45.00000000014411
 51
44.99999999999935
  0
ARC
  5
F3
100
AcDbEntity
  8
1
  6
CONTINUOUS
 62
             7
100
AcDbCircle
 10
-435.31677310100622
 20
-452.01019626044751
 40
3.49999999999995
100
AcDbArc
 50
-135.0
 51
-45.00000000014411
  0
ARC
  5
F2
100
AcDbEntity
  8
1
  6
CONTINUOUS
 62
             7
100
AcDbCircle
 10
-441.68073413168253
 20
-465.44522510299038
 40
3.49999999999999
100
AcDbArc
 50
-44.99999999984932
 51
44.99999999999935
  0
ARC
  5
F1
100
AcDbEntity
  8
1
  6
CONTINUOUS
 62
             7
100
AcDbCircle
 10
-441.68073413168253
 20
-465.44522510299038
 40
3.50000000000015
100
AcDbArc
 50
-134.99999999999935
 51
-44.99999999984932
  0
ARC
  5
F0
100
AcDbEntity
  8
1
  6
CONTINUOUS
 62
             7
100
AcDbCircle
 10
-455.11576297422909
 20
-471.80918613367038
 40
3.49999999999999
100
AcDbArc
 50
-45.00000000015069
 51
45.00000000000856
  0
ARC
  5
EF
100
AcDbEntity
  8
1
  6
CONTINUOUS
 62
             7
100
AcDbCircle
 10
-455.11576297422909
 20
-471.80918613367038
 40
3.50000000000011
100
AcDbArc
 50
-135.0
 51
-45.00000000015069
  0
ARC
  5
EE
100
AcDbEntity
  8
1
  6
CONTINUOUS
 62
             7
100
AcDbCircle
 10
-462.18683078609217
 20
-415.94775041993472
 40
3.50000000000131
100
AcDbArc
 50
135.0
 51
-134.99999999985326
  0
ARC
  5
ED
100
AcDbEntity
  8
1
  6
CONTINUOUS
 62
             7
100
AcDbCircle
 10
-462.18683078609217
 20
-415.94775041993472
 40
3.50000000000007
100
AcDbArc
 50
-134.99999999985326
 51
-44.99999999999869
  0
ARC
  5
EC
100
AcDbEntity
  8
1
  6
CONTINUOUS
 62
             7
100
AcDbCircle
 10
-448.7518019435455
 20
-422.31171145061637
 40
3.49999999999999
100
AcDbArc
 50
135.00000000000725
 51
-134.99999999999804
  0
ARC
  5
EB
100
AcDbEntity
  8
1
  6
CONTINUOUS
 62
             7
100
AcDbCircle
 10
-448.75180194354652
 20
-422.31171145061541
 40
3.50000000000003
100
AcDbArc
 50
-135.00000000000134
 51
-44.99999999999935
  0
ARC
  5
EA
100
AcDbEntity
  8
1
  6
CONTINUOUS
 62
             7
100
AcDbCircle
 10
-435.31677310100258
 20
-408.87668260806998
 40
3.50000000000103
100
AcDbArc
 50
-45.00000000000198
 51
44.99999999985393
  0
ARC
  5
E9
100
AcDbEntity
  8
1
  6
CONTINUOUS
 62
             7
100
AcDbCircle
 10
-435.31677310100258
 20
-408.87668260806998
 40
3.49999999999995
100
AcDbArc
 50
44.99999999985393
 51
135.00000000000725
  0
ARC
  5
E8
100
AcDbEntity
  8
1
  6
CONTINUOUS
 62
             7
100
AcDbCircle
 10
-441.68073413168241
 20
-395.44165376552331
 40
3.50000000000095
100
AcDbArc
 50
-44.99999999999935
 51
45.00000000015397
  0
ARC
  5
E7
100
AcDbEntity
  8
1
  6
CONTINUOUS
 62
             7
100
AcDbCircle
 10
-441.68073413168241
 20
-395.44165376552331
 40
3.50000000000003
100
AcDbArc
 50
45.00000000015397
 51
134.99999999999935
  0
ARC
  5
E6
100
AcDbEntity
  8
1
  6
CONTINUOUS
 62
             7
100
AcDbCircle
 10
-455.11576297422562
 20
-389.07769273484701
 40
3.50000000000119
100
AcDbArc
 50
-44.99999999999803
 51
44.99999999985459
  0
ARC
  5
E5
100
AcDbEntity
  8
1
  6
CONTINUOUS
 62
             7
100
AcDbCircle
 10
-455.11576297422562
 20
-389.07769273484701
 40
3.50000000000007
100
AcDbArc
 50
44.99999999985459
 51
134.99999999999739
  0
ARC
  5
E4
100
AcDbEntity
  8
1
  6
CONTINUOUS
 62
             7
100
AcDbCircle
 10
-468.5507918167695
 20
-402.51272157739078
 40
3.50000000000007
100
AcDbArc
 50
-135.00000000014413
 51
-45.00000000000066
  0
ARC
  5
E3
100
AcDbEntity
  8
1
  6
CONTINUOUS
 62
             7
100
AcDbCircle
 10
-468.5507918167695
 20
-402.51272157739078
 40
3.49999999999995
100
AcDbArc
 50
135.0
 51
-135.00000000014413
  0
ARC
  5
E2
100
AcDbEntity
  8
1
  6
CONTINUOUS
 62
             7
100
AcDbCircle
 10
-498.24927662660161
 20
-389.0776927348432
 40
3.49999999999999
100
AcDbArc
 50
134.99999999984931
 51
-134.99999999999145
  0
ARC
  5
E1
100
AcDbEntity
  8
1
  6
CONTINUOUS
 62
             7
100
AcDbCircle
 10
-498.24927662660161
 20
-389.0776927348432
 40
3.50000000000003
100
AcDbArc
 50
44.99999999999869
 51
134.99999999984931
  0
ARC
  5
E0
100
AcDbEntity
  8
1
  6
CONTINUOUS
 62
             7
100
AcDbCircle
 10
-484.81424778405682
 20
-402.51272157738811
 40
3.49999999999999
100
AcDbArc
 50
-44.99999999999935
 51
44.99999999999935
  0
ARC
  5
DF
100
AcDbEntity
  8
1
  6
CONTINUOUS
 62
             7
100
AcDbCircle
 10
-484.81424778405568
 20
-402.51272157738703
 40
3.49999999999995
100
AcDbArc
 50
-134.99999999999343
 51
-45.0
  0
ARC
  5
DE
100
AcDbEntity
  8
1
  6
CONTINUOUS
 62
             7
100
AcDbCircle
 10
-511.68430546914811
 20
-465.44522510299061
 40
3.50000000000111
100
AcDbArc
 50
134.99999999999804
 51
-134.99999999984999
  0
ARC
  5
DD
100
AcDbEntity
  8
1
  6
CONTINUOUS
 62
             7
100
AcDbCircle
 10
-511.68430546914811
 20
-465.44522510299061
 40
3.50000000000003
100
AcDbArc
 50
-134.99999999984999
 51
-44.99999999999935
  0
ARC
  5
DC
100
AcDbEntity
  8
1
  6
CONTINUOUS
 62
             7
100
AcDbCircle
 10
-498.24927662660502
 20
-471.80918613366703
 40
3.50000000000127
100
AcDbArc
 50
134.99999999999935
 51
-135.00000000014475
  0
ARC
  5
DB
100
AcDbEntity
  8
1
  6
CONTINUOUS
 62
             7
100
AcDbCircle
 10
-498.24927662660502
 20
-471.80918613366703
 40
3.50000000000003
100
AcDbArc
 50
-135.00000000014475
 51
-44.99999999999803
  0
ARC
  5
DA
100
AcDbEntity
  8
1
  6
CONTINUOUS
 62
             7
100
AcDbCircle
 10
-484.81424778406188
 20
-458.37415729112229
 40
3.50000000000103
100
AcDbArc
 50
-45.00000000000198
 51
44.99999999985393
  0
ARC
  5
D9
100
AcDbEntity
  8
1
  6
CONTINUOUS
 62
             7
100
AcDbCircle
 10
-484.81424778406188
 20
-458.37415729112229
 40
3.49999999999995
100
AcDbArc
 50
44.99999999985393
 51
135.00000000000199
  0
ARC
  5
D8
100
AcDbEntity
  8
1
  6
CONTINUOUS
 62
             7
100
AcDbCircle
 10
-491.17820881473841
 20
-444.9391284485792
 40
3.50000000000115
100
AcDbArc
 50
-44.99999999999869
 51
45.00000000015134
  0
ARC
  5
D7
100
AcDbEntity
  8
1
  6
CONTINUOUS
 62
             7
100
AcDbCircle
 10
-491.17820881473841
 20
-444.9391284485792
 40
3.50000000000003
100
AcDbArc
 50
45.00000000015134
 51
135.0
  0
ARC
  5
D6
100
AcDbEntity
  8
1
  6
CONTINUOUS
 62
             7
100
AcDbCircle
 10
-504.61323765728412
 20
-438.5751674178984
 40
3.49999999999999
100
AcDbArc
 50
44.99999999999935
 51
135.00000000000134
  0
ARC
  5
D5
100
AcDbEntity
  8
1
  6
CONTINUOUS
 62
             7
100
AcDbCircle
 10
-504.61323765728508
 20
-438.57516741789738
 40
3.49999999999999
100
AcDbArc
 50
-44.99999999999407
 51
45.00000000000132
  0
ARC
  5
D4
100
AcDbEntity
  8
1
  6
CONTINUOUS
 62
             7
100
AcDbCircle
 10
-518.04826649982886
 20
-452.01019626044308
 40
3.50000000000003
100
AcDbArc
 50
-135.00000000014873
 51
-44.99999999999276
  0
ARC
  5
D3
100
AcDbEntity
  8
1
  6
CONTINUOUS
 62
             7
100
AcDbCircle
 10
-518.04826649982886
 20
-452.01019626044308
 40
3.49999999999995
100
AcDbArc
 50
135.0
 51
-135.00000000014873
  0
ARC
  5
D2
100
AcDbEntity
  8
1
  6
CONTINUOUS
 62
             7
100
AcDbCircle
 10
-424.18251980041532
 20
-482.9434394342552
 40
5.0
100
AcDbArc
 50
-90.0
 51
0.0
  0
ARC
  5
D1
100
AcDbEntity
  8
1
  6
CONTINUOUS
 62
             7
100
AcDbCircle
 10
-424.18251980041532
 20
-377.94343943425508
 40
5.0
100
AcDbArc
 50
0.0
 51
89.99999999999871
  0
ARC
  5
D0
100
AcDbEntity
  8
1
  6
CONTINUOUS
 62
             7
100
AcDbCircle
 10
-529.18251980041532
 20
-377.94343943425167
 40
5.0
100
AcDbArc
 50
89.99999999999871
 51
180.0
  0
ARC
  5
CF
100
AcDbEntity
  8
1
  6
CONTINUOUS
 62
             7
100
AcDbCircle
 10
-529.18251980041532
 20
-482.9434394342552
 40
5.0
100
AcDbArc
 50
180.0
 51
-90.0
  0
XLINE
  5
CE
100
AcDbEntity
  8
1
  6
DOT_CENTER
 62
             3
 60
             1
100
AcDbXline
 10
-476.68251980041532
 20
-495.35996773473562
 30
0.0
 11
0.0
 21
1.0
 31
0.0
  0
XLINE
  5
CD
100
AcDbEntity
  8
1
  6
DOT_CENTER
 62
             3
 60
             1
100
AcDbXline
 10
-476.49959524507722
 20
-430.44343943425702
 30
0.0
 11
-0.0000000000000276
 21
-1.0
 31
0.0
  0
XLINE
  5
CC
100
AcDbEntity
  8
1
  6
DOT_CENTER
 62
             3
 60
             1
100
AcDbXline
 10
-476.49959524507722
 20
-430.44343943425702
 30
0.0
 11
1.0
 21
0.0
 31
0.0
  0
XLINE
  5
CB
100
AcDbEntity
  8
1
  6
DOT_CENTER
 62
             3
 60
             1
100
AcDbXline
 10
-476.68251980041532
 20
-431.58722763866899
 30
0.0
 11
-1.0
 21
0.0
 31
0.0
  0
XLINE
  5
CA
100
AcDbEntity
  8
1
  6
DOT_CENTER
 62
             3
 60
             1
100
AcDbXline
 10
-476.68251980041532
 20
-431.58722763866899
 30
0.0
 11
0.0
 21
1.0
 31
0.0
  0
SPLINE
  5
C9
100
AcDbEntity
  8
1
  6
CONTINUOUS
 62
             7
100
AcDbSpline
210
0.0
220
0.0
230
1.0
 70
             0
 71
             2
 72
            24
 73
            21
 74
            39
 42
0.00000000001
 43
0.00000000001
 44
0.00000000001
 40
15.39112443718234
 40
15.39112443718234
 40
15.39112443718234
 40
16.598463239508892
 40
18.980381501488679
 40
21.26536103887236
 40
23.39331172610245
 40
25.311268128496131
 40
26.977214214860041
 40
28.366030411226578
 40
29.481062632616101
 40
30.377533912722932
 40
31.186963835969269
 40
32.083435116076437
 40
33.198467337465956
 40
34.587283533832512
 40
36.253229620196407
 40
38.171186022590057
 40
40.299136709820161
 40
42.584116247203852
 40
44.966034509184112
 40
46.173373311522717
 40
46.173373311522717
 40
46.173373311522717
 10
-476.68251980042442
 20
-434.94333210893979
 30
0.0
 10
-477.2861938873296
 20
-434.94333210893973
 30
0.0
 10
-479.08083634956768
 20
-434.89302166091107
 30
0.0
 10
-481.40677895430031
 20
-434.69343528984558
 30
0.0
 10
-483.59031818582957
 20
-434.36777888115517
 30
0.0
 10
-485.56613234126672
 20
-433.92629984150949
 30
0.0
 10
-487.27601487594058
 20
-433.38280849649618
 30
0.0
 10
-488.67179175350861
 20
-432.75358169989511
 30
0.0
 10
-489.71781111804597
 20
-432.05453333141759
 30
0.0
 10
-490.39355136498648
 20
-431.28901244266802
 30
0.0
 10
-490.64129567018398
 20
-430.4434394342569
 30
0.0
 10
-490.39355136498648
 20
-429.59786642584538
 30
0.0
 10
-489.7178111180458
 20
-428.83234553709588
 30
0.0
 10
-488.67179175350839
 20
-428.13329716861813
 30
0.0
 10
-487.27601487594052
 20
-427.50407037201751
 30
0.0
 10
-485.56613234126633
 20
-426.96057902700409
 30
0.0
 10
-483.59031818582952
 20
-426.51909998735852
 30
0.0
 10
-481.40677895430019
 20
-426.19344357866822
 30
0.0
 10
-479.08083634956728
 20
-425.99385720760267
 30
0.0
 10
-477.28619388732301
 20
-425.94354675957408
 30
0.0
 10
-476.68251980041191
 20
-425.94354675957408
 30
0.0
 11
-476.68251980042442
 21
-434.94333210893979
 31
0.0
 11
-477.2861938873296
 21
-434.93910130608975
 31
0.0
 11
-477.88986797423468
 21
-434.92640889754
 31
0.0
 11
-479.07987626193585
 21
-434.87590195877311
 31
0.0
 11
-480.26796437437361
 21
-434.79115561573042
 31
0.0
 11
-481.40473004263453
 21
-434.67570980844818
 31
0.0
 11
-482.53739788756377
 21
-434.52481303837078
 31
0.0
 11
-483.58688368965664
 21
-434.34898828555549
 31
0.0
 11
-484.62950049940378
 21
-434.13558234154084
 31
0.0
 11
-485.56073898621412
 21
-433.90590694347338
 31
0.0
 11
-486.48119076291914
 21
-433.63544574933377
 31
0.0
 11
-487.26760917316119
 21
-433.36017898047658
 31
0.0
 11
-488.03721617784458
 21
-433.03965317958034
 31
0.0
 11
-488.65819743856082
 21
-432.72816381990236
 31
0.0
 11
-489.25199006938124
 21
-432.3658387002389
 31
0.0
 11
-489.69500124949559
 21
-432.02627230458938
 31
0.0
 11
-490.09239269250907
 21
-431.63018385528324
 31
0.0
 11
-490.35080983828101
 21
-431.26321563896124
 31
0.0
 11
-490.52374393064207
 21
-430.84465381522574
 31
0.0
 11
-490.58251980041302
 21
-430.44343943425685
 31
0.0
 11
-490.52374393064213
 21
-430.04222505328789
 31
0.0
 11
-490.35080983828107
 21
-429.62366322955233
 31
0.0
 11
-490.09239269250884
 21
-429.25669501323023
 31
0.0
 11
-489.69500124949536
 21
-428.86060656392408
 31
0.0
 11
-489.25199006938112
 21
-428.52104016827445
 31
0.0
 11
-488.65819743856053
 21
-428.15871504861093
 31
0.0
 11
-488.03721617784447
 21
-427.84722568893312
 31
0.0
 11
-487.26760917316113
 21
-427.52669988803694
 31
0.0
 11
-486.48119076291897
 21
-427.25143311917986
 31
0.0
 11
-485.56073898621378
 21
-426.98097192504019
 31
0.0
 11
-484.62950049940355
 21
-426.75129652697274
 31
0.0
 11
-483.58688368965653
 21
-426.53789058295814
 31
0.0
 11
-482.53739788756366
 21
-426.36206583014291
 31
0.0
 11
-481.40473004263436
 21
-426.21116906006569
 31
0.0
 11
-480.26796437437349
 21
-426.09572325278327
 31
0.0
 11
-479.07987626193557
 21
-426.01097690974063
 31
0.0
 11
-477.88986797423411
 21
-425.96046997097392
 31
0.0
 11
-477.28619388732301
 21
-425.94777756242399
 31
0.0
 11
-476.68251980041191
 21
-425.94354675957408
 31
0.0
  0
SPLINE
  5
C8
100
AcDbEntity
  8
1
  6
CONTINUOUS
 62
             7
100
AcDbSpline
210
0.0
220
0.0
230
1.0
 70
             0
 71
             2
 72
            15
 73
            12
 74
            21
 42
0.00000000001
 43
0.00000000001
 44
0.00000000001
 40
46.173373311522717
 40
46.173373311522717
 40
46.173373311522717
 40
47.380712113855303
 40
49.762630375834597
 40
52.047609913218281
 40
54.175560600448378
 40
56.093517002842049
 40
57.759463089205973
 40
59.148279285572499
 40
60.263311506962012
 40
61.159782787068849
 40
61.96921271031519
 40
61.96921271031519
 40
61.96921271031519
 10
-476.68251980041191
 20
-425.94354675957408
 30
0.0
 10
-476.07884571350371
 20
-425.94354675957419
 30
0.0
 10
-474.28420325126262
 20
-425.99385720760279
 30
0.0
 10
-471.95826064653022
 20
-426.19344357866851
 30
0.0
 10
-469.77472141500118
 20
-426.5190999873588
 30
0.0
 10
-467.79890725956432
 20
-426.96057902700471
 30
0.0
 10
-466.08902472489001
 20
-427.50407037201779
 30
0.0
 10
-464.69324784732208
 20
-428.13329716861892
 30
0.0
 10
-463.64722848278501
 20
-428.83234553709673
 30
0.0
 10
-462.97148823584462
 20
-429.59786642584612
 30
0.0
 10
-462.72374393064661
 20
-430.44343943425707
 30
0.0
 10
-462.8412956701884
 20
-430.84465381522591
 30
0.0
 11
-476.68251980041191
 21
-425.94354675957408
 31
0.0
 11
-476.07884571350371
 21
-425.94777756242411
 31
0.0
 11
-475.47517162659551
 21
-425.96046997097397
 31
0.0
 11
-474.28516333889445
 21
-426.01097690974075
 31
0.0
 11
-473.09707522645692
 21
-426.0957232527835
 31
0.0
 11
-471.96030955819606
 21
-426.21116906006586
 31
0.0
 11
-470.82764171326687
 21
-426.36206583014319
 31
0.0
 11
-469.77815591117411
 21
-426.53789058295854
 31
0.0
 11
-468.73553910142715
 21
-426.75129652697325
 31
0.0
 11
-467.80430061461675
 21
-426.98097192504076
 31
0.0
 11
-466.88384883791161
 21
-427.25143311918032
 31
0.0
 11
-466.09743042766945
 21
-427.5266998880374
 31
0.0
 11
-465.32782342298606
 21
-427.84722568893363
 31
0.0
 11
-464.70684216226999
 21
-428.15871504861173
 31
0.0
 11
-464.11304953144958
 21
-428.52104016827525
 31
0.0
 11
-463.67003835133539
 21
-428.86060656392499
 31
0.0
 11
-463.27264690832203
 21
-429.25669501323102
 31
0.0
 11
-463.01422976254992
 21
-429.62366322955279
 31
0.0
 11
-462.84129567018874
 21
-430.04222505328829
 31
0.0
 11
-462.78251980041762
 21
-430.44343943425707
 31
0.0
 11
-462.8412956701884
 21
-430.84465381522591
 31
0.0
  0
SPLINE
  5
C7
100
AcDbEntity
  8
1
  6
CONTINUOUS
 62
             7
100
AcDbSpline
210
0.0
220
0.0
230
1.0
 70
             0
 71
             2
 72
            14
 73
            11
 74
            19
 42
0.00000000001
 43
0.00000000001
 44
0.00000000001
 40
0.4047149616233401
 40
0.4047149616233401
 40
0.4047149616233401
 40
1.301186241730506
 40
2.4162184631200301
 40
3.805034659486576
 40
5.4709807458504827
 40
7.3889371482441364
 40
9.5168878354742361
 40
11.801867372857931
 40
14.18378563483771
 40
15.39112443718234
 40
15.39112443718234
 40
15.39112443718234
 10
-462.8412956701884
 20
-430.84465381522591
 30
0.0
 10
-462.97148823584399
 20
-431.28901244266831
 30
0.0
 10
-463.64722848278501
 20
-432.05453333141833
 30
0.0
 10
-464.69324784732208
 20
-432.75358169989568
 30
0.0
 10
-466.08902472489052
 20
-433.38280849649681
 30
0.0
 10
-467.79890725956432
 20
-433.92629984150989
 30
0.0
 10
-469.7747214150013
 20
-434.36777888115557
 30
0.0
 10
-471.95826064653062
 20
-434.69343528984581
 30
0.0
 10
-474.28420325126308
 20
-434.8930216609113
 30
0.0
 10
-476.07884571351019
 20
-434.94333210894001
 30
0.0
 10
-476.68251980042442
 20
-434.94333210893979
 30
0.0
 11
-462.8412956701884
 21
-430.84465381522591
 31
0.0
 11
-463.01422976254952
 21
-431.26321563896158
 31
0.0
 11
-463.27264690832175
 21
-431.63018385528375
 31
0.0
 11
-463.67003835133539
 21
-432.02627230459007
 31
0.0
 11
-464.11304953144963
 21
-432.36583870023958
 31
0.0
 11
-464.70684216227005
 21
-432.72816381990299
 31
0.0
 11
-465.32782342298628
 21
-433.03965317958097
 31
0.0
 11
-466.09743042766979
 21
-433.3601789804772
 31
0.0
 11
-466.8838488379119
 21
-433.63544574933428
 31
0.0
 11
-467.80430061461692
 21
-433.90590694347384
 31
0.0
 11
-468.73553910142721
 21
-434.13558234154124
 31
0.0
 11
-469.77815591117428
 21
-434.34898828555589
 31
0.0
 11
-470.82764171326716
 21
-434.52481303837112
 31
0.0
 11
-471.9603095581964
 21
-434.67570980844835
 31
0.0
 11
-473.09707522645726
 21
-434.7911556157307
 31
0.0
 11
-474.28516333889485
 21
-434.87590195877328
 31
0.0
 11
-475.47517162659608
 21
-434.92640889754006
 31
0.0
 11
-476.07884571351019
 21
-434.93910130608992
 31
0.0
 11
-476.68251980042442
 21
-434.94333210893979
 31
0.0
  0
ARC
  5
C6
100
AcDbEntity
  8
0
  6
CONTINUOUS
 62
             7
100
AcDbCircle
 10
-474.33251980041308
 20
-428.44343943425702
 40
0.5
100
AcDbArc
 50
0.0
 51
90.0
  0
ARC
  5
C5
100
AcDbEntity
  8
0
  6
CONTINUOUS
 62
             7
100
AcDbCircle
 10
-472.33251980041308
 20
-432.44343943425702
 40
0.5
100
AcDbArc
 50
-90.0
 51
90.0
  0
ARC
  5
C4
100
AcDbEntity
  8
0
  6
CONTINUOUS
 62
             7
100
AcDbCircle
 10
-473.33251980041308
 20
-431.44343943425702
 40
0.5
100
AcDbArc
 50
180.0
 51
-90.0
  0
ARC
  5
C3
100
AcDbEntity
  8
0
  6
CONTINUOUS
 62
             7
100
AcDbCircle
 10
-474.33251980041308
 20
-432.44343943425702
 40
0.5
100
AcDbArc
 50
180.0
 51
-90.0
  0
ARC
  5
C2
100
AcDbEntity
  8
0
  6
CONTINUOUS
 62
             7
100
AcDbCircle
 10
-479.83251980041308
 20
-432.44343943425702
 40
0.5
100
AcDbArc
 50
180.0
 51
0.0
  0
ARC
  5
C1
100
AcDbEntity
  8
0
  6
CONTINUOUS
 62
             7
100
AcDbCircle
 10
-474.33251980041308
 20
-428.44343943425702
 40
0.5
100
AcDbArc
 50
90.0
 51
180.0
  0
ARC
  5
C0
100
AcDbEntity
  8
0
  6
CONTINUOUS
 62
             7
100
AcDbCircle
 10
-476.83251980041308
 20
-428.44343943425702
 40
0.5
100
AcDbArc
 50
0.0
 51
180.0
  0
ARC
  5
BF
100
AcDbEntity
  8
0
  6
CONTINUOUS
 62
             7
100
AcDbCircle
 10
-479.83251980041308
 20
-428.44343943425702
 40
0.5
100
AcDbArc
 50
0.0
 51
180.0
  0
ARC
  5
BE
100
AcDbEntity
  8
0
  6
CONTINUOUS
 62
             7
100
AcDbCircle
 10
-476.83251980041308
 20
-432.44343943425702
 40
0.5
100
AcDbArc
 50
180.0
 51
0.0
  0
LINE
  5
BD
100
AcDbEntity
  8
1
  6
DOT_CENTER
 62
             2
100
AcDbLine
 10
-462.68251980041748
 20
-431.18832550243297
 11
-462.68251980041748
 21
-430.18832550243297
  0
LINE
  5
BC
100
AcDbEntity
  8
1
  6
DOT_CENTER
 62
             2
100
AcDbLine
 10
-490.68251980041322
 20
-430.18832550243297
 11
-490.68251980041322
 21
-431.18832550243297
  0
LINE
  5
BB
100
AcDbEntity
  8
1
  6
DOT_CENTER
 62
             2
100
AcDbLine
 10
-476.68251980041549
 20
-434.94333210894001
 11
-478.68251980041532
 21
-434.94333210894001
  0
LINE
  5
BA
100
AcDbEntity
  8
1
  6
DOT_CENTER
 62
             2
100
AcDbLine
 10
-476.68251980041532
 20
-425.94354675957408
 11
-478.68251980041612
 21
-425.94354675957419
  0
LINE
  5
B9
100
AcDbEntity
  8
0
  6
CONTINUOUS
 62
             7
100
AcDbLine
 10
-480.33251980041308
 20
-432.44343943425702
 11
-480.33251980041308
 21
-428.44343943425702
  0
LINE
  5
B8
100
AcDbEntity
  8
0
  6
CONTINUOUS
 62
             7
100
AcDbLine
 10
-473.83251980041308
 20
-431.44343943425702
 11
-473.83251980041308
 21
-428.44343943425702
  0
LINE
  5
B7
100
AcDbEntity
  8
0
  6
CONTINUOUS
 62
             7
100
AcDbLine
 10
-473.33251980041308
 20
-431.94343943425702
 11
-472.33251980041308
 21
-431.94343943425702
  0
LINE
  5
B6
100
AcDbEntity
  8
0
  6
CONTINUOUS
 62
             7
100
AcDbLine
 10
-474.83251980041308
 20
-432.44343943425702
 11
-474.83251980041308
 21
-428.44343943425702
  0
LINE
  5
B5
100
AcDbEntity
  8
0
  6
CONTINUOUS
 62
             7
100
AcDbLine
 10
-474.33251980041308
 20
-432.94343943425702
 11
-472.33251980041308
 21
-432.94343943425702
  0
LINE
  5
B4
100
AcDbEntity
  8
0
  6
CONTINUOUS
 62
             7
100
AcDbLine
 10
-479.33251980041308
 20
-432.44343943425702
 11
-479.33251980041308
 21
-430.94343943425702
  0
LINE
  5
B3
100
AcDbEntity
  8
0
  6
CONTINUOUS
 62
             7
100
AcDbLine
 10
-479.33251980041308
 20
-430.94343943425702
 11
-477.33251980041308
 21
-430.94343943425702
  0
LINE
  5
B2
100
AcDbEntity
  8
0
  6
CONTINUOUS
 62
             7
100
AcDbLine
 10
-479.33251980041308
 20
-429.94343943425702
 11
-477.33251980041308
 21
-429.94343943425702
  0
LINE
  5
B1
100
AcDbEntity
  8
0
  6
CONTINUOUS
 62
             7
100
AcDbLine
 10
-477.33251980041308
 20
-429.94343943425702
 11
-477.33251980041308
 21
-428.44343943425702
  0
LINE
  5
B0
100
AcDbEntity
  8
0
  6
CONTINUOUS
 62
             7
100
AcDbLine
 10
-479.33251980041308
 20
-429.94343943425702
 11
-479.33251980041308
 21
-428.44343943425702
  0
LINE
  5
AF
100
AcDbEntity
  8
0
  6
CONTINUOUS
 62
             7
100
AcDbLine
 10
-477.33251980041308
 20
-432.44343943425702
 11
-477.33251980041308
 21
-430.94343943425702
  0
LINE
  5
AE
100
AcDbEntity
  8
0
  6
CONTINUOUS
 62
             7
100
AcDbLine
 10
-476.33251980041308
 20
-432.44343943425702
 11
-476.33251980041308
 21
-428.44343943425702
  0
LINE
  5
AD
100
AcDbEntity
  8
0
  6
CONTINUOUS
 62
             7
100
AcDbLine
 10
-488.58251980041308
 20
-430.19343943425702
 11
-482.58251980041308
 21
-430.19343943425702
  0
LINE
  5
AC
100
AcDbEntity
  8
0
  6
CONTINUOUS
 62
             7
100
AcDbLine
 10
-488.58251980041308
 20
-430.69343943425702
 11
-482.58251980041308
 21
-430.69343943425702
  0
LINE
  5
AB
100
AcDbEntity
  8
0
  6
CONTINUOUS
 62
             7
100
AcDbLine
 10
-464.58251980041308
 20
-430.69343943425702
 11
-464.58251980041308
 21
-430.19343943425702
  0
LINE
  5
AA
100
AcDbEntity
  8
0
  6
CONTINUOUS
 62
             7
100
AcDbLine
 10
-488.58251980041308
 20
-430.69343943425702
 11
-488.58251980041308
 21
-430.19343943425702
  0
LINE
  5
A9
100
AcDbEntity
  8
0
  6
CONTINUOUS
 62
             7
100
AcDbLine
 10
-470.58251980041308
 20
-430.19343943425702
 11
-464.58251980041308
 21
-430.19343943425702
  0
LINE
  5
A8
100
AcDbEntity
  8
0
  6
CONTINUOUS
 62
             7
100
AcDbLine
 10
-470.58251980041308
 20
-430.69343943425702
 11
-470.58251980041308
 21
-430.19343943425702
  0
LINE
  5
A7
100
AcDbEntity
  8
0
  6
CONTINUOUS
 62
             7
100
AcDbLine
 10
-470.58251980041308
 20
-430.69343943425702
 11
-464.58251980041308
 21
-430.69343943425702
  0
LINE
  5
A6
100
AcDbEntity
  8
0
  6
CONTINUOUS
 62
             7
100
AcDbLine
 10
-482.58251980041308
 20
-430.69343943425702
 11
-482.58251980041308
 21
-430.19343943425702
  0
LINE
  5
A5
100
AcDbEntity
  8
0
  6
CONTINUOUS
 62
             7
100
AcDbLine
 10
-507.08811139143711
 20
-436.10029368374552
 11
-520.52314023398174
 21
-449.5353225262902
  0
LINE
  5
A4
100
AcDbEntity
  8
0
  6
CONTINUOUS
 62
             7
100
AcDbLine
 10
-502.1383639231322
 20
-436.10029368374438
 11
-502.13836392313118
 21
-436.10029368374552
  0
LINE
  5
A3
100
AcDbEntity
  8
0
  6
CONTINUOUS
 62
             7
100
AcDbLine
 10
-515.57339276567484
 20
-454.48506999459647
 11
-502.13836392313192
 21
-441.05004115205003
  0
LINE
  5
A2
100
AcDbEntity
  8
0
  6
CONTINUOUS
 62
             7
100
AcDbLine
 10
-487.28912151821493
 20
-455.89928355696941
 11
-500.72415036075881
 21
-469.33431239951318
  0
LINE
  5
A1
100
AcDbEntity
  8
0
  6
CONTINUOUS
 62
             7
100
AcDbLine
 10
-495.77440289245197
 20
-474.28405986781991
 11
-482.33937404990832
 21
-460.84903102527602
  0
LINE
  5
A0
100
AcDbEntity
  8
0
  6
CONTINUOUS
 62
             7
100
AcDbLine
 10
-529.18251980041532
 20
-487.9434394342552
 11
-424.18251980041532
 21
-487.9434394342552
  0
LINE
  5
9F
100
AcDbEntity
  8
0
  6
CONTINUOUS
 62
             7
100
AcDbLine
 10
-424.18251980041521
 20
-372.94343943425508
 11
-529.18251980041521
 21
-372.94343943425167
  0
LINE
  5
9E
100
AcDbEntity
  8
0
  6
CONTINUOUS
 62
             7
100
AcDbLine
 10
-509.20943173499518
 20
-467.92009883714348
 11
-488.70333508058462
 21
-447.41400218273287
  0
LINE
  5
9D
100
AcDbEntity
  8
0
  6
CONTINUOUS
 62
             7
100
AcDbLine
 10
-493.65308254889129
 20
-442.46425471442632
 11
-514.15917920330173
 21
-462.97035136883682
  0
LINE
  5
9C
100
AcDbEntity
  8
0
  6
CONTINUOUS
 62
             7
100
AcDbLine
 10
-534.18251980041532
 20
-377.94343943425167
 11
-534.18251980041532
 21
-482.9434394342552
  0
LINE
  5
9B
100
AcDbEntity
  8
0
  6
CONTINUOUS
 62
             7
100
AcDbLine
 10
-419.18251980041532
 20
-482.9434394342552
 11
-419.18251980041532
 21
-377.94343943425508
  0
LINE
  5
9A
100
AcDbEntity
  8
0
  6
CONTINUOUS
 62
             7
100
AcDbLine
 10
-464.66170452024602
 20
-447.41400218273287
 11
-444.15560786583552
 21
-467.92009883714343
  0
LINE
  5
99
100
AcDbEntity
  8
0
  6
CONTINUOUS
 62
             7
100
AcDbLine
 10
-439.20586039752891
 20
-462.97035136883682
 11
-459.71195705193941
 21
-442.46425471442632
  0
LINE
  5
98
100
AcDbEntity
  8
0
  6
CONTINUOUS
 62
             7
100
AcDbLine
 10
-432.84189936685237
 20
-449.53532252629373
 11
-446.27692820939632
 21
-436.10029368374978
  0
LINE
  5
97
100
AcDbEntity
  8
0
  6
CONTINUOUS
 62
             7
100
AcDbLine
 10
-451.22667567770287
 20
-441.05004115205662
 11
-437.7916468351591
 21
-454.48506999460039
  0
LINE
  5
96
100
AcDbEntity
  8
0
  6
CONTINUOUS
 62
             7
100
AcDbLine
 10
-452.64088924007592
 20
-469.33431239951648
 11
-466.07591808262242
 21
-455.8992835569735
  0
LINE
  5
95
100
AcDbEntity
  8
0
  6
CONTINUOUS
 62
             7
100
AcDbLine
 10
-471.0256655509279
 20
-455.89928355697378
 11
-471.02566555092687
 21
-455.89928355697282
  0
LINE
  5
94
100
AcDbEntity
  8
0
  6
CONTINUOUS
 62
             7
100
AcDbLine
 10
-471.02566555092687
 20
-460.84903102527858
 11
-457.59063670838208
 21
-474.28405986782337
  0
LINE
  5
93
100
AcDbEntity
  8
0
  6
CONTINUOUS
 62
             7
100
AcDbLine
 10
-459.71195705193929
 20
-418.42262415408749
 11
-439.2058603975288
 21
-397.91652749967687
  0
LINE
  5
92
100
AcDbEntity
  8
0
  6
CONTINUOUS
 62
             7
100
AcDbLine
 10
-444.15560786583529
 20
-392.96678003137038
 11
-464.66170452024602
 21
-413.47287668578088
  0
LINE
  5
91
100
AcDbEntity
  8
0
  6
CONTINUOUS
 62
             7
100
AcDbLine
 10
-457.59063670837838
 20
-386.60281900069401
 11
-471.02566555092238
 21
-400.0378478432379
  0
LINE
  5
90
100
AcDbEntity
  8
0
  6
CONTINUOUS
 62
             7
100
AcDbLine
 10
-466.07591808261571
 20
-404.98759531154462
 11
-452.64088924007177
 21
-391.55256646900068
  0
LINE
  5
8F
100
AcDbEntity
  8
0
  6
CONTINUOUS
 62
             7
100
AcDbLine
 10
-437.7916468351558
 20
-406.40180887391739
 11
-451.22667567769872
 21
-419.83683771646378
  0
LINE
  5
8E
100
AcDbEntity
  8
0
  6
CONTINUOUS
 62
             7
100
AcDbLine
 10
-451.22667567769838
 20
-424.78658518476942
 11
-451.22667567769952
 21
-424.78658518476828
  0
LINE
  5
8D
100
AcDbEntity
  8
0
  6
CONTINUOUS
 62
             7
100
AcDbLine
 10
-446.27692820939359
 20
-424.78658518476828
 11
-432.84189936684902
 21
-411.35155634222372
  0
LINE
  5
8C
100
AcDbEntity
  8
0
  6
CONTINUOUS
 62
             7
100
AcDbLine
 10
-488.70333508058462
 20
-413.47287668578082
 11
-509.20943173499541
 21
-392.96678003137032
  0
LINE
  5
8B
100
AcDbEntity
  8
0
  6
CONTINUOUS
 62
             7
100
AcDbLine
 10
-514.15917920330185
 20
-397.91652749967687
 11
-493.6530825488914
 21
-418.4226241540876
  0
LINE
  5
8A
100
AcDbEntity
  8
0
  6
CONTINUOUS
 62
             7
100
AcDbLine
 10
-520.52314023397832
 20
-411.35155634222002
 11
-507.08811139143438
 21
-424.78658518476402
  0
LINE
  5
89
100
AcDbEntity
  8
0
  6
CONTINUOUS
 62
             7
100
AcDbLine
 10
-502.13836392312783
 20
-419.8368377164573
 11
-515.57339276567166
 21
-406.40180887391341
  0
LINE
  5
88
100
AcDbEntity
  8
0
  6
CONTINUOUS
 62
             7
100
AcDbLine
 10
-500.72415036075489
 20
-391.55256646899721
 11
-487.28912151820828
 21
-404.98759531154019
  0
LINE
  5
87
100
AcDbEntity
  8
0
  6
CONTINUOUS
 62
             7
100
AcDbLine
 10
-482.3393740499028
 20
-404.98759531153991
 11
-482.33937404990388
 21
-404.98759531154099
  0
LINE
  5
86
100
AcDbEntity
  8
0
  6
CONTINUOUS
 62
             7
100
AcDbLine
 10
-482.33937404990388
 20
-400.03784784323523
 11
-495.77440289244862
 21
-386.60281900069032
  0
POINT
  5
85
100
AcDbEntity
  8
1
 62
             3
 60
             1
100
AcDbPoint
 10
-490.68251980041322
 20
-431.18832550243297
  0
POINT
  5
84
100
AcDbEntity
  8
1
 62
             3
 60
             1
100
AcDbPoint
 10
-490.68251980041322
 20
-430.18832550243297
  0
POINT
  5
83
100
AcDbEntity
  8
1
 62
             3
 60
             1
100
AcDbPoint
 10
-490.58251980041308
 20
-430.44343943425702
  0
POINT
  5
82
100
AcDbEntity
  8
1
 62
             3
 60
             1
100
AcDbPoint
 10
-478.68251980041532
 20
-434.94333210894001
  0
POINT
  5
81
100
AcDbEntity
  8
1
 62
             3
 60
             1
100
AcDbPoint
 10
-476.68251980041549
 20
-434.94333210894001
  0
POINT
  5
80
100
AcDbEntity
  8
1
 62
             3
 60
             1
100
AcDbPoint
 10
-541.34286095426796
 20
-430.4434394342552
  0
POINT
  5
7F
100
AcDbEntity
  8
1
 62
             3
 60
             1
100
AcDbPoint
 10
-411.65632953588653
 20
-430.44343943425878
  0
POINT
  5
7E
100
AcDbEntity
  8
1
 62
             3
 60
             1
100
AcDbPoint
 10
-476.49959524507722
 20
-430.44343943425702
  0
POINT
  5
7D
100
AcDbEntity
  8
1
 62
             3
 60
             1
100
AcDbPoint
 10
-476.68251980041532
 20
-367.81448754260242
  0
POINT
  5
7C
100
AcDbEntity
  8
1
 62
             3
 60
             1
100
AcDbPoint
 10
-476.68251980041532
 20
-495.35996773473562
  0
POINT
  5
7B
100
AcDbEntity
  8
1
 62
             3
 60
             1
100
AcDbPoint
 10
-476.68251980041532
 20
-431.58722763866899
  0
POINT
  5
7A
100
AcDbEntity
  8
1
 62
             3
 60
             1
100
AcDbPoint
 10
-452.83556198227973
 20
-426.39547148934781
  0
POINT
  5
79
100
AcDbEntity
  8
1
 62
             3
 60
             1
100
AcDbPoint
 10
-526.00323912260103
 20
-472.9434394342552
  0
POINT
  5
78
100
AcDbEntity
  8
1
 62
             3
 60
             1
100
AcDbPoint
 10
-519.1825198004135
 20
-472.9434394342552
  0
POINT
  5
77
100
AcDbEntity
  8
1
 62
             3
 60
             1
100
AcDbPoint
 10
-516.37003955390617
 20
-470.13095918774781
  0
POINT
  5
76
100
AcDbEntity
  8
1
 62
             3
 60
             1
100
AcDbPoint
 10
-464.10791129950798
 20
-428.502636313577
  0
POINT
  5
75
100
AcDbEntity
  8
1
 62
             3
 60
             1
100
AcDbPoint
 10
-472.94808649647479
 20
-426.70900613031631
  0
POINT
  5
74
100
AcDbEntity
  8
1
 62
             3
 60
             1
100
AcDbPoint
 10
-469.42481398962173
 20
-423.18573362346331
  0
POINT
  5
73
100
AcDbEntity
  8
1
 62
             3
 60
             1
100
AcDbPoint
 10
-459.52531905300839
 20
-433.08522856007659
  0
POINT
  5
72
100
AcDbEntity
  8
1
 62
             3
 60
             1
100
AcDbPoint
 10
-454.66891640842738
 20
-428.22882591549558
  0
POINT
  5
71
100
AcDbEntity
  8
1
 62
             3
 60
             1
100
AcDbPoint
 10
-427.05407784120098
 20
-400.61398734826901
  0
POINT
  5
70
100
AcDbEntity
  8
1
 62
             3
 60
             1
100
AcDbPoint
 10
-416.68656782889201
 20
-400.61398734826901
  0
ENDBLK
  5
103
100
AcDbEntity
  8
0
100
AcDbBlockEnd
  0
BLOCK
  5
106
100
AcDbEntity
  8
0
100
AcDbBlockBegin
  2
*D2
 70
             1
 10
0.0
 20
0.0
 30
0.0
  3
*D2
  1

  0
LINE
  5
107
100
AcDbEntity
  8
0
  6
CONTINUOUS
 62
             4
100
AcDbLine
 10
-534.18251980041532
 20
-332.9434394342552
 11
-419.18251980041532
 21
-332.9434394342552
  0
LINE
  5
108
100
AcDbEntity
  8
0
  6
CONTINUOUS
 62
             4
100
AcDbLine
 10
-419.18251980041532
 20
-342.9434394342552
 11
-419.18251980041532
 21
-330.9434394342552
  0
LINE
  5
109
100
AcDbEntity
  8
0
  6
CONTINUOUS
 62
             4
100
AcDbLine
 10
-534.18251980041532
 20
-345.9434394342552
 11
-534.18251980041532
 21
-330.9434394342552
  0
SOLID
  5
10A
100
AcDbEntity
  8
0
 62
             4
100
AcDbTrace
 10
-426.18251980041532
 20
-333.86500691736694
 11
-426.18251980041532
 21
-332.02187195114345
 12
-419.18251980041532
 22
-332.9434394342552
 13
-419.18251980041532
 23
-332.9434394342552
  0
SOLID
  5
10B
100
AcDbEntity
  8
0
 62
             4
100
AcDbTrace
 10
-527.18251980041532
 20
-332.02187195114345
 11
-527.18251980041532
 21
-333.86500691736694
 12
-534.18251980041532
 22
-332.9434394342552
 13
-534.18251980041532
 23
-332.9434394342552
  0
MTEXT
  5
10D
100
AcDbEntity
  8
0
 62
             1
100
AcDbMText
 10
-497.35401643374098
 20
-330.9434394342552
 30
0.0
 40
7.0
 41
0.0
 71
             7
 72
             1
  1
\C1;115\C1;x115
  7
CONVERTER_1
 11
0.99999999999706
 21
0.00000242406841
 31
0.0
  0
ENDBLK
  5
10E
100
AcDbEntity
  8
0
100
AcDbBlockEnd
  0
BLOCK
  5
112
100
AcDbEntity
  8
0
100
AcDbBlockBegin
  2
*D3
 70
             1
 10
0.0
 20
0.0
 30
0.0
  3
*D3
  1

  0
LINE
  5
113
100
AcDbEntity
  8
0
  6
CONTINUOUS
 62
             4
100
AcDbLine
 10
-406.13616323291302
 20
-340.9434394342552
 11
-406.13616323291302
 21
-325.88466662709095
  0
LINE
  5
114
100
AcDbEntity
  8
0
  6
CONTINUOUS
 62
             4
100
AcDbLine
 10
-406.13616323291302
 20
-345.9434394342552
 11
-406.13616323291302
 21
-340.9434394342552
  0
LINE
  5
115
100
AcDbEntity
  8
0
  6
CONTINUOUS
 62
             4
100
AcDbLine
 10
-406.13616323291302
 20
-359.9434394342552
 11
-406.13616323291302
 21
-345.9434394342552
  0
LINE
  5
116
100
AcDbEntity
  8
0
  6
CONTINUOUS
 62
             4
100
AcDbLine
 10
-421.18251980041532
 20
-340.9434394342552
 11
-404.13616323291302
 21
-340.9434394342552
  0
LINE
  5
117
100
AcDbEntity
  8
0
  6
CONTINUOUS
 62
             4
100
AcDbLine
 10
-420.68251980041532
 20
-345.9434394342552
 11
-404.13616323291302
 21
-345.9434394342552
  0
SOLID
  5
118
100
AcDbEntity
  8
0
 62
             4
100
AcDbTrace
 10
-407.05773071602476
 20
-333.9434394342552
 11
-405.21459574980128
 21
-333.9434394342552
 12
-406.13616323291302
 22
-340.9434394342552
 13
-406.13616323291302
 23
-340.9434394342552
  0
SOLID
  5
119
100
AcDbEntity
  8
0
 62
             4
100
AcDbTrace
 10
-405.21459574980128
 20
-352.9434394342552
 11
-407.05773071602476
 21
-352.9434394342552
 12
-406.13616323291302
 22
-345.9434394342552
 13
-406.13616323291302
 23
-345.9434394342552
  0
MTEXT
  5
11A
100
AcDbEntity
  8
0
 62
             1
100
AcDbMText
 10
-408.13616323291302
 20
-330.084666627091
 30
0.0
 40
7.0
 41
0.0
 71
             7
 72
             1
  1
5
  7
CONVERTER_1
 11
0.0
 21
1.0
 31
0.0
  0
ENDBLK
  5
11B
100
AcDbEntity
  8
0
100
AcDbBlockEnd
  0
ENDSEC
  0
SECTION
  2
ENTITIES
  0
DIMENSION
  5
11D
100
AcDbEntity
  8
1
100
AcDbDimension
  2
*D3
 10
-406.13616323291302
 20
-340.9434394342552
 11
-411.63616323291302
 21
-327.98466662709097
 31
0.0
 53
90.0
  1
<>
  3
ME10_DIM_1
100
AcDbAlignedDimension
 13
-420.68251980041532
 23
-345.9434394342552
 14
-421.18251980041532
 24
-340.9434394342552
 50
90.0
100
AcDbRotatedDimension
  0
DIMENSION
  5
110
100
AcDbEntity
  8
1
100
AcDbDimension
  2
*D2
 10
-419.18251980041532
 20
-332.9434394342552
 11
-479.85401643374098
 21
-327.4434394342552
 31
0.0
 53
180.0
  1
<>
  3
ME10_DIM_0
100
AcDbAlignedDimension
 13
-534.18251980041532
 23
-345.9434394342552
 14
-419.18251980041532
 24
-342.9434394342552
 50
180.0
100
AcDbRotatedDimension
  0
INSERT
  5
2B
100
AcDbEntity
  8
0
100
AcDbBlockReference
  2
EINLAUFROST_115X115__1
 10
-40.22302152774864
 20
-149.44838038464511
  0
INSERT
  5
2C
100
AcDbEntity
  8
0
100
AcDbBlockReference
  2
EINLAUFROST_115X115__2
 10
-40.22302152774864
 20
-293.44838038464508
  0
ENDSEC
  0
SECTION
  2
OBJECTS
  0
DICTIONARY
  5
19
100
AcDbDictionary
  3
ACAD_GROUP
350
1A
  3
ACAD_MLINESTYLE
350
1B
  0
DICTIONARY
  5
1A
102
{ACAD_REACTORS
330
19
102
}
100
AcDbDictionary
  0
DICTIONARY
  5
1B
102
{ACAD_REACTORS
330
19
102
}
100
AcDbDictionary
  3
STANDARD
350
1C
  0
MLINESTYLE
  5
1C
102
{ACAD_REACTORS
330
1B
102
}
100
AcDbMlineStyle
  2
STANDARD
 70
             0
  3

 62
             0
 51
90.0
 52
90.0
 71
             2
 49
0.5
 62
           256
  6
BYLAYER
 49
-0.5
 62
           256
  6
BYLAYER
  0
ENDSEC
  0
EOF
