  0
SECTION
  2
HEADER
  9
$ACADVER
  1
AC1015
  9
$ACADMAINTVER
 70
     6
  9
$DWGCODEPAGE
  3
ANSI_1252
  9
$INSBASE
 10
0.0
 20
0.0
 30
0.0
  9
$EXTMIN
 10
56.154598
 20
145.832617
 30
0.0
  9
$EXTMAX
 10
239.192745
 20
285.092153564948
 30
0.0
  9
$LIMMIN
 10
0.0
 20
0.0
  9
$LIMMAX
 10
12.0
 20
9.0
  9
$ORTHOMODE
 70
     0
  9
$REGENMODE
 70
     1
  9
$FILLMODE
 70
     1
  9
$QTEXTMODE
 70
     0
  9
$MIRRTEXT
 70
     1
  9
$LTSCALE
 40
1.0
  9
$ATTMODE
 70
     1
  9
$TEXTSIZE
 40
0.2
  9
$TRACEWID
 40
0.05
  9
$TEXTSTYLE
  7
Standard
  9
$CLAYER
  8
0
  9
$CELTYPE
  6
ByLayer
  9
$CECOLOR
 62
   256
  9
$CELTSCALE
 40
1.0
  9
$DISPSILH
 70
     0
  9
$DIMSCALE
 40
1.0
  9
$DIMASZ
 40
0.18
  9
$DIMEXO
 40
0.0625
  9
$DIMDLI
 40
0.38
  9
$DIMRND
 40
0.0
  9
$DIMDLE
 40
0.0
  9
$DIMEXE
 40
0.18
  9
$DIMTP
 40
0.0
  9
$DIMTM
 40
0.0
  9
$DIMTXT
 40
0.18
  9
$DIMCEN
 40
0.09
  9
$DIMTSZ
 40
0.0
  9
$DIMTOL
 70
     0
  9
$DIMLIM
 70
     0
  9
$DIMTIH
 70
     1
  9
$DIMTOH
 70
     1
  9
$DIMSE1
 70
     0
  9
$DIMSE2
 70
     0
  9
$DIMTAD
 70
     0
  9
$DIMZIN
 70
     0
  9
$DIMBLK
  1

  9
$DIMASO
 70
     1
  9
$DIMSHO
 70
     1
  9
$DIMPOST
  1

  9
$DIMAPOST
  1

  9
$DIMALT
 70
     0
  9
$DIMALTD
 70
     2
  9
$DIMALTF
 40
25.4
  9
$DIMLFAC
 40
1.0
  9
$DIMTOFL
 70
     0
  9
$DIMTVP
 40
0.0
  9
$DIMTIX
 70
     0
  9
$DIMSOXD
 70
     0
  9
$DIMSAH
 70
     0
  9
$DIMBLK1
  1

  9
$DIMBLK2
  1

  9
$DIMSTYLE
  2
Standard
  9
$DIMCLRD
 70
     0
  9
$DIMCLRE
 70
     0
  9
$DIMCLRT
 70
     0
  9
$DIMTFAC
 40
1.0
  9
$DIMGAP
 40
0.09
  9
$DIMJUST
 70
     0
  9
$DIMSD1
 70
     0
  9
$DIMSD2
 70
     0
  9
$DIMTOLJ
 70
     1
  9
$DIMTZIN
 70
     0
  9
$DIMALTZ
 70
     0
  9
$DIMALTTZ
 70
     0
  9
$DIMUPT
 70
     0
  9
$DIMDEC
 70
     4
  9
$DIMTDEC
 70
     4
  9
$DIMALTU
 70
     2
  9
$DIMALTTD
 70
     2
  9
$DIMTXSTY
  7
Standard
  9
$DIMAUNIT
 70
     0
  9
$DIMADEC
 70
     0
  9
$DIMALTRND
 40
0.0
  9
$DIMAZIN
 70
     0
  9
$DIMDSEP
 70
    46
  9
$DIMATFIT
 70
     3
  9
$DIMFRAC
 70
     0
  9
$DIMLDRBLK
  1

  9
$DIMLUNIT
 70
     2
  9
$DIMLWD
 70
    -2
  9
$DIMLWE
 70
    -2
  9
$DIMTMOVE
 70
     0
  9
$LUNITS
 70
     2
  9
$LUPREC
 70
     4
  9
$SKETCHINC
 40
0.1
  9
$FILLETRAD
 40
0.5
  9
$AUNITS
 70
     0
  9
$AUPREC
 70
     0
  9
$MENU
  1
.
  9
$ELEVATION
 40
0.0
  9
$PELEVATION
 40
0.0
  9
$THICKNESS
 40
0.0
  9
$LIMCHECK
 70
     0
  9
$CHAMFERA
 40
0.5
  9
$CHAMFERB
 40
0.5
  9
$CHAMFERC
 40
1.0
  9
$CHAMFERD
 40
0.0
  9
$SKPOLY
 70
     0
  9
$TDCREATE
 40
2454704.672163125
  9
$TDUCREATE
 40
2454704.588829792
  9
$TDUPDATE
 40
2454704.672163137
  9
$TDUUPDATE
 40
2454704.588829803
  9
$TDINDWG
 40
0.0000000116
  9
$TDUSRTIMER
 40
0.0000000116
  9
$USRTIMER
 70
     1
  9
$ANGBASE
 50
0.0
  9
$ANGDIR
 70
     0
  9
$PDMODE
 70
     0
  9
$PDSIZE
 40
0.0
  9
$PLINEWID
 40
0.0
  9
$SPLFRAME
 70
     0
  9
$SPLINETYPE
 70
     6
  9
$SPLINESEGS
 70
     8
  9
$HANDSEED
  5
C8
  9
$SURFTAB1
 70
     6
  9
$SURFTAB2
 70
     6
  9
$SURFTYPE
 70
     6
  9
$SURFU
 70
     6
  9
$SURFV
 70
     6
  9
$UCSBASE
  2

  9
$UCSNAME
  2

  9
$UCSORG
 10
0.0
 20
0.0
 30
0.0
  9
$UCSXDIR
 10
1.0
 20
0.0
 30
0.0
  9
$UCSYDIR
 10
0.0
 20
1.0
 30
0.0
  9
$UCSORTHOREF
  2

  9
$UCSORTHOVIEW
 70
     0
  9
$UCSORGTOP
 10
0.0
 20
0.0
 30
0.0
  9
$UCSORGBOTTOM
 10
0.0
 20
0.0
 30
0.0
  9
$UCSORGLEFT
 10
0.0
 20
0.0
 30
0.0
  9
$UCSORGRIGHT
 10
0.0
 20
0.0
 30
0.0
  9
$UCSORGFRONT
 10
0.0
 20
0.0
 30
0.0
  9
$UCSORGBACK
 10
0.0
 20
0.0
 30
0.0
  9
$PUCSBASE
  2

  9
$PUCSNAME
  2

  9
$PUCSORG
 10
0.0
 20
0.0
 30
0.0
  9
$PUCSXDIR
 10
1.0
 20
0.0
 30
0.0
  9
$PUCSYDIR
 10
0.0
 20
1.0
 30
0.0
  9
$PUCSORTHOREF
  2

  9
$PUCSORTHOVIEW
 70
     0
  9
$PUCSORGTOP
 10
0.0
 20
0.0
 30
0.0
  9
$PUCSORGBOTTOM
 10
0.0
 20
0.0
 30
0.0
  9
$PUCSORGLEFT
 10
0.0
 20
0.0
 30
0.0
  9
$PUCSORGRIGHT
 10
0.0
 20
0.0
 30
0.0
  9
$PUCSORGFRONT
 10
0.0
 20
0.0
 30
0.0
  9
$PUCSORGBACK
 10
0.0
 20
0.0
 30
0.0
  9
$USERI1
 70
     0
  9
$USERI2
 70
     0
  9
$USERI3
 70
     0
  9
$USERI4
 70
     0
  9
$USERI5
 70
     0
  9
$USERR1
 40
15.5
  9
$USERR2
 40
0.0
  9
$USERR3
 40
0.0
  9
$USERR4
 40
0.0
  9
$USERR5
 40
0.0
  9
$WORLDVIEW
 70
     1
  9
$SHADEDGE
 70
     3
  9
$SHADEDIF
 70
    70
  9
$TILEMODE
 70
     1
  9
$MAXACTVP
 70
    64
  9
$PINSBASE
 10
0.0
 20
0.0
 30
0.0
  9
$PLIMCHECK
 70
     0
  9
$PEXTMIN
 10
1.00000000000000E+20
 20
1.00000000000000E+20
 30
1.00000000000000E+20
  9
$PEXTMAX
 10
-1.00000000000000E+20
 20
-1.00000000000000E+20
 30
-1.00000000000000E+20
  9
$PLIMMIN
 10
0.0
 20
0.0
  9
$PLIMMAX
 10
12.0
 20
9.0
  9
$UNITMODE
 70
     0
  9
$VISRETAIN
 70
     1
  9
$PLINEGEN
 70
     0
  9
$PSLTSCALE
 70
     1
  9
$TREEDEPTH
 70
  3020
  9
$CMLSTYLE
  2
Standard
  9
$CMLJUST
 70
     0
  9
$CMLSCALE
 40
1.0
  9
$PROXYGRAPHICS
 70
     1
  9
$MEASUREMENT
 70
     1
  9
$CELWEIGHT
370
    -1
  9
$ENDCAPS
280
     0
  9
$JOINSTYLE
280
     0
  9
$LWDISPLAY
290
     0
  9
$INSUNITS
 70
     1
  9
$HYPERLINKBASE
  1

  9
$STYLESHEET
  1

  9
$XEDIT
290
     1
  9
$CEPSNTYPE
380
     0
  9
$PSTYLEMODE
290
     1
  9
$FINGERPRINTGUID
  2
{2822145D-7411-457B-A03C-0DA162C25F73}
  9
$VERSIONGUID
  2
{FAEB1C32-E019-11D5-929B-00C0DF256EC4}
  9
$EXTNAMES
290
     1
  9
$PSVPSCALE
 40
0.0
  9
$OLESTARTUP
290
     0
  0
ENDSEC
  0
SECTION
  2
CLASSES
  0
CLASS
  1
ACDBDICTIONARYWDFLT
  2
AcDbDictionaryWithDefault
  3
ObjectDBX Classes
 90
        0
280
     0
281
     0
  0
CLASS
  1
VISUALSTYLE
  2
AcDbVisualStyle
  3
ObjectDBX Classes
 90
     4095
280
     0
281
     0
  0
CLASS
  1
ACDBPLACEHOLDER
  2
AcDbPlaceHolder
  3
ObjectDBX Classes
 90
        0
280
     0
281
     0
  0
CLASS
  1
LAYOUT
  2
AcDbLayout
  3
ObjectDBX Classes
 90
        0
280
     0
281
     0
  0
ENDSEC
  0
SECTION
  2
TABLES
  0
TABLE
  2
VPORT
  5
8
330
0
100
AcDbSymbolTable
 70
     1
  0
VPORT
  5
29
330
8
100
AcDbSymbolTableRecord
100
AcDbViewportTableRecord
  2
*Active
 70
     0
 10
0.0
 20
0.0
 11
1.0
 21
1.0
 12
147.6736715
 22
215.462385282474
 13
0.0
 23
0.0
 14
0.5
 24
0.5
 15
0.5
 25
0.5
 16
0.0
 26
0.0
 36
1.0
 17
0.0
 27
0.0
 37
0.0
 40
153.1854902214428
 41
1.60267857142857
 42
50.0
 43
0.0
 44
0.0
 50
0.0
 51
0.0
 71
     0
 72
   100
 73
     1
 74
     3
 75
     0
 76
     0
 77
     0
 78
     0
281
     0
 65
     1
110
0.0
120
0.0
130
0.0
111
1.0
121
0.0
131
0.0
112
0.0
122
1.0
132
0.0
 79
     0
146
0.0
  0
ENDTAB
  0
TABLE
  2
LTYPE
  5
5
330
0
100
AcDbSymbolTable
 70
     8
  0
LTYPE
  5
14
330
5
100
AcDbSymbolTableRecord
100
AcDbLinetypeTableRecord
  2
ByBlock
 70
     0
  3

 72
    65
 73
     0
 40
0.0
  0
LTYPE
  5
15
330
5
100
AcDbSymbolTableRecord
100
AcDbLinetypeTableRecord
  2
ByLayer
 70
     0
  3

 72
    65
 73
     0
 40
0.0
  0
LTYPE
  5
16
330
5
100
AcDbSymbolTableRecord
100
AcDbLinetypeTableRecord
  2
Continuous
 70
     0
  3
Solid line
 72
    65
 73
     0
 40
0.0
  0
LTYPE
  5
3B
330
5
100
AcDbSymbolTableRecord
100
AcDbLinetypeTableRecord
  2
DASHED
 70
     0
  3
Dashed
 72
    65
 73
     2
 40
15.0
 49
7.0
 74
     0
 49
-8.0
 74
     0
  0
LTYPE
  5
3C
330
5
100
AcDbSymbolTableRecord
100
AcDbLinetypeTableRecord
  2
DOTTED
 70
     0
  3
Dotted
 72
    65
 73
     2
 40
1.0
 49
0.0
 74
     0
 49
-1.0
 74
     0
  0
LTYPE
  5
3D
330
5
100
AcDbSymbolTableRecord
100
AcDbLinetypeTableRecord
  2
DOT_CENTER
 70
     0
  3
Dot_Center
 72
    65
 73
     4
 40
14.0
 49
12.0
 74
     0
 49
-1.0
 74
     0
 49
0.0
 74
     0
 49
-1.0
 74
     0
  0
LTYPE
  5
3E
330
5
100
AcDbSymbolTableRecord
100
AcDbLinetypeTableRecord
  2
LONG_DASHED
 70
     0
  3
Long_Dashed
 72
    65
 73
     2
 40
15.0
 49
10.0
 74
     0
 49
-5.0
 74
     0
  0
LTYPE
  5
3F
330
5
100
AcDbSymbolTableRecord
100
AcDbLinetypeTableRecord
  2
DASH_CENTER
 70
     0
  3
Dash_Center
 72
    65
 73
     4
 40
14.0
 49
11.0
 74
     0
 49
-1.0
 74
     0
 49
1.0
 74
     0
 49
-1.0
 74
     0
  0
LTYPE
  5
40
330
5
100
AcDbSymbolTableRecord
100
AcDbLinetypeTableRecord
  2
PHANTOM
 70
     0
  3
Phantom
 72
    65
 73
     6
 40
13.0
 49
10.0
 74
     0
 49
-1.0
 74
     0
 49
0.0
 74
     0
 49
-1.0
 74
     0
 49
0.0
 74
     0
 49
-1.0
 74
     0
  0
LTYPE
  5
41
330
5
100
AcDbSymbolTableRecord
100
AcDbLinetypeTableRecord
  2
CENTER_DASH_DASH
 70
     0
  3
Center_Dash_Dash
 72
    65
 73
     6
 40
14.0
 49
9.0
 74
     0
 49
-1.0
 74
     0
 49
1.0
 74
     0
 49
-1.0
 74
     0
 49
1.0
 74
     0
 49
-1.0
 74
     0
  0
ENDTAB
  0
TABLE
  2
LAYER
  5
2
330
0
100
AcDbSymbolTable
 70
     4
  0
LAYER
  5
10
330
2
100
AcDbSymbolTableRecord
100
AcDbLayerTableRecord
  2
0
 70
     0
 62
     7
  6
Continuous
370
    -3
390
F
  0
LAYER
  5
42
330
2
100
AcDbSymbolTableRecord
100
AcDbLayerTableRecord
  2
1
 70
     0
 62
     7
  6
Continuous
370
    -3
390
F
  0
LAYER
  5
43
330
2
100
AcDbSymbolTableRecord
100
AcDbLayerTableRecord
  2
LC-002-002-----0
 70
     0
 62
     7
  6
Continuous
370
    -3
390
F
  0
LAYER
  5
44
330
2
100
AcDbSymbolTableRecord
100
AcDbLayerTableRecord
  2
LC-003-003-----0
 70
     0
 62
     7
  6
Continuous
370
    -3
390
F
  0
ENDTAB
  0
TABLE
  2
STYLE
  5
3
330
0
100
AcDbSymbolTable
 70
     2
  0
STYLE
  5
11
330
3
100
AcDbSymbolTableRecord
100
AcDbTextStyleTableRecord
  2
Standard
 70
     0
 40
0.0
 41
1.0
 50
0.0
 71
     0
 42
0.2
  3
txt
  4

  0
STYLE
  5
B6
330
3
100
AcDbSymbolTableRecord
100
AcDbTextStyleTableRecord
  2
CONVERTER_11
 70
     0
 40
0.0
 41
0.9
 50
0.0
 71
     0
 42
0.2
  3
txt.shx
  4

  0
ENDTAB
  0
TABLE
  2
VIEW
  5
6
330
0
100
AcDbSymbolTable
 70
     0
  0
ENDTAB
  0
TABLE
  2
UCS
  5
7
330
0
100
AcDbSymbolTable
 70
     0
  0
ENDTAB
  0
TABLE
  2
APPID
  5
9
330
0
100
AcDbSymbolTable
 70
     1
  0
APPID
  5
12
330
9
100
AcDbSymbolTableRecord
100
AcDbRegAppTableRecord
  2
ACAD
 70
     0
  0
ENDTAB
  0
TABLE
  2
DIMSTYLE
  5
A
330
0
100
AcDbSymbolTable
 70
     3
100
AcDbDimStyleTable
  0
DIMSTYLE
105
27
330
A
100
AcDbSymbolTableRecord
100
AcDbDimStyleTableRecord
  2
Standard
 70
     0
340
11
  0
DIMSTYLE
105
BA
102
{ACAD_REACTORS
330
BB
102
}
330
A
100
AcDbSymbolTableRecord
100
AcDbDimStyleTableRecord
  2
ME10_DIM_10
 70
     0
 41
10.0
 42
0.0
 44
2.0
 73
     0
 74
     0
 77
     1
 78
     8
140
10.0
147
2.0
172
     1
173
     1
176
     4
177
     4
178
     1
271
     2
340
B6
  0
DIMSTYLE
105
C5
102
{ACAD_REACTORS
330
C6
102
}
330
A
100
AcDbSymbolTableRecord
100
AcDbDimStyleTableRecord
  2
ME10_DIM_11
 70
     0
  3
x115
 41
10.0
 42
0.0
 44
2.0
 73
     0
 74
     0
 77
     1
 78
     8
140
10.0
147
2.0
172
     1
173
     1
176
     4
177
     4
178
     1
271
     2
340
B6
  0
ENDTAB
  0
TABLE
  2
BLOCK_RECORD
  5
1
330
0
100
AcDbSymbolTable
 70
     5
  0
BLOCK_RECORD
  5
1F
330
1
100
AcDbSymbolTableRecord
100
AcDbBlockTableRecord
  2
*Model_Space
340
22
  0
BLOCK_RECORD
  5
1B
330
1
100
AcDbSymbolTableRecord
100
AcDbBlockTableRecord
  2
*Paper_Space
340
1E
  0
BLOCK_RECORD
  5
23
330
1
100
AcDbSymbolTableRecord
100
AcDbBlockTableRecord
  2
*Paper_Space0
340
26
  0
BLOCK_RECORD
  5
45
330
1
100
AcDbSymbolTableRecord
100
AcDbBlockTableRecord
  2
HL3122_LOIRE_Designerrost__1
340
0
102
{BLKREFS
331
4B
102
}
  0
BLOCK_RECORD
  5
48
330
1
100
AcDbSymbolTableRecord
100
AcDbBlockTableRecord
  2
HL3122_LOIRE_Designerrost__2
340
0
102
{BLKREFS
331
4C
102
}
  0
BLOCK_RECORD
  5
AE
330
1
100
AcDbSymbolTableRecord
100
AcDbBlockTableRecord
  2
*D3
340
0
  0
BLOCK_RECORD
  5
BC
330
1
100
AcDbSymbolTableRecord
100
AcDbBlockTableRecord
  2
*D4
340
0
  0
ENDTAB
  0
ENDSEC
  0
SECTION
  2
BLOCKS
  0
BLOCK
  5
20
330
1F
100
AcDbEntity
  8
0
100
AcDbBlockBegin
  2
*Model_Space
 70
     0
 71
     0
 10
0.0
 20
0.0
 30
0.0
  3
*Model_Space
  1

  0
ENDBLK
  5
21
330
1F
100
AcDbEntity
  8
0
100
AcDbBlockEnd
  0
BLOCK
  5
1C
330
1B
100
AcDbEntity
 67
     1
  8
0
100
AcDbBlockBegin
  2
*Paper_Space
 70
     0
 71
     0
 10
0.0
 20
0.0
 30
0.0
  3
*Paper_Space
  1

  0
ENDBLK
  5
1D
330
1B
100
AcDbEntity
 67
     1
  8
0
100
AcDbBlockEnd
  0
BLOCK
  5
24
330
23
100
AcDbEntity
  8
0
100
AcDbBlockBegin
  2
*Paper_Space0
 70
     0
 71
     0
 10
0.0
 20
0.0
 30
0.0
  3
*Paper_Space0
  1

  0
ENDBLK
  5
25
330
23
100
AcDbEntity
  8
0
100
AcDbBlockEnd
  0
BLOCK
  5
46
330
45
100
AcDbEntity
  8
0
100
AcDbBlockBegin
  2
HL3122_LOIRE_Designerrost__1
 70
     0
 71
     0
 10
253.513588045875
 20
145.832617
 30
0.0
  3
HL3122_LOIRE_Designerrost__1
  1

  0
POINT
  5
4D
330
45
100
AcDbEntity
  8
LC-003-003-----0
 62
     7
100
AcDbPoint
 10
219.192745
 20
260.832617
 30
0.0
  0
POINT
  5
4E
330
45
100
AcDbEntity
  8
LC-003-003-----0
 62
     7
100
AcDbPoint
 10
214.192745
 20
260.832617
 30
0.0
  0
LINE
  5
4F
330
45
100
AcDbEntity
  8
1
  6
PHANTOM
 62
     2
100
AcDbLine
 10
212.513588045875
 20
203.332617
 30
0.0
 11
220.951179029948
 21
203.332617
 31
0.0
  0
LINE
  5
50
330
45
100
AcDbEntity
  8
LC-002-002-----0
  6
Continuous
 62
     7
100
AcDbLine
 10
219.192745
 20
260.832617
 30
0.0
 11
214.192745
 21
260.832617
 31
0.0
  0
LINE
  5
51
330
45
100
AcDbEntity
  8
LC-002-002-----0
  6
Continuous
 62
     7
100
AcDbLine
 10
219.192745
 20
145.832617
 30
0.0
 11
219.192745
 21
260.832617
 31
0.0
  0
LINE
  5
52
330
45
100
AcDbEntity
  8
LC-002-002-----0
  6
Continuous
 62
     7
100
AcDbLine
 10
214.192745
 20
145.832617
 30
0.0
 11
219.192745
 21
145.832617
 31
0.0
  0
LINE
  5
53
330
45
100
AcDbEntity
  8
LC-002-002-----0
  6
Continuous
 62
     7
100
AcDbLine
 10
214.192745
 20
260.832617
 30
0.0
 11
214.192745
 21
145.832617
 31
0.0
  0
ENDBLK
  5
47
330
45
100
AcDbEntity
  8
0
100
AcDbBlockEnd
  0
BLOCK
  5
49
330
48
100
AcDbEntity
  8
0
100
AcDbBlockBegin
  2
HL3122_LOIRE_Designerrost__2
 70
     0
 71
     0
 10
56.154598
 20
145.832617
 30
0.0
  3
HL3122_LOIRE_Designerrost__2
  1

  0
POINT
  5
54
330
48
100
AcDbEntity
  8
LC-003-003-----0
 62
     7
100
AcDbPoint
 10
171.154598
 20
257.832617
 30
0.0
  0
POINT
  5
55
330
48
100
AcDbEntity
  8
LC-003-003-----0
 62
     7
100
AcDbPoint
 10
56.154598
 20
257.832617
 30
0.0
  0
LINE
  5
56
330
48
100
AcDbEntity
  8
LC-002-002-----0
  6
Continuous
 62
     7
100
AcDbLine
 10
171.154598
 20
257.832617
 30
0.0
 11
171.154598
 21
148.832617
 31
0.0
  0
LINE
  5
57
330
48
100
AcDbEntity
  8
LC-002-002-----0
  6
Continuous
 62
     7
100
AcDbLine
 10
56.154598
 20
148.832617
 30
0.0
 11
56.154598
 21
257.832617
 31
0.0
  0
LINE
  5
58
330
48
100
AcDbEntity
  8
LC-002-002-----0
  6
Continuous
 62
     7
100
AcDbLine
 10
168.154598
 20
145.832617
 30
0.0
 11
59.154598
 21
145.832617
 31
0.0
  0
LINE
  5
59
330
48
100
AcDbEntity
  8
LC-002-002-----0
  6
Continuous
 62
     7
100
AcDbLine
 10
76.154598
 20
240.832617
 30
0.0
 11
78.880486
 21
240.832617
 31
0.0
  0
LINE
  5
5A
330
48
100
AcDbEntity
  8
LC-002-002-----0
  6
Continuous
 62
     7
100
AcDbLine
 10
76.154598
 20
237.895222
 30
0.0
 11
76.154598
 21
240.832617
 31
0.0
  0
LINE
  5
5B
330
48
100
AcDbEntity
  8
LC-002-002-----0
  6
Continuous
 62
     7
100
AcDbLine
 10
90.602932
 20
240.832617
 30
0.0
 11
95.435349
 21
240.832617
 31
0.0
  0
LINE
  5
5C
330
48
100
AcDbEntity
  8
LC-002-002-----0
  6
Continuous
 62
     7
100
AcDbLine
 10
59.154598
 20
260.832617
 30
0.0
 11
168.154598
 21
260.832617
 31
0.0
  0
LINE
  5
5D
330
48
100
AcDbEntity
  8
LC-002-002-----0
  6
Continuous
 62
     7
100
AcDbLine
 10
126.191143
 20
240.832617
 30
0.0
 11
130.377236
 21
240.832617
 31
0.0
  0
ARC
  5
5E
330
48
100
AcDbEntity
  8
LC-002-002-----0
  6
Continuous
 62
     7
100
AcDbCircle
 10
117.132375
 20
227.853498
 30
0.0
 40
11.99999999999993
100
AcDbArc
 50
176.4948019999982
 51
-26.57911699999729
  0
ARC
  5
5F
330
48
100
AcDbEntity
  8
LC-002-002-----0
  6
Continuous
 62
     7
100
AcDbCircle
 10
92.16375
 20
200.710859
 30
0.0
 40
1.999999999999956
100
AcDbArc
 50
33.46304099999782
 51
-146.536959000002
  0
ARC
  5
60
330
48
100
AcDbEntity
  8
LC-002-002-----0
  6
Continuous
 62
     7
100
AcDbCircle
 10
149.154613
 20
186.757098
 30
0.0
 40
1.999999999999849
100
AcDbArc
 50
-93.50519800001156
 51
0.0
  0
ARC
  5
61
330
48
100
AcDbEntity
  8
LC-002-002-----0
  6
Continuous
 62
     7
100
AcDbCircle
 10
149.154613
 20
186.757098
 30
0.0
 40
2.0
100
AcDbArc
 50
0.0
 51
86.4948019999884
  0
ARC
  5
62
330
48
100
AcDbEntity
  8
LC-002-002-----0
  6
Continuous
 62
     7
100
AcDbCircle
 10
144.385097
 20
220.309602
 30
0.0
 40
1.999999999999712
100
AcDbArc
 50
121.5369589999971
 51
-58.46304100000334
  0
ARC
  5
63
330
48
100
AcDbEntity
  8
LC-002-002-----0
  6
Continuous
 62
     7
100
AcDbCircle
 10
87.952572
 20
165.832632
 30
0.0
 40
8.000000000000107
100
AcDbArc
 50
11.53695900000237
 51
168.4630409999975
  0
ARC
  5
64
330
48
100
AcDbEntity
  8
LC-002-002-----0
  6
Continuous
 62
     7
100
AcDbCircle
 10
79.792966
 20
226.341199
 30
0.0
 40
1.99999999999987
100
AcDbArc
 50
143.736485000005
 51
-36.26351499999455
  0
ARC
  5
65
330
48
100
AcDbEntity
  8
LC-002-002-----0
  6
Continuous
 62
     7
100
AcDbCircle
 10
107.151082
 20
228.464889
 30
0.0
 40
1.999999999999834
100
AcDbArc
 50
-3.50519800001158
 51
176.4948019999885
  0
ARC
  5
66
330
48
100
AcDbEntity
  8
LC-002-002-----0
  6
Continuous
 62
     7
100
AcDbCircle
 10
144.06889
 20
167.832632
 30
0.0
 40
1.999999999999635
100
AcDbArc
 50
-116.5791170000082
 51
0.0
  0
ARC
  5
67
330
48
100
AcDbEntity
  8
LC-002-002-----0
  6
Continuous
 62
     7
100
AcDbCircle
 10
144.06889
 20
167.832632
 30
0.0
 40
2.0
100
AcDbArc
 50
0.0
 51
63.42088299999215
  0
ARC
  5
68
330
48
100
AcDbEntity
  8
LC-002-002-----0
  6
Continuous
 62
     7
100
AcDbCircle
 10
115.285829
 20
194.054354
 30
0.0
 40
2.000000000000425
100
AcDbArc
 50
168.4630409999927
 51
-11.5369590000074
  0
ARC
  5
69
330
48
100
AcDbEntity
  8
LC-002-002-----0
  6
Continuous
 62
     7
100
AcDbCircle
 10
140.740014
 20
195.317844
 30
0.0
 40
2.000000000000455
100
AcDbArc
 50
112.2504750000094
 51
-67.74952499999168
  0
ARC
  5
6A
330
48
100
AcDbEntity
  8
LC-002-002-----0
  6
Continuous
 62
     7
100
AcDbCircle
 10
87.952572
 20
165.832632
 30
0.0
 40
11.99999999999998
100
AcDbArc
 50
11.53695900000013
 51
168.4630409999999
  0
ARC
  5
6B
330
48
100
AcDbEntity
  8
LC-002-002-----0
  6
Continuous
 62
     7
100
AcDbCircle
 10
126.075549
 20
223.379166
 30
0.0
 40
1.99999999999966
100
AcDbArc
 50
-26.57911700000785
 51
153.420882999992
  0
ARC
  5
6C
330
48
100
AcDbEntity
  8
LC-002-002-----0
  6
Continuous
 62
     7
100
AcDbCircle
 10
97.59222
 20
218.14446
 30
0.0
 40
2.000000000000048
100
AcDbArc
 50
166.8104029999955
 51
-13.18959700000515
  0
ARC
  5
6D
330
48
100
AcDbEntity
  8
LC-002-002-----0
  6
Continuous
 62
     7
100
AcDbCircle
 10
78.307344
 20
186.854452
 30
0.0
 40
1.999999999999916
100
AcDbArc
 50
56.536958999998
 51
-123.463041000002
  0
ARC
  5
6E
330
48
100
AcDbEntity
  8
LC-002-002-----0
  6
Continuous
 62
     7
100
AcDbCircle
 10
105.649318
 20
204.24474
 30
0.0
 40
8.000000000000504
100
AcDbArc
 50
11.53695900000158
 51
168.4630409999978
  0
ARC
  5
6F
330
48
100
AcDbEntity
  8
LC-002-002-----0
  6
Continuous
 62
     7
100
AcDbCircle
 10
84.741709
 20
246.277437
 30
0.0
 40
11.99999999999969
100
AcDbArc
 50
-135.6917840000017
 51
-26.98357200000171
  0
ARC
  5
70
330
48
100
AcDbEntity
  8
LC-002-002-----0
  6
Continuous
 62
     7
100
AcDbCircle
 10
96.323445
 20
185.591354
 30
0.0
 40
2.000000000000403
100
AcDbArc
 50
76.81040300000379
 51
-103.1895969999966
  0
ARC
  5
71
330
48
100
AcDbEntity
  8
LC-002-002-----0
  6
Continuous
 62
     7
100
AcDbCircle
 10
115.504426
 20
174.583124
 30
0.0
 40
11.99999999999966
100
AcDbArc
 50
49.01588000000071
 51
-154.0580379999997
  0
ARC
  5
72
330
48
100
AcDbEntity
  8
LC-002-002-----0
  6
Continuous
 62
     7
100
AcDbCircle
 10
59.154613
 20
148.832632
 30
0.0
 40
3.0
100
AcDbArc
 50
180.0
 51
-90.0
  0
ARC
  5
73
330
48
100
AcDbEntity
  8
LC-002-002-----0
  6
Continuous
 62
     7
100
AcDbCircle
 10
95.851359
 20
206.24474
 30
0.0
 40
2.000000000000035
100
AcDbArc
 50
168.4630409999904
 51
-11.53695900000968
  0
ARC
  5
74
330
48
100
AcDbEntity
  8
LC-002-002-----0
  6
Continuous
 62
     7
100
AcDbCircle
 10
168.154613
 20
257.832632
 30
0.0
 40
3.0
100
AcDbArc
 50
0.0
 51
90.0
  0
ARC
  5
75
330
48
100
AcDbEntity
  8
LC-002-002-----0
  6
Continuous
 62
     7
100
AcDbCircle
 10
148.543222
 20
176.775806
 30
0.0
 40
11.99999999999993
100
AcDbArc
 50
86.49480199999822
 51
-116.5791169999972
  0
ARC
  5
76
330
48
100
AcDbEntity
  8
LC-002-002-----0
  6
Continuous
 62
     7
100
AcDbCircle
 10
84.741709
 20
246.277437
 30
0.0
 40
7.999999999999856
100
AcDbArc
 50
-137.109256000001
 51
-42.89074399999905
  0
ARC
  5
77
330
48
100
AcDbEntity
  8
LC-002-002-----0
  6
Continuous
 62
     7
100
AcDbCircle
 10
136.953451
 20
204.573217
 30
0.0
 40
11.99999999999974
100
AcDbArc
 50
-67.74952500000076
 51
89.17655700000195
  0
ARC
  5
78
330
48
100
AcDbEntity
  8
LC-002-002-----0
  6
Continuous
 62
     7
100
AcDbCircle
 10
109.509111
 20
228.397401
 30
0.0
 40
7.999999999999609
100
AcDbArc
 50
-13.18959699999832
 51
143.7364850000015
  0
ARC
  5
79
330
48
100
AcDbEntity
  8
LC-002-002-----0
  6
Continuous
 62
     7
100
AcDbCircle
 10
126.25548
 20
231.365532
 30
0.0
 40
2.000000000000354
100
AcDbArc
 50
138.8224059999962
 51
-41.17759400000405
  0
ARC
  5
7A
330
48
100
AcDbEntity
  8
LC-002-002-----0
  6
Continuous
 62
     7
100
AcDbCircle
 10
134.881747
 20
194.054354
 30
0.0
 40
2.000000000000425
100
AcDbArc
 50
-168.4630409999927
 51
0.0
  0
ARC
  5
7B
330
48
100
AcDbEntity
  8
LC-002-002-----0
  6
Continuous
 62
     7
100
AcDbCircle
 10
134.881747
 20
194.054354
 30
0.0
 40
2.0
100
AcDbArc
 50
0.0
 51
11.53695900000732
  0
ARC
  5
7C
330
48
100
AcDbEntity
  8
LC-002-002-----0
  6
Continuous
 62
     7
100
AcDbCircle
 10
125.083788
 20
192.054354
 30
0.0
 40
8.000000000000497
100
AcDbArc
 50
11.5369590000018
 51
168.4630409999982
  0
ARC
  5
7D
330
48
100
AcDbEntity
  8
LC-002-002-----0
  6
Continuous
 62
     7
100
AcDbCircle
 10
109.509111
 20
228.397401
 30
0.0
 40
11.99999999999953
100
AcDbArc
 50
-13.1895970000007
 51
143.7364850000018
  0
ARC
  5
7E
330
48
100
AcDbEntity
  8
LC-002-002-----0
  6
Continuous
 62
     7
100
AcDbCircle
 10
87.856017
 20
220.4262
 30
0.0
 40
7.999999999999914
100
AcDbArc
 50
-13.18959699999781
 51
143.7364849999997
  0
ARC
  5
7F
330
48
100
AcDbEntity
  8
LC-002-002-----0
  6
Continuous
 62
     7
100
AcDbCircle
 10
139.154613
 20
228.832632
 30
0.0
 40
11.99999999999974
100
AcDbArc
 50
-58.46304100000163
 51
98.46304100000069
  0
ARC
  5
80
330
48
100
AcDbEntity
  8
LC-002-002-----0
  6
Continuous
 62
     7
100
AcDbCircle
 10
87.856017
 20
220.4262
 30
0.0
 40
12.00000000000003
100
AcDbArc
 50
-13.18959700000014
 51
143.7364850000016
  0
ARC
  5
81
330
48
100
AcDbEntity
  8
LC-002-002-----0
  6
Continuous
 62
     7
100
AcDbCircle
 10
59.154613
 20
257.832632
 30
0.0
 40
3.0
100
AcDbArc
 50
90.0
 51
180.0
  0
ARC
  5
82
330
48
100
AcDbEntity
  8
LC-002-002-----0
  6
Continuous
 62
     7
100
AcDbCircle
 10
104.520185
 20
203.390608
 30
0.0
 40
1.999999999999942
100
AcDbArc
 50
53.73648500000705
 51
-126.2635149999931
  0
ARC
  5
83
330
48
100
AcDbEntity
  8
LC-002-002-----0
  6
Continuous
 62
     7
100
AcDbCircle
 10
88.16226
 20
205.425092
 30
0.0
 40
11.99999999999991
100
AcDbArc
 50
86.49480200000018
 51
-116.579116999999
  0
ARC
  5
84
330
48
100
AcDbEntity
  8
LC-002-002-----0
  6
Continuous
 62
     7
100
AcDbCircle
 10
134.511466
 20
206.156205
 30
0.0
 40
1.99999999999966
100
AcDbArc
 50
-116.5791170000079
 51
0.0
  0
ARC
  5
85
330
48
100
AcDbEntity
  8
LC-002-002-----0
  6
Continuous
 62
     7
100
AcDbCircle
 10
134.511466
 20
206.156205
 30
0.0
 40
2.0
100
AcDbArc
 50
0.0
 51
63.42088299999215
  0
ARC
  5
86
330
48
100
AcDbEntity
  8
LC-002-002-----0
  6
Continuous
 62
     7
100
AcDbCircle
 10
83.687928
 20
196.481918
 30
0.0
 40
1.999999999999616
100
AcDbArc
 50
-116.5791170000053
 51
0.0
  0
ARC
  5
87
330
48
100
AcDbEntity
  8
LC-002-002-----0
  6
Continuous
 62
     7
100
AcDbCircle
 10
83.687928
 20
196.481918
 30
0.0
 40
2.0
100
AcDbArc
 50
0.0
 51
63.42088299999434
  0
ARC
  5
88
330
48
100
AcDbEntity
  8
LC-002-002-----0
  6
Continuous
 62
     7
100
AcDbCircle
 10
122.062925
 20
182.132038
 30
0.0
 40
2.000000000000433
100
AcDbArc
 50
-130.9841199999939
 51
0.0
  0
ARC
  5
89
330
48
100
AcDbEntity
  8
LC-002-002-----0
  6
Continuous
 62
     7
100
AcDbCircle
 10
122.062925
 20
182.132038
 30
0.0
 40
2.0
100
AcDbArc
 50
0.0
 51
49.01588000000638
  0
ARC
  5
8A
330
48
100
AcDbEntity
  8
LC-002-002-----0
  6
Continuous
 62
     7
100
AcDbCircle
 10
120.155024
 20
180.290107
 30
0.0
 40
8.000000000000265
100
AcDbArc
 50
-93.5051979999968
 51
63.42088299999844
  0
ARC
  5
8B
330
48
100
AcDbEntity
  8
LC-002-002-----0
  6
Continuous
 62
     7
100
AcDbCircle
 10
115.447277
 20
206.24474
 30
0.0
 40
2.000000000000425
100
AcDbArc
 50
-168.4630409999927
 51
0.0
  0
ARC
  5
8C
330
48
100
AcDbEntity
  8
LC-002-002-----0
  6
Continuous
 62
     7
100
AcDbCircle
 10
115.447277
 20
206.24474
 30
0.0
 40
2.0
100
AcDbArc
 50
0.0
 51
11.53695900000732
  0
ARC
  5
8D
330
48
100
AcDbEntity
  8
LC-002-002-----0
  6
Continuous
 62
     7
100
AcDbCircle
 10
118.728755
 20
237.949483
 30
0.0
 40
7.999999999999963
100
AcDbArc
 50
-41.17759400000316
 51
21.12425199999976
  0
ARC
  5
8E
330
48
100
AcDbEntity
  8
LC-002-002-----0
  6
Continuous
 62
     7
100
AcDbCircle
 10
118.728755
 20
237.949483
 30
0.0
 40
12.00000000000001
100
AcDbArc
 50
-41.17759399999984
 51
13.90195200000143
  0
ARC
  5
8F
330
48
100
AcDbEntity
  8
LC-002-002-----0
  6
Continuous
 62
     7
100
AcDbCircle
 10
120.155024
 20
180.290107
 30
0.0
 40
11.99999999999993
100
AcDbArc
 50
-93.50519800000174
 51
63.42088300000272
  0
ARC
  5
90
330
48
100
AcDbEntity
  8
LC-002-002-----0
  6
Continuous
 62
     7
100
AcDbCircle
 10
78.154613
 20
167.832632
 30
0.0
 40
2.000000000000021
100
AcDbArc
 50
168.4630409999903
 51
-11.5369590000096
  0
ARC
  5
91
330
48
100
AcDbEntity
  8
LC-002-002-----0
  6
Continuous
 62
     7
100
AcDbCircle
 10
105.649318
 20
204.24474
 30
0.0
 40
12.00000000000017
100
AcDbArc
 50
11.5369589999998
 51
168.463041
  0
ARC
  5
92
330
48
100
AcDbEntity
  8
LC-002-002-----0
  6
Continuous
 62
     7
100
AcDbCircle
 10
168.154613
 20
148.832632
 30
0.0
 40
3.0
100
AcDbArc
 50
-90.0
 51
0.0
  0
ARC
  5
93
330
48
100
AcDbEntity
  8
LC-002-002-----0
  6
Continuous
 62
     7
100
AcDbCircle
 10
117.132375
 20
227.853498
 30
0.0
 40
8.00000000000025
100
AcDbArc
 50
176.4948020000031
 51
-26.57911700000156
  0
ARC
  5
94
330
48
100
AcDbEntity
  8
LC-002-002-----0
  6
Continuous
 62
     7
100
AcDbCircle
 10
119.543633
 20
170.308815
 30
0.0
 40
1.99999999999982
100
AcDbArc
 50
86.4948019999884
 51
-93.50519800001156
  0
ARC
  5
95
330
48
100
AcDbEntity
  8
LC-002-002-----0
  6
Continuous
 62
     7
100
AcDbCircle
 10
98.605186
 20
195.327557
 30
0.0
 40
11.99999999999955
100
AcDbArc
 50
-103.1895970000007
 51
53.73648500000049
  0
ARC
  5
96
330
48
100
AcDbEntity
  8
LC-002-002-----0
  6
Continuous
 62
     7
100
AcDbCircle
 10
139.597189
 20
225.080672
 30
0.0
 40
1.999999999999849
100
AcDbArc
 50
-93.50519800001156
 51
0.0
  0
ARC
  5
97
330
48
100
AcDbEntity
  8
LC-002-002-----0
  6
Continuous
 62
     7
100
AcDbCircle
 10
139.597189
 20
225.080672
 30
0.0
 40
2.0
100
AcDbArc
 50
0.0
 51
86.49480199998763
  0
ARC
  5
98
330
48
100
AcDbEntity
  8
LC-002-002-----0
  6
Continuous
 62
     7
100
AcDbCircle
 10
101.44606
 20
234.312399
 30
0.0
 40
1.999999999999853
100
AcDbArc
 50
143.7364850000057
 51
-36.26351499999262
  0
ARC
  5
99
330
48
100
AcDbEntity
  8
LC-002-002-----0
  6
Continuous
 62
     7
100
AcDbCircle
 10
115.504426
 20
174.583124
 30
0.0
 40
8.0000000000002
100
AcDbArc
 50
49.01587999999695
 51
-154.0580380000008
  0
ARC
  5
9A
330
48
100
AcDbEntity
  8
LC-002-002-----0
  6
Continuous
 62
     7
100
AcDbCircle
 10
138.985798
 20
215.099379
 30
0.0
 40
11.99999999999993
100
AcDbArc
 50
86.49480199999822
 51
-116.5791169999972
  0
ARC
  5
9B
330
48
100
AcDbEntity
  8
LC-002-002-----0
  6
Continuous
 62
     7
100
AcDbCircle
 10
137.097164
 20
214.572184
 30
0.0
 40
2.000000000000266
100
AcDbArc
 50
89.17655700000222
 51
-90.82344299999778
  0
ARC
  5
9C
330
48
100
AcDbEntity
  8
LC-002-002-----0
  6
Continuous
 62
     7
100
AcDbCircle
 10
124.629356
 20
189.233281
 30
0.0
 40
1.999999999999635
100
AcDbArc
 50
63.42088299999178
 51
-116.5791170000079
  0
ARC
  5
9D
330
48
100
AcDbEntity
  8
LC-002-002-----0
  6
Continuous
 62
     7
100
AcDbCircle
 10
97.750531
 20
167.832632
 30
0.0
 40
2.000000000000021
100
AcDbArc
 50
-168.4630409999903
 51
0.0
  0
ARC
  5
9E
330
48
100
AcDbEntity
  8
LC-002-002-----0
  6
Continuous
 62
     7
100
AcDbCircle
 10
97.750531
 20
167.832632
 30
0.0
 40
2.0
100
AcDbArc
 50
0.0
 51
11.5369590000096
  0
ARC
  5
9F
330
48
100
AcDbEntity
  8
LC-002-002-----0
  6
Continuous
 62
     7
100
AcDbCircle
 10
88.773651
 20
215.406384
 30
0.0
 40
1.999999999999824
100
AcDbArc
 50
-93.50519800000018
 51
0.0
  0
ARC
  5
A0
330
48
100
AcDbEntity
  8
LC-002-002-----0
  6
Continuous
 62
     7
100
AcDbCircle
 10
88.773651
 20
215.406384
 30
0.0
 40
2.0
100
AcDbArc
 50
0.0
 51
86.49480199999982
  0
ARC
  5
A1
330
48
100
AcDbEntity
  8
LC-002-002-----0
  6
Continuous
 62
     7
100
AcDbCircle
 10
139.154613
 20
228.832632
 30
0.0
 40
8.000000000000288
100
AcDbArc
 50
-58.46304100000089
 51
98.46304099999834
  0
ARC
  5
A2
330
48
100
AcDbEntity
  8
LC-002-002-----0
  6
Continuous
 62
     7
100
AcDbCircle
 10
138.985798
 20
215.099379
 30
0.0
 40
8.000000000000236
100
AcDbArc
 50
86.49480200000309
 51
-116.5791170000014
  0
ARC
  5
A3
330
48
100
AcDbEntity
  8
LC-002-002-----0
  6
Continuous
 62
     7
100
AcDbCircle
 10
88.16226
 20
205.425092
 30
0.0
 40
8.000000000000261
100
AcDbArc
 50
86.49480200000035
 51
-116.579116999999
  0
ARC
  5
A4
330
48
100
AcDbEntity
  8
LC-002-002-----0
  6
Continuous
 62
     7
100
AcDbCircle
 10
83.821333
 20
195.196869
 30
0.0
 40
12.00000000000027
100
AcDbArc
 50
-123.463040999999
 51
33.46304100000205
  0
ARC
  5
A5
330
48
100
AcDbEntity
  8
LC-002-002-----0
  6
Continuous
 62
     7
100
AcDbCircle
 10
137.682899
 20
238.723742
 30
0.0
 40
2.000000000000061
100
AcDbArc
 50
98.46304100000489
 51
-81.53695899999417
  0
ARC
  5
A6
330
48
100
AcDbEntity
  8
LC-002-002-----0
  6
Continuous
 62
     7
100
AcDbCircle
 10
125.083788
 20
192.054354
 30
0.0
 40
12.00000000000017
100
AcDbArc
 50
11.53695899999994
 51
168.4630410000001
  0
ARC
  5
A7
330
48
100
AcDbEntity
  8
LC-002-002-----0
  6
Continuous
 62
     7
100
AcDbCircle
 10
148.543222
 20
176.775806
 30
0.0
 40
8.000000000000265
100
AcDbArc
 50
86.4948020000031
 51
-116.5791170000014
  0
ARC
  5
A8
330
48
100
AcDbEntity
  8
LC-002-002-----0
  6
Continuous
 62
     7
100
AcDbCircle
 10
119.245314
 20
226.11566
 30
0.0
 40
2.000000000000441
100
AcDbArc
 50
166.8104029999973
 51
-13.18959700000176
  0
ARC
  5
A9
330
48
100
AcDbEntity
  8
LC-002-002-----0
  6
Continuous
 62
     7
100
AcDbCircle
 10
106.51205
 20
170.208519
 30
0.0
 40
1.999999999999802
100
AcDbArc
 50
-154.0580379999917
 51
0.0
  0
ARC
  5
AA
330
48
100
AcDbEntity
  8
LC-002-002-----0
  6
Continuous
 62
     7
100
AcDbCircle
 10
106.51205
 20
170.208519
 30
0.0
 40
2.0
100
AcDbArc
 50
0.0
 51
25.94196200000903
  0
ARC
  5
AB
330
48
100
AcDbEntity
  8
LC-002-002-----0
  6
Continuous
 62
     7
100
AcDbCircle
 10
98.605186
 20
195.327557
 30
0.0
 40
7.999999999999681
100
AcDbArc
 50
-103.1895970000005
 51
53.73648500000134
  0
ARC
  5
AC
330
48
100
AcDbEntity
  8
LC-002-002-----0
  6
Continuous
 62
     7
100
AcDbCircle
 10
83.821333
 20
195.196869
 30
0.0
 40
7.999999999999663
100
AcDbArc
 50
-123.463041000002
 51
33.46304099999799
  0
ARC
  5
AD
330
48
100
AcDbEntity
  8
LC-002-002-----0
  6
Continuous
 62
     7
100
AcDbCircle
 10
136.953451
 20
204.573217
 30
0.0
 40
8.000000000000142
100
AcDbArc
 50
-67.74952500000174
 51
89.17655700000212
  0
ENDBLK
  5
4A
330
48
100
AcDbEntity
  8
0
100
AcDbBlockEnd
  0
BLOCK
  5
B8
330
AE
100
AcDbEntity
  8
0
100
AcDbBlockBegin
  2
*D3
 70
     1
 71
     0
 10
0.0
 20
0.0
 30
0.0
  3
*D3
  1

  0
LINE
  5
AF
330
AE
100
AcDbEntity
  8
1
  6
Continuous
 62
     4
100
AcDbLine
 10
194.192745
 20
273.092153564948
 30
0.0
 11
214.192745
 21
273.092153564948
 31
0.0
  0
LINE
  5
B0
330
AE
100
AcDbEntity
  8
1
  6
Continuous
 62
     4
100
AcDbLine
 10
214.192745
 20
273.092153564948
 30
0.0
 11
219.192745
 21
273.092153564948
 31
0.0
  0
LINE
  5
B1
330
AE
100
AcDbEntity
  8
1
  6
Continuous
 62
     4
100
AcDbLine
 10
219.192745
 20
273.092153564948
 30
0.0
 11
239.192745
 21
273.092153564948
 31
0.0
  0
LINE
  5
B2
330
AE
100
AcDbEntity
  8
1
  6
Continuous
 62
     4
100
AcDbLine
 10
214.192745
 20
260.832617
 30
0.0
 11
214.192745
 21
275.092153564948
 31
0.0
  0
LINE
  5
B3
330
AE
100
AcDbEntity
  8
1
  6
Continuous
 62
     4
100
AcDbLine
 10
219.192745
 20
260.832617
 30
0.0
 11
219.192745
 21
275.092153564948
 31
0.0
  0
SOLID
  5
B4
330
AE
100
AcDbEntity
  8
1
 62
     4
100
AcDbTrace
 10
229.192745
 20
274.4086785408219
 30
0.0
 11
229.192745
 21
271.775628589074
 31
0.0
 12
219.192745
 22
273.092153564948
 32
0.0
 13
219.192745
 23
273.092153564948
 33
0.0
  0
SOLID
  5
B5
330
AE
100
AcDbEntity
  8
1
 62
     4
100
AcDbTrace
 10
204.192745
 20
271.775628589074
 30
0.0
 11
204.192745
 21
274.4086785408219
 31
0.0
 12
214.192745
 22
273.092153564948
 32
0.0
 13
214.192745
 23
273.092153564948
 33
0.0
  0
MTEXT
  5
B7
330
AE
100
AcDbEntity
  8
1
 62
     1
100
AcDbMText
 10
233.095573103925
 20
275.092153564948
 30
0.0
 40
10.0
 41
0.0
 71
     7
 72
     1
  1
5
  7
CONVERTER_11
 11
0.9999999999970619
 21
2.424068405545306E-6
 31
0.0
 73
     1
 44
0.60024009603842
  0
ENDBLK
  5
B9
330
AE
100
AcDbEntity
  8
0
100
AcDbBlockEnd
  0
BLOCK
  5
C3
330
BC
100
AcDbEntity
  8
0
100
AcDbBlockBegin
  2
*D4
 70
     1
 71
     0
 10
0.0
 20
0.0
 30
0.0
  3
*D4
  1

  0
LINE
  5
BD
330
BC
100
AcDbEntity
  8
1
  6
Continuous
 62
     4
100
AcDbLine
 10
56.154598
 20
273.092153564948
 30
0.0
 11
171.154598
 21
273.092153564948
 31
0.0
  0
LINE
  5
BE
330
BC
100
AcDbEntity
  8
1
  6
Continuous
 62
     4
100
AcDbLine
 10
171.154598
 20
257.832617
 30
0.0
 11
171.154598
 21
275.092153564948
 31
0.0
  0
LINE
  5
BF
330
BC
100
AcDbEntity
  8
1
  6
Continuous
 62
     4
100
AcDbLine
 10
56.154598
 20
257.832617
 30
0.0
 11
56.154598
 21
275.092153564948
 31
0.0
  0
SOLID
  5
C0
330
BC
100
AcDbEntity
  8
1
 62
     4
100
AcDbTrace
 10
161.154598
 20
271.775628589074
 30
0.0
 11
161.154598
 21
274.4086785408219
 31
0.0
 12
171.154598
 22
273.092153564948
 32
0.0
 13
171.154598
 23
273.092153564948
 33
0.0
  0
SOLID
  5
C1
330
BC
100
AcDbEntity
  8
1
 62
     4
100
AcDbTrace
 10
66.154598
 20
274.4086785408219
 30
0.0
 11
66.154598
 21
271.775628589074
 31
0.0
 12
56.154598
 22
273.092153564948
 32
0.0
 13
56.154598
 23
273.092153564948
 33
0.0
  0
MTEXT
  5
C2
330
BC
100
AcDbEntity
  8
1
 62
     1
100
AcDbMText
 10
87.454374671116
 20
275.092153564948
 30
0.0
 40
10.0
 41
0.0
 71
     7
 72
     1
  1
\C1;115\C1;x115
  7
CONVERTER_11
 11
0.9999999999970619
 21
2.424068405545306E-6
 31
0.0
 73
     1
 44
0.60024009603842
  0
ENDBLK
  5
C4
330
BC
100
AcDbEntity
  8
0
100
AcDbBlockEnd
  0
ENDSEC
  0
SECTION
  2
ENTITIES
  0
INSERT
  5
4B
330
1F
100
AcDbEntity
  8
1
100
AcDbBlockReference
  2
HL3122_LOIRE_Designerrost__1
 10
253.513588045875
 20
145.832617
 30
0.0
  0
INSERT
  5
4C
330
1F
100
AcDbEntity
  8
1
100
AcDbBlockReference
  2
HL3122_LOIRE_Designerrost__2
 10
56.154598
 20
145.832617
 30
0.0
  0
DIMENSION
  5
BB
330
1F
100
AcDbEntity
  8
1
100
AcDbDimension
  2
*D3
 10
219.192745
 20
273.092153564948
 30
0.0
 11
236.095573103925
 21
280.092153564948
 31
0.0
 70
    32
  1
<>
 71
     5
 42
-1.0
 53
0.00013888888889
  3
ME10_DIM_10
100
AcDbAlignedDimension
 13
214.192745
 23
260.832617
 33
0.0
 14
219.192745
 24
260.832617
 34
0.0
100
AcDbRotatedDimension
  0
DIMENSION
  5
C6
330
1F
100
AcDbEntity
  8
1
100
AcDbDimension
  2
*D4
 10
171.154598
 20
273.092153564948
 30
0.0
 11
112.454374671116
 21
280.092153564948
 31
0.0
 70
    32
  1
<>
 71
     5
 42
-1.0
 53
0.00013888888889
  3
ME10_DIM_11
100
AcDbAlignedDimension
 13
56.154598
 23
257.832617
 33
0.0
 14
171.154598
 24
257.832617
 34
0.0
100
AcDbRotatedDimension
  0
ENDSEC
  0
SECTION
  2
OBJECTS
  0
DICTIONARY
  5
C
330
0
100
AcDbDictionary
281
     1
  3
ACAD_GROUP
350
D
  3
ACAD_LAYOUT
350
1A
  3
ACAD_MLINESTYLE
350
17
  3
ACAD_PLOTSETTINGS
350
19
  3
ACAD_PLOTSTYLENAME
350
E
  3
ACAD_TABLESTYLE
350
C7
  3
ACAD_VISUALSTYLE
350
2A
  0
DICTIONARY
  5
D
102
{ACAD_REACTORS
330
C
102
}
330
C
100
AcDbDictionary
281
     1
  0
DICTIONARY
  5
1A
102
{ACAD_REACTORS
330
C
102
}
330
C
100
AcDbDictionary
281
     1
  3
Layout1
350
1E
  3
Layout2
350
26
  3
Model
350
22
  0
DICTIONARY
  5
17
102
{ACAD_REACTORS
330
C
102
}
330
C
100
AcDbDictionary
281
     1
  3
Standard
350
18
  0
DICTIONARY
  5
19
102
{ACAD_REACTORS
330
C
102
}
330
C
100
AcDbDictionary
281
     1
  0
ACDBDICTIONARYWDFLT
  5
E
102
{ACAD_REACTORS
330
C
102
}
330
C
100
AcDbDictionary
281
     1
  3
Normal
350
F
100
AcDbDictionaryWithDefault
340
F
  0
DICTIONARY
  5
C7
102
{ACAD_REACTORS
330
C
102
}
330
C
100
AcDbDictionary
281
     1
  0
DICTIONARY
  5
2A
102
{ACAD_REACTORS
330
C
102
}
330
C
100
AcDbDictionary
281
     1
  3
2dWireframe
350
2F
  3
3D Hidden
350
31
  3
3dWireframe
350
30
  3
Basic
350
32
  3
Brighten
350
36
  3
ColorChange
350
3A
  3
Conceptual
350
34
  3
Dim
350
35
  3
Facepattern
350
39
  3
Flat
350
2B
  3
FlatWithEdges
350
2C
  3
Gouraud
350
2D
  3
GouraudWithEdges
350
2E
  3
Linepattern
350
38
  3
Realistic
350
33
  3
Thicken
350
37
  0
LAYOUT
  5
1E
102
{ACAD_REACTORS
330
1A
102
}
330
1A
100
AcDbPlotSettings
  1

  2
none_device
  4

  6

 40
0.0
 41
0.0
 42
0.0
 43
0.0
 44
0.0
 45
0.0
 46
0.0
 47
0.0
 48
0.0
 49
0.0
140
0.0
141
0.0
142
1.0
143
1.0
 70
   688
 72
     0
 73
     0
 74
     5
  7

 75
    16
147
1.0
148
0.0
149
0.0
100
AcDbLayout
  1
Layout1
 70
     1
 71
     1
 10
0.0
 20
0.0
 11
12.0
 21
9.0
 12
0.0
 22
0.0
 32
0.0
 14
1.00000000000000E+20
 24
1.00000000000000E+20
 34
1.00000000000000E+20
 15
-1.00000000000000E+20
 25
-1.00000000000000E+20
 35
-1.00000000000000E+20
146
0.0
 13
0.0
 23
0.0
 33
0.0
 16
1.0
 26
0.0
 36
0.0
 17
0.0
 27
1.0
 37
0.0
 76
     0
330
1B
  0
LAYOUT
  5
26
102
{ACAD_REACTORS
330
1A
102
}
330
1A
100
AcDbPlotSettings
  1

  2
none_device
  4

  6

 40
0.0
 41
0.0
 42
0.0
 43
0.0
 44
0.0
 45
0.0
 46
0.0
 47
0.0
 48
0.0
 49
0.0
140
0.0
141
0.0
142
1.0
143
1.0
 70
   688
 72
     0
 73
     0
 74
     5
  7

 75
    16
147
1.0
148
0.0
149
0.0
100
AcDbLayout
  1
Layout2
 70
     1
 71
     2
 10
0.0
 20
0.0
 11
0.0
 21
0.0
 12
0.0
 22
0.0
 32
0.0
 14
0.0
 24
0.0
 34
0.0
 15
0.0
 25
0.0
 35
0.0
146
0.0
 13
0.0
 23
0.0
 33
0.0
 16
1.0
 26
0.0
 36
0.0
 17
0.0
 27
1.0
 37
0.0
 76
     0
330
23
  0
LAYOUT
  5
22
102
{ACAD_REACTORS
330
1A
102
}
330
1A
100
AcDbPlotSettings
  1

  2
none_device
  4

  6

 40
0.0
 41
0.0
 42
0.0
 43
0.0
 44
0.0
 45
0.0
 46
0.0
 47
0.0
 48
0.0
 49
0.0
140
0.0
141
0.0
142
1.0
143
1.0
 70
  1712
 72
     0
 73
     0
 74
     0
  7

 75
     0
147
1.0
148
0.0
149
0.0
100
AcDbLayout
  1
Model
 70
     1
 71
     0
 10
0.0
 20
0.0
 11
12.0
 21
9.0
 12
0.0
 22
0.0
 32
0.0
 14
56.154598
 24
145.832617
 34
0.0
 15
239.192745
 25
285.092153564948
 35
0.0
146
0.0
 13
0.0
 23
0.0
 33
0.0
 16
1.0
 26
0.0
 36
0.0
 17
0.0
 27
1.0
 37
0.0
 76
     0
330
1F
331
29
  0
MLINESTYLE
  5
18
102
{ACAD_REACTORS
330
17
102
}
330
17
100
AcDbMlineStyle
  2
Standard
 70
     0
  3

 62
   256
 51
90.0
 52
90.0
 71
     2
 49
0.5
 62
   256
  6
BYLAYER
 49
-0.5
 62
   256
  6
BYLAYER
  0
ACDBPLACEHOLDER
  5
F
102
{ACAD_REACTORS
330
E
102
}
330
E
  0
VISUALSTYLE
  5
2F
102
{ACAD_REACTORS
330
2A
102
}
330
2A
100
AcDbVisualStyle
  2
2dWireframe
 70
     4
 71
     0
 72
     2
 73
     0
 90
        0
 40
-0.6
 41
-30.0
 62
     5
 63
     7
 74
     1
 91
        4
 64
     7
 65
   257
 75
     1
175
     1
 42
1.0
 92
        0
 66
   257
 43
1.0
 76
     1
 77
     6
 78
     2
 67
     7
 79
     5
170
     0
171
     0
290
     0
174
     0
 93
        1
 44
0.0
173
     0
291
     0
 45
0.0
1001
ACAD
1000
AcDbSavedByObjectVersion
1070
     0
  0
VISUALSTYLE
  5
31
102
{ACAD_REACTORS
330
2A
102
}
330
2A
100
AcDbVisualStyle
  2
3D Hidden
 70
     6
 71
     1
 72
     2
 73
     2
 90
        0
 40
-0.6
 41
-30.0
 62
     5
 63
     7
 74
     2
 91
        2
 64
     7
 65
   257
 75
     2
175
     1
 42
40.0
 92
        0
 66
   257
 43
1.0
 76
     1
 77
     6
 78
     2
 67
     7
 79
     3
170
     0
171
     0
290
     0
174
     0
 93
        1
 44
0.0
173
     0
291
     0
 45
0.0
1001
ACAD
1000
AcDbSavedByObjectVersion
1070
     0
  0
VISUALSTYLE
  5
30
102
{ACAD_REACTORS
330
2A
102
}
330
2A
100
AcDbVisualStyle
  2
3dWireframe
 70
     5
 71
     0
 72
     2
 73
     0
 90
        0
 40
-0.6
 41
-30.0
 62
     5
 63
     7
 74
     1
 91
        4
 64
     7
 65
   257
 75
     1
175
     1
 42
1.0
 92
        0
 66
   257
 43
1.0
 76
     1
 77
     6
 78
     2
 67
     7
 79
     5
170
     0
171
     0
290
     0
174
     0
 93
        1
 44
0.0
173
     0
291
     0
 45
0.0
1001
ACAD
1000
AcDbSavedByObjectVersion
1070
     0
  0
VISUALSTYLE
  5
32
102
{ACAD_REACTORS
330
2A
102
}
330
2A
100
AcDbVisualStyle
  2
Basic
 70
     7
 71
     1
 72
     0
 73
     1
 90
        0
 40
-0.6
 41
-30.0
 62
     5
 63
     7
 74
     0
 91
        4
 64
     7
 65
   257
 75
     1
175
     1
 42
1.0
 92
        8
 66
     7
 43
1.0
 76
     1
 77
     6
 78
     2
 67
     7
 79
     5
170
     0
171
     0
290
     0
174
     0
 93
        1
 44
0.0
173
     0
291
     1
 45
0.0
1001
ACAD
1000
AcDbSavedByObjectVersion
1070
     0
  0
VISUALSTYLE
  5
36
102
{ACAD_REACTORS
330
2A
102
}
330
2A
100
AcDbVisualStyle
  2
Brighten
 70
    12
 71
     2
 72
     2
 73
     0
 90
        0
 40
-0.6
 41
-30.0
 62
     5
 63
     7
 74
     1
 91
        4
 64
     7
 65
   257
 75
     1
175
     1
 42
1.0
 92
        8
 66
     7
 43
1.0
 76
     1
 77
     6
 78
     2
 67
     7
 79
     5
170
     0
171
     0
290
     0
174
     0
 93
        1
 44
50.0
173
     0
291
     1
 45
0.0
1001
ACAD
1000
AcDbSavedByObjectVersion
1070
     0
  0
VISUALSTYLE
  5
3A
102
{ACAD_REACTORS
330
2A
102
}
330
2A
100
AcDbVisualStyle
  2
ColorChange
 70
    16
 71
     2
 72
     2
 73
     3
 90
        0
 40
-0.6
 41
-30.0
 62
     5
 63
     8
 74
     1
 91
        4
 64
     7
 65
   257
 75
     1
175
     1
 42
1.0
 92
        8
 66
     8
 43
1.0
 76
     1
 77
     6
 78
     2
 67
     7
 79
     5
170
     0
171
     0
290
     0
174
     0
 93
        1
 44
0.0
173
     0
291
     1
 45
0.0
1001
ACAD
1000
AcDbSavedByObjectVersion
1070
     0
  0
VISUALSTYLE
  5
34
102
{ACAD_REACTORS
330
2A
102
}
330
2A
100
AcDbVisualStyle
  2
Conceptual
 70
     9
 71
     3
 72
     2
 73
     0
 90
        0
 40
-0.6
 41
-30.0
 62
     5
 63
     7
 74
     2
 91
        2
 64
     7
 65
   257
 75
     1
175
     1
 42
40.0
 92
        8
 66
     7
 43
1.0
 76
     1
 77
     6
 78
     2
 67
     7
 79
     3
170
     0
171
     0
290
     0
174
     0
 93
        1
 44
0.0
173
     0
291
     0
 45
0.0
1001
ACAD
1000
AcDbSavedByObjectVersion
1070
     0
  0
VISUALSTYLE
  5
35
102
{ACAD_REACTORS
330
2A
102
}
330
2A
100
AcDbVisualStyle
  2
Dim
 70
    11
 71
     2
 72
     2
 73
     0
 90
        0
 40
-0.6
 41
-30.0
 62
     5
 63
     7
 74
     1
 91
        4
 64
     7
 65
   257
 75
     1
175
     1
 42
1.0
 92
        8
 66
     7
 43
1.0
 76
     1
 77
     6
 78
     2
 67
     7
 79
     5
170
     0
171
     0
290
     0
174
     0
 93
        1
 44
-50.0
173
     0
291
     1
 45
0.0
1001
ACAD
1000
AcDbSavedByObjectVersion
1070
     0
  0
VISUALSTYLE
  5
39
102
{ACAD_REACTORS
330
2A
102
}
330
2A
100
AcDbVisualStyle
  2
Facepattern
 70
    15
 71
     2
 72
     2
 73
     0
 90
        0
 40
-0.6
 41
-30.0
 62
     5
 63
     7
 74
     1
 91
        4
 64
     7
 65
   257
 75
     1
175
     1
 42
1.0
 92
        8
 66
     7
 43
1.0
 76
     1
 77
     6
 78
     2
 67
     7
 79
     5
170
     0
171
     0
290
     0
174
     0
 93
        1
 44
0.0
173
     0
291
     1
 45
0.0
1001
ACAD
1000
AcDbSavedByObjectVersion
1070
     0
  0
VISUALSTYLE
  5
2B
102
{ACAD_REACTORS
330
2A
102
}
330
2A
100
AcDbVisualStyle
  2
Flat
 70
     0
 71
     2
 72
     1
 73
     1
 90
        2
 40
-0.6
 41
30.0
 62
     5
 63
     7
 74
     0
 91
        4
 64
     7
 65
   257
 75
     1
175
     1
 42
1.0
 92
        8
 66
     7
 43
1.0
 76
     1
 77
     6
 78
     2
 67
     7
 79
     5
170
     0
171
     0
290
     0
174
     0
 93
       13
 44
0.0
173
     0
291
     1
 45
0.0
1001
ACAD
1000
AcDbSavedByObjectVersion
1070
     0
  0
VISUALSTYLE
  5
2C
102
{ACAD_REACTORS
330
2A
102
}
330
2A
100
AcDbVisualStyle
  2
FlatWithEdges
 70
     1
 71
     2
 72
     1
 73
     1
 90
        2
 40
-0.6
 41
30.0
 62
     5
 63
     7
 74
     1
 91
        4
 64
     7
 65
   257
 75
     1
175
     1
 42
1.0
 92
        0
 66
   257
 43
1.0
 76
     1
 77
     6
 78
     2
 67
     7
 79
     5
170
     0
171
     0
290
     0
174
     0
 93
       13
 44
0.0
173
     0
291
     1
 45
0.0
1001
ACAD
1000
AcDbSavedByObjectVersion
1070
     0
  0
VISUALSTYLE
  5
2D
102
{ACAD_REACTORS
330
2A
102
}
330
2A
100
AcDbVisualStyle
  2
Gouraud
 70
     2
 71
     2
 72
     2
 73
     1
 90
        2
 40
-0.6
 41
30.0
 62
     5
 63
     7
 74
     0
 91
        4
 64
     7
 65
   257
 75
     1
175
     1
 42
1.0
 92
        0
 66
     7
 43
1.0
 76
     1
 77
     6
 78
     2
 67
     7
 79
     5
170
     0
171
     0
290
     0
174
     0
 93
       13
 44
0.0
173
     0
291
     1
 45
0.0
1001
ACAD
1000
AcDbSavedByObjectVersion
1070
     0
  0
VISUALSTYLE
  5
2E
102
{ACAD_REACTORS
330
2A
102
}
330
2A
100
AcDbVisualStyle
  2
GouraudWithEdges
 70
     3
 71
     2
 72
     2
 73
     1
 90
        2
 40
-0.6
 41
30.0
 62
     5
 63
     7
 74
     1
 91
        4
 64
     7
 65
   257
 75
     1
175
     1
 42
1.0
 92
        0
 66
   257
 43
1.0
 76
     1
 77
     6
 78
     2
 67
     7
 79
     5
170
     0
171
     0
290
     0
174
     0
 93
       13
 44
0.0
173
     0
291
     1
 45
0.0
1001
ACAD
1000
AcDbSavedByObjectVersion
1070
     0
  0
VISUALSTYLE
  5
38
102
{ACAD_REACTORS
330
2A
102
}
330
2A
100
AcDbVisualStyle
  2
Linepattern
 70
    14
 71
     2
 72
     2
 73
     0
 90
        0
 40
-0.6
 41
-30.0
 62
     5
 63
     7
 74
     1
 91
        4
 64
     7
 65
   257
 75
     7
175
     7
 42
1.0
 92
        8
 66
     7
 43
1.0
 76
     1
 77
     6
 78
     2
 67
     7
 79
     5
170
     0
171
     0
290
     0
174
     0
 93
        1
 44
0.0
173
     0
291
     1
 45
0.0
1001
ACAD
1000
AcDbSavedByObjectVersion
1070
     0
  0
VISUALSTYLE
  5
33
102
{ACAD_REACTORS
330
2A
102
}
330
2A
100
AcDbVisualStyle
  2
Realistic
 70
     8
 71
     2
 72
     2
 73
     0
 90
        0
 40
-0.6
 41
-30.0
 62
     5
 63
     7
 74
     1
 91
        0
 64
     7
 65
   257
 75
     1
175
     1
 42
1.0
 92
        8
 66
     8
 43
1.0
 76
     1
 77
     6
 78
     2
 67
     7
 79
     5
170
     0
171
     0
290
     0
174
     0
 93
       13
 44
0.0
173
     0
291
     0
 45
0.0
1001
ACAD
1000
AcDbSavedByObjectVersion
1070
     0
  0
VISUALSTYLE
  5
37
102
{ACAD_REACTORS
330
2A
102
}
330
2A
100
AcDbVisualStyle
  2
Thicken
 70
    13
 71
     2
 72
     2
 73
     0
 90
        0
 40
-0.6
 41
-30.0
 62
     5
 63
     7
 74
     1
 91
        4
 64
     7
 65
   257
 75
     1
175
     1
 42
1.0
 92
       12
 66
     7
 43
1.0
 76
     1
 77
     6
 78
     2
 67
     7
 79
     5
170
     0
171
     0
290
     0
174
     0
 93
        1
 44
0.0
173
     0
291
     1
 45
0.0
1001
ACAD
1000
AcDbSavedByObjectVersion
1070
     0
  0
ENDSEC
  0
EOF
