  0
SECTION
  2
HEADER
  9
$ACADVER
  1
AC1015
  9
$ACADMAINTVER
 70
     6
  9
$DWGCODEPAGE
  3
ANSI_1252
  9
$INSBASE
 10
0.0
 20
0.0
 30
0.0
  9
$EXTMIN
 10
-64.52503376130809
 20
462.697938314653
 30
0.0
  9
$EXTMAX
 10
113.6000000000002
 20
637.9689075968611
 30
0.0
  9
$LIMMIN
 10
0.0
 20
0.0
  9
$LIMMAX
 10
12.0
 20
9.0
  9
$ORTHOMODE
 70
     0
  9
$REGENMODE
 70
     1
  9
$FILLMODE
 70
     1
  9
$QTEXTMODE
 70
     0
  9
$MIRRTEXT
 70
     1
  9
$LTSCALE
 40
1.0
  9
$ATTMODE
 70
     1
  9
$TEXTSIZE
 40
0.2
  9
$TRACEWID
 40
0.05
  9
$TEXTSTYLE
  7
Standard
  9
$CLAYER
  8
0
  9
$CELTYPE
  6
ByLayer
  9
$CECOLOR
 62
   256
  9
$CELTSCALE
 40
1.0
  9
$DISPSILH
 70
     0
  9
$DIMSCALE
 40
1.0
  9
$DIMASZ
 40
0.18
  9
$DIMEXO
 40
0.0625
  9
$DIMDLI
 40
0.38
  9
$DIMRND
 40
0.0
  9
$DIMDLE
 40
0.0
  9
$DIMEXE
 40
0.18
  9
$DIMTP
 40
0.0
  9
$DIMTM
 40
0.0
  9
$DIMTXT
 40
0.18
  9
$DIMCEN
 40
0.09
  9
$DIMTSZ
 40
0.0
  9
$DIMTOL
 70
     0
  9
$DIMLIM
 70
     0
  9
$DIMTIH
 70
     1
  9
$DIMTOH
 70
     1
  9
$DIMSE1
 70
     0
  9
$DIMSE2
 70
     0
  9
$DIMTAD
 70
     0
  9
$DIMZIN
 70
     0
  9
$DIMBLK
  1

  9
$DIMASO
 70
     1
  9
$DIMSHO
 70
     1
  9
$DIMPOST
  1

  9
$DIMAPOST
  1

  9
$DIMALT
 70
     0
  9
$DIMALTD
 70
     2
  9
$DIMALTF
 40
25.4
  9
$DIMLFAC
 40
1.0
  9
$DIMTOFL
 70
     0
  9
$DIMTVP
 40
0.0
  9
$DIMTIX
 70
     0
  9
$DIMSOXD
 70
     0
  9
$DIMSAH
 70
     0
  9
$DIMBLK1
  1

  9
$DIMBLK2
  1

  9
$DIMSTYLE
  2
Standard
  9
$DIMCLRD
 70
     0
  9
$DIMCLRE
 70
     0
  9
$DIMCLRT
 70
     0
  9
$DIMTFAC
 40
1.0
  9
$DIMGAP
 40
0.09
  9
$DIMJUST
 70
     0
  9
$DIMSD1
 70
     0
  9
$DIMSD2
 70
     0
  9
$DIMTOLJ
 70
     1
  9
$DIMTZIN
 70
     0
  9
$DIMALTZ
 70
     0
  9
$DIMALTTZ
 70
     0
  9
$DIMUPT
 70
     0
  9
$DIMDEC
 70
     4
  9
$DIMTDEC
 70
     4
  9
$DIMALTU
 70
     2
  9
$DIMALTTD
 70
     2
  9
$DIMTXSTY
  7
Standard
  9
$DIMAUNIT
 70
     0
  9
$DIMADEC
 70
     0
  9
$DIMALTRND
 40
0.0
  9
$DIMAZIN
 70
     0
  9
$DIMDSEP
 70
    46
  9
$DIMATFIT
 70
     3
  9
$DIMFRAC
 70
     0
  9
$DIMLDRBLK
  1

  9
$DIMLUNIT
 70
     2
  9
$DIMLWD
 70
    -2
  9
$DIMLWE
 70
    -2
  9
$DIMTMOVE
 70
     0
  9
$LUNITS
 70
     2
  9
$LUPREC
 70
     4
  9
$SKETCHINC
 40
0.1
  9
$FILLETRAD
 40
0.5
  9
$AUNITS
 70
     0
  9
$AUPREC
 70
     0
  9
$MENU
  1
.
  9
$ELEVATION
 40
0.0
  9
$PELEVATION
 40
0.0
  9
$THICKNESS
 40
0.0
  9
$LIMCHECK
 70
     0
  9
$CHAMFERA
 40
0.5
  9
$CHAMFERB
 40
0.5
  9
$CHAMFERC
 40
1.0
  9
$CHAMFERD
 40
0.0
  9
$SKPOLY
 70
     0
  9
$TDCREATE
 40
2454159.59216081
  9
$TDUCREATE
 40
2454159.550494144
  9
$TDUPDATE
 40
2454159.592160822
  9
$TDUUPDATE
 40
2454159.550494155
  9
$TDINDWG
 40
0.0000000116
  9
$TDUSRTIMER
 40
0.0000000116
  9
$USRTIMER
 70
     1
  9
$ANGBASE
 50
0.0
  9
$ANGDIR
 70
     0
  9
$PDMODE
 70
     0
  9
$PDSIZE
 40
0.0
  9
$PLINEWID
 40
0.0
  9
$SPLFRAME
 70
     0
  9
$SPLINETYPE
 70
     6
  9
$SPLINESEGS
 70
     8
  9
$HANDSEED
  5
23A
  9
$SURFTAB1
 70
     6
  9
$SURFTAB2
 70
     6
  9
$SURFTYPE
 70
     6
  9
$SURFU
 70
     6
  9
$SURFV
 70
     6
  9
$UCSBASE
  2

  9
$UCSNAME
  2

  9
$UCSORG
 10
0.0
 20
0.0
 30
0.0
  9
$UCSXDIR
 10
1.0
 20
0.0
 30
0.0
  9
$UCSYDIR
 10
0.0
 20
1.0
 30
0.0
  9
$UCSORTHOREF
  2

  9
$UCSORTHOVIEW
 70
     0
  9
$UCSORGTOP
 10
0.0
 20
0.0
 30
0.0
  9
$UCSORGBOTTOM
 10
0.0
 20
0.0
 30
0.0
  9
$UCSORGLEFT
 10
0.0
 20
0.0
 30
0.0
  9
$UCSORGRIGHT
 10
0.0
 20
0.0
 30
0.0
  9
$UCSORGFRONT
 10
0.0
 20
0.0
 30
0.0
  9
$UCSORGBACK
 10
0.0
 20
0.0
 30
0.0
  9
$PUCSBASE
  2

  9
$PUCSNAME
  2

  9
$PUCSORG
 10
0.0
 20
0.0
 30
0.0
  9
$PUCSXDIR
 10
1.0
 20
0.0
 30
0.0
  9
$PUCSYDIR
 10
0.0
 20
1.0
 30
0.0
  9
$PUCSORTHOREF
  2

  9
$PUCSORTHOVIEW
 70
     0
  9
$PUCSORGTOP
 10
0.0
 20
0.0
 30
0.0
  9
$PUCSORGBOTTOM
 10
0.0
 20
0.0
 30
0.0
  9
$PUCSORGLEFT
 10
0.0
 20
0.0
 30
0.0
  9
$PUCSORGRIGHT
 10
0.0
 20
0.0
 30
0.0
  9
$PUCSORGFRONT
 10
0.0
 20
0.0
 30
0.0
  9
$PUCSORGBACK
 10
0.0
 20
0.0
 30
0.0
  9
$USERI1
 70
     0
  9
$USERI2
 70
     0
  9
$USERI3
 70
     0
  9
$USERI4
 70
     0
  9
$USERI5
 70
     0
  9
$USERR1
 40
14.0
  9
$USERR2
 40
0.0
  9
$USERR3
 40
0.0
  9
$USERR4
 40
0.0
  9
$USERR5
 40
0.0
  9
$WORLDVIEW
 70
     1
  9
$SHADEDGE
 70
     3
  9
$SHADEDIF
 70
    70
  9
$TILEMODE
 70
     1
  9
$MAXACTVP
 70
    64
  9
$PINSBASE
 10
0.0
 20
0.0
 30
0.0
  9
$PLIMCHECK
 70
     0
  9
$PEXTMIN
 10
1.00000000000000E+20
 20
1.00000000000000E+20
 30
1.00000000000000E+20
  9
$PEXTMAX
 10
-1.00000000000000E+20
 20
-1.00000000000000E+20
 30
-1.00000000000000E+20
  9
$PLIMMIN
 10
0.0
 20
0.0
  9
$PLIMMAX
 10
12.0
 20
9.0
  9
$UNITMODE
 70
     0
  9
$VISRETAIN
 70
     1
  9
$PLINEGEN
 70
     0
  9
$PSLTSCALE
 70
     1
  9
$TREEDEPTH
 70
  3020
  9
$CMLSTYLE
  2
Standard
  9
$CMLJUST
 70
     0
  9
$CMLSCALE
 40
1.0
  9
$PROXYGRAPHICS
 70
     1
  9
$MEASUREMENT
 70
     1
  9
$CELWEIGHT
370
    -1
  9
$ENDCAPS
280
     0
  9
$JOINSTYLE
280
     0
  9
$LWDISPLAY
290
     0
  9
$INSUNITS
 70
     1
  9
$HYPERLINKBASE
  1

  9
$STYLESHEET
  1

  9
$XEDIT
290
     1
  9
$CEPSNTYPE
380
     0
  9
$PSTYLEMODE
290
     1
  9
$FINGERPRINTGUID
  2
{C482F16B-7F69-4F5C-912C-E306E6CF9D26}
  9
$VERSIONGUID
  2
{FAEB1C32-E019-11D5-929B-00C0DF256EC4}
  9
$EXTNAMES
290
     1
  9
$PSVPSCALE
 40
0.0
  9
$OLESTARTUP
290
     0
  0
ENDSEC
  0
SECTION
  2
CLASSES
  0
CLASS
  1
ACDBDICTIONARYWDFLT
  2
AcDbDictionaryWithDefault
  3
ObjectDBX Classes
 90
        0
280
     0
281
     0
  0
CLASS
  1

  2
exOdDbCircle
  3

 90
        0
280
     0
281
     1
  0
CLASS
  1

  2
exOdDbSpline
  3

 90
        0
280
     0
281
     1
  0
CLASS
  1
ACDBPLACEHOLDER
  2
AcDbPlaceHolder
  3
ObjectDBX Classes
 90
        0
280
     0
281
     0
  0
CLASS
  1
LAYOUT
  2
AcDbLayout
  3
ObjectDBX Classes
 90
        0
280
     0
281
     0
  0
ENDSEC
  0
SECTION
  2
TABLES
  0
TABLE
  2
VPORT
  5
8
330
0
100
AcDbSymbolTable
 70
     1
  0
VPORT
  5
29
330
8
100
AcDbSymbolTableRecord
100
AcDbViewportTableRecord
  2
*Active
 70
     0
 10
0.0
 20
0.0
 11
1.0
 21
1.0
 12
24.53748311934605
 22
550.333422955757
 13
0.0
 23
0.0
 14
0.5
 24
0.5
 15
0.5
 25
0.5
 16
0.0
 26
0.0
 36
1.0
 17
0.0
 27
0.0
 37
0.0
 40
192.7980662104289
 41
1.60267857142857
 42
50.0
 43
0.0
 44
0.0
 50
0.0
 51
0.0
 71
     0
 72
   100
 73
     1
 74
     3
 75
     0
 76
     0
 77
     0
 78
     0
281
     0
 65
     1
110
0.0
120
0.0
130
0.0
111
1.0
121
0.0
131
0.0
112
0.0
122
1.0
132
0.0
 79
     0
146
0.0
  0
ENDTAB
  0
TABLE
  2
LTYPE
  5
5
330
0
100
AcDbSymbolTable
 70
     8
  0
LTYPE
  5
14
330
5
100
AcDbSymbolTableRecord
100
AcDbLinetypeTableRecord
  2
ByBlock
 70
     0
  3

 72
    65
 73
     0
 40
0.0
  0
LTYPE
  5
15
330
5
100
AcDbSymbolTableRecord
100
AcDbLinetypeTableRecord
  2
ByLayer
 70
     0
  3

 72
    65
 73
     0
 40
0.0
  0
LTYPE
  5
16
330
5
100
AcDbSymbolTableRecord
100
AcDbLinetypeTableRecord
  2
Continuous
 70
     0
  3
Solid line
 72
    65
 73
     0
 40
0.0
  0
LTYPE
  5
2A
330
5
100
AcDbSymbolTableRecord
100
AcDbLinetypeTableRecord
  2
DASHED
 70
     0
  3
Dashed
 72
    65
 73
     2
 40
15.0
 49
7.0
 74
     0
 49
-8.0
 74
     0
  0
LTYPE
  5
2B
330
5
100
AcDbSymbolTableRecord
100
AcDbLinetypeTableRecord
  2
DOTTED
 70
     0
  3
Dotted
 72
    65
 73
     2
 40
1.0
 49
0.0
 74
     0
 49
-1.0
 74
     0
  0
LTYPE
  5
2C
330
5
100
AcDbSymbolTableRecord
100
AcDbLinetypeTableRecord
  2
DOT_CENTER
 70
     0
  3
Dot_Center
 72
    65
 73
     4
 40
14.0
 49
12.0
 74
     0
 49
-1.0
 74
     0
 49
0.0
 74
     0
 49
-1.0
 74
     0
  0
LTYPE
  5
2D
330
5
100
AcDbSymbolTableRecord
100
AcDbLinetypeTableRecord
  2
LONG_DASHED
 70
     0
  3
Long_Dashed
 72
    65
 73
     2
 40
15.0
 49
10.0
 74
     0
 49
-5.0
 74
     0
  0
LTYPE
  5
2E
330
5
100
AcDbSymbolTableRecord
100
AcDbLinetypeTableRecord
  2
DASH_CENTER
 70
     0
  3
Dash_Center
 72
    65
 73
     4
 40
14.0
 49
11.0
 74
     0
 49
-1.0
 74
     0
 49
1.0
 74
     0
 49
-1.0
 74
     0
  0
LTYPE
  5
2F
330
5
100
AcDbSymbolTableRecord
100
AcDbLinetypeTableRecord
  2
PHANTOM
 70
     0
  3
Phantom
 72
    65
 73
     6
 40
13.0
 49
10.0
 74
     0
 49
-1.0
 74
     0
 49
0.0
 74
     0
 49
-1.0
 74
     0
 49
0.0
 74
     0
 49
-1.0
 74
     0
  0
LTYPE
  5
30
330
5
100
AcDbSymbolTableRecord
100
AcDbLinetypeTableRecord
  2
CENTER_DASH_DASH
 70
     0
  3
Center_Dash_Dash
 72
    65
 73
     6
 40
14.0
 49
9.0
 74
     0
 49
-1.0
 74
     0
 49
1.0
 74
     0
 49
-1.0
 74
     0
 49
1.0
 74
     0
 49
-1.0
 74
     0
  0
ENDTAB
  0
TABLE
  2
LAYER
  5
2
330
0
100
AcDbSymbolTable
 70
     2
  0
LAYER
  5
10
330
2
100
AcDbSymbolTableRecord
100
AcDbLayerTableRecord
  2
0
 70
     0
 62
     7
  6
Continuous
370
    -3
390
F
  0
LAYER
  5
31
330
2
100
AcDbSymbolTableRecord
100
AcDbLayerTableRecord
  2
1
 70
     0
 62
     7
  6
Continuous
370
    -3
390
F
  0
ENDTAB
  0
TABLE
  2
STYLE
  5
3
330
0
100
AcDbSymbolTable
 70
     2
  0
STYLE
  5
11
330
3
100
AcDbSymbolTableRecord
100
AcDbTextStyleTableRecord
  2
Standard
 70
     0
 40
0.0
 41
1.0
 50
0.0
 71
     0
 42
0.2
  3
txt
  4

  0
STYLE
  5
213
330
3
100
AcDbSymbolTableRecord
100
AcDbTextStyleTableRecord
  2
CONVERTER_1
 70
     0
 40
0.0
 41
0.9
 50
0.0
 71
     0
 42
0.2
  3
txt.shx
  4

  0
ENDTAB
  0
TABLE
  2
VIEW
  5
6
330
0
100
AcDbSymbolTable
 70
     0
  0
ENDTAB
  0
TABLE
  2
UCS
  5
7
330
0
100
AcDbSymbolTable
 70
     0
  0
ENDTAB
  0
TABLE
  2
APPID
  5
9
330
0
100
AcDbSymbolTable
 70
     1
  0
APPID
  5
12
330
9
100
AcDbSymbolTableRecord
100
AcDbRegAppTableRecord
  2
ACAD
 70
     0
  0
ENDTAB
  0
TABLE
  2
DIMSTYLE
  5
A
330
0
100
AcDbSymbolTable
 70
     5
100
AcDbDimStyleTable
  0
DIMSTYLE
105
27
330
A
100
AcDbSymbolTableRecord
100
AcDbDimStyleTableRecord
  2
Standard
 70
     0
340
11
  0
DIMSTYLE
105
217
102
{ACAD_REACTORS
330
218
102
}
330
A
100
AcDbSymbolTableRecord
100
AcDbDimStyleTableRecord
  2
ME10_DIM_0
 70
     0
  3
145x<>
 41
7.0
 42
0.0
 44
2.0
 73
     0
 74
     0
 77
     1
 78
     8
140
7.0
147
2.0
172
     1
173
     1
176
     4
177
     4
178
     1
271
     2
340
213
  0
DIMSTYLE
105
222
102
{ACAD_REACTORS
330
223
102
}
330
A
100
AcDbSymbolTableRecord
100
AcDbDimStyleTableRecord
  2
ME10_DIM_1
 70
     0
  3
Ø<>
 41
7.0
 42
0.0
 44
2.0
 73
     0
 74
     0
 77
     1
 78
     8
140
7.0
147
2.0
172
     1
173
     1
176
     4
177
     4
178
     1
271
     2
340
213
  0
DIMSTYLE
105
22D
102
{ACAD_REACTORS
330
22E
102
}
330
A
100
AcDbSymbolTableRecord
100
AcDbDimStyleTableRecord
  2
ME10_DIM_2
 70
     0
 41
7.0
 42
0.0
 44
2.0
 73
     0
 74
     0
 77
     1
 78
     8
140
7.0
147
2.0
172
     1
173
     1
176
     4
177
     4
178
     1
271
     0
340
213
  0
DIMSTYLE
105
238
102
{ACAD_REACTORS
330
239
102
}
330
A
100
AcDbSymbolTableRecord
100
AcDbDimStyleTableRecord
  2
ME10_DIM_3
 70
     0
 41
7.0
 42
0.0
 44
2.0
 73
     0
 74
     0
 77
     1
 78
     8
140
7.0
147
2.0
172
     1
173
     1
176
     4
177
     4
178
     1
271
     2
340
213
  0
ENDTAB
  0
TABLE
  2
BLOCK_RECORD
  5
1
330
0
100
AcDbSymbolTable
 70
     9
  0
BLOCK_RECORD
  5
1F
330
1
100
AcDbSymbolTableRecord
100
AcDbBlockTableRecord
  2
*Model_Space
340
22
  0
BLOCK_RECORD
  5
1B
330
1
100
AcDbSymbolTableRecord
100
AcDbBlockTableRecord
  2
*Paper_Space
340
1E
  0
BLOCK_RECORD
  5
23
330
1
100
AcDbSymbolTableRecord
100
AcDbBlockTableRecord
  2
*Paper_Space0
340
26
  0
BLOCK_RECORD
  5
32
330
1
100
AcDbSymbolTableRecord
100
AcDbBlockTableRecord
  2
Baust_tzrahmen_140_140_1
340
0
102
{BLKREFS
331
3E
102
}
  0
BLOCK_RECORD
  5
35
330
1
100
AcDbSymbolTableRecord
100
AcDbBlockTableRecord
  2
Niro_Rahmen60L
340
0
102
{BLKREFS
331
3F
102
}
  0
BLOCK_RECORD
  5
38
330
1
100
AcDbSymbolTableRecord
100
AcDbBlockTableRecord
  2
AufsatzrahmenD145
340
0
102
{BLKREFS
331
40
102
}
  0
BLOCK_RECORD
  5
3B
330
1
100
AcDbSymbolTableRecord
100
AcDbBlockTableRecord
  2
O-Ring__125x4
340
0
102
{BLKREFS
331
41
102
}
  0
BLOCK_RECORD
  5
20D
330
1
100
AcDbSymbolTableRecord
100
AcDbBlockTableRecord
  2
*D05
340
0
  0
BLOCK_RECORD
  5
219
330
1
100
AcDbSymbolTableRecord
100
AcDbBlockTableRecord
  2
*D16
340
0
  0
BLOCK_RECORD
  5
224
330
1
100
AcDbSymbolTableRecord
100
AcDbBlockTableRecord
  2
*D27
340
0
  0
BLOCK_RECORD
  5
22F
330
1
100
AcDbSymbolTableRecord
100
AcDbBlockTableRecord
  2
*D38
340
0
  0
ENDTAB
  0
ENDSEC
  0
SECTION
  2
BLOCKS
  0
BLOCK
  5
20
330
1F
100
AcDbEntity
  8
0
100
AcDbBlockBegin
  2
*Model_Space
 70
     0
 71
     0
 10
0.0
 20
0.0
 30
0.0
  3
*Model_Space
  1

  0
ENDBLK
  5
21
330
1F
100
AcDbEntity
  8
0
100
AcDbBlockEnd
  0
BLOCK
  5
1C
330
1B
100
AcDbEntity
 67
     1
  8
0
100
AcDbBlockBegin
  2
*Paper_Space
 70
     0
 71
     0
 10
0.0
 20
0.0
 30
0.0
  3
*Paper_Space
  1

  0
ENDBLK
  5
1D
330
1B
100
AcDbEntity
 67
     1
  8
0
100
AcDbBlockEnd
  0
BLOCK
  5
24
330
23
100
AcDbEntity
  8
0
100
AcDbBlockBegin
  2
*Paper_Space0
 70
     0
 71
     0
 10
0.0
 20
0.0
 30
0.0
  3
*Paper_Space0
  1

  0
ENDBLK
  5
25
330
23
100
AcDbEntity
  8
0
100
AcDbBlockEnd
  0
BLOCK
  5
33
330
32
100
AcDbEntity
  8
0
100
AcDbBlockBegin
  2
Baust_tzrahmen_140_140_1
 70
     0
 71
     0
 10
-33.60000000000018
 20
630.4689075968611
 30
0.0
  3
Baust_tzrahmen_140_140_1
  1

  0
LINE
  5
42
330
32
100
AcDbEntity
  8
0
  6
Continuous
 62
     7
100
AcDbLine
 10
113.6000000000002
 20
635.9689075968611
 30
0.0
 11
113.6000000000002
 21
637.6689075968611
 31
0.0
  0
LINE
  5
43
330
32
100
AcDbEntity
  8
0
  6
Continuous
 62
     7
100
AcDbLine
 10
111.6000000000002
 20
635.9689075968611
 30
0.0
 11
113.6000000000002
 21
635.9689075968611
 31
0.0
  0
LINE
  5
44
330
32
100
AcDbEntity
  8
0
  6
Continuous
 62
     7
100
AcDbLine
 10
111.6000000000002
 20
637.6689075968611
 30
0.0
 11
113.6000000000002
 21
637.6689075968611
 31
0.0
  0
LINE
  5
45
330
32
100
AcDbEntity
  8
0
  6
Continuous
 62
     7
100
AcDbLine
 10
51.29999686561843
 20
637.6689075968611
 30
0.0
 11
28.70002935646841
 21
637.6689075968611
 31
0.0
  0
LINE
  5
46
330
32
100
AcDbEntity
  8
0
  6
Continuous
 62
     7
100
AcDbLine
 10
28.70002935646841
 20
637.6689075968611
 30
0.0
 11
28.70002935646841
 21
637.9689075968611
 31
0.0
  0
LINE
  5
47
330
32
100
AcDbEntity
  8
0
  6
Continuous
 62
     7
100
AcDbLine
 10
51.2449143861918
 20
637.9689075968611
 30
0.0
 11
28.70002935646841
 21
637.9689075968611
 31
0.0
  0
LINE
  5
48
330
32
100
AcDbEntity
  8
0
  6
Continuous
 62
     3
100
AcDbLine
 10
111.6000000000002
 20
637.6689075968611
 30
0.0
 11
111.6000000000002
 21
635.9689075968611
 31
0.0
  0
LINE
  5
49
330
32
100
AcDbEntity
  8
0
  6
Continuous
 62
     7
100
AcDbLine
 10
110.2000000000002
 20
634.4689075968612
 30
0.0
 11
110.2000000000002
 21
635.9689075968611
 31
0.0
  0
LINE
  5
4A
330
32
100
AcDbEntity
  8
0
  6
Continuous
 62
     7
100
AcDbLine
 10
109.8899771079337
 20
630.9253297254873
 30
0.0
 11
110.2000000000002
 21
634.4689075968612
 31
0.0
  0
LINE
  5
4B
330
32
100
AcDbEntity
  8
0
  6
Continuous
 62
     7
100
AcDbLine
 10
108.8893532364004
 20
630.4689075968611
 30
0.0
 11
99.95004534589651
 21
630.4689075968611
 31
0.0
  0
LINE
  5
4C
330
32
100
AcDbEntity
  8
0
  6
Continuous
 62
     7
100
AcDbLine
 10
108.8893532364004
 20
630.4689075968611
 30
0.0
 11
109.3918797588878
 21
630.4689075968611
 31
0.0
  0
LINE
  5
4D
330
32
100
AcDbEntity
  8
0
  6
Continuous
 62
     7
100
AcDbLine
 10
110.2000000000002
 20
635.9689075968611
 30
0.0
 11
107.4500000000001
 21
635.9689075968602
 31
0.0
  0
LINE
  5
4E
330
32
100
AcDbEntity
  8
0
  6
Continuous
 62
     7
100
AcDbLine
 10
111.6000000000002
 20
635.9689075968611
 30
0.0
 11
110.2000000000002
 21
635.9689075968611
 31
0.0
  0
LINE
  5
4F
330
32
100
AcDbEntity
  8
0
  6
Continuous
 62
     7
100
AcDbLine
 10
107.4500000000001
 20
635.9689075968602
 30
0.0
 11
99.95004534589651
 21
635.9689075968611
 31
0.0
  0
LINE
  5
50
330
32
100
AcDbEntity
  8
0
  6
Continuous
 62
     7
100
AcDbLine
 10
99.95004534589651
 20
635.9689075968611
 30
0.0
 11
99.95004534589651
 21
635.4708102478152
 31
0.0
  0
LINE
  5
51
330
32
100
AcDbEntity
  8
0
  6
Continuous
 62
     7
100
AcDbLine
 10
107.4500000000001
 20
635.9689075968602
 30
0.0
 11
107.9935778713727
 21
635.470810247817
 31
0.0
  0
LINE
  5
52
330
32
100
AcDbEntity
  8
0
  6
Continuous
 62
     7
100
AcDbLine
 10
111.6000000000002
 20
637.6689075968611
 30
0.0
 11
51.29999686561843
 21
637.6689075968611
 31
0.0
  0
LINE
  5
53
330
32
100
AcDbEntity
  8
0
  6
Continuous
 62
     7
100
AcDbLine
 10
51.29999686561843
 20
637.6689075968611
 30
0.0
 11
51.29999686561843
 21
637.9689075968611
 31
0.0
  0
LINE
  5
54
330
32
100
AcDbEntity
  8
0
  6
Continuous
 62
     7
100
AcDbLine
 10
51.29999686561843
 20
637.9689075968611
 30
0.0
 11
51.2449143861918
 21
637.9689075968611
 31
0.0
  0
LINE
  5
55
330
32
100
AcDbEntity
  8
0
  6
Continuous
 62
     7
100
AcDbLine
 10
107.9935778713727
 20
635.470810247817
 30
0.0
 11
108.3912558873545
 21
630.9253297254874
 31
0.0
  0
LINE
  5
56
330
32
100
AcDbEntity
  8
0
  6
Continuous
 62
     7
100
AcDbLine
 10
99.95004534589651
 20
635.9689075968611
 30
0.0
 11
-19.95004534589828
 21
635.9689075968611
 31
0.0
  0
LINE
  5
57
330
32
100
AcDbEntity
  8
0
  6
Continuous
 62
     7
100
AcDbLine
 10
107.9935778713727
 20
635.470810247817
 30
0.0
 11
99.95004534589651
 21
635.4708102478152
 31
0.0
  0
LINE
  5
58
330
32
100
AcDbEntity
  8
0
  6
Continuous
 62
     7
100
AcDbLine
 10
99.95004534589651
 20
635.4708102478152
 30
0.0
 11
99.95004534589651
 21
634.4689075968614
 31
0.0
  0
LINE
  5
59
330
32
100
AcDbEntity
  8
0
  6
Continuous
 62
     7
100
AcDbLine
 10
99.95004534589651
 20
634.4689075968614
 30
0.0
 11
-19.95004534589828
 21
634.4689075968612
 31
0.0
  0
LINE
  5
5A
330
32
100
AcDbEntity
  8
0
  6
Continuous
 62
     7
100
AcDbLine
 10
99.95004534589651
 20
630.9253297254874
 30
0.0
 11
99.95004534589651
 21
634.4689075968614
 31
0.0
  0
LINE
  5
5B
330
32
100
AcDbEntity
  8
0
  6
Continuous
 62
     3
100
AcDbLine
 10
108.3912558873545
 20
630.9253297254874
 30
0.0
 11
99.95004534589651
 21
630.9253297254874
 31
0.0
  0
LINE
  5
5C
330
32
100
AcDbEntity
  8
0
  6
Continuous
 62
     7
100
AcDbLine
 10
99.95004534589651
 20
630.9253297254874
 30
0.0
 11
99.95004534589651
 21
630.4689075968611
 31
0.0
  0
LINE
  5
5D
330
32
100
AcDbEntity
  8
0
  6
Continuous
 62
     3
100
AcDbLine
 10
-19.95004534589828
 20
630.9253297254874
 30
0.0
 11
99.95004534589651
 21
630.9253297254874
 31
0.0
  0
LINE
  5
5E
330
32
100
AcDbEntity
  8
0
  6
Continuous
 62
     7
100
AcDbLine
 10
-19.95004534589828
 20
630.9253297254874
 30
0.0
 11
-19.95004534589828
 21
630.4689075968611
 31
0.0
  0
LINE
  5
5F
330
32
100
AcDbEntity
  8
0
  6
Continuous
 62
     7
100
AcDbLine
 10
-19.95004534589828
 20
630.4689075968611
 30
0.0
 11
99.95004534589651
 21
630.4689075968611
 31
0.0
  0
LINE
  5
60
330
32
100
AcDbEntity
  8
0
  6
Continuous
 62
     7
100
AcDbLine
 10
28.70002935646841
 20
637.6689075968611
 30
0.0
 11
-31.60000000000019
 21
637.6689075968611
 31
0.0
  0
LINE
  5
61
330
32
100
AcDbEntity
  8
0
  6
Continuous
 62
     7
100
AcDbLine
 10
-33.60000000000019
 20
637.6689075968611
 30
0.0
 11
-31.60000000000019
 21
637.6689075968611
 31
0.0
  0
LINE
  5
62
330
32
100
AcDbEntity
  8
0
  6
Continuous
 62
     3
100
AcDbLine
 10
-31.60000000000019
 20
637.6689075968611
 30
0.0
 11
-31.60000000000019
 21
635.9689075968611
 31
0.0
  0
LINE
  5
63
330
32
100
AcDbEntity
  8
0
  6
Continuous
 62
     7
100
AcDbLine
 10
-33.60000000000019
 20
635.9689075968611
 30
0.0
 11
-31.60000000000019
 21
635.9689075968611
 31
0.0
  0
LINE
  5
64
330
32
100
AcDbEntity
  8
0
  6
Continuous
 62
     7
100
AcDbLine
 10
-33.60000000000019
 20
635.9689075968611
 30
0.0
 11
-33.60000000000019
 21
637.6689075968611
 31
0.0
  0
LINE
  5
65
330
32
100
AcDbEntity
  8
0
  6
Continuous
 62
     7
100
AcDbLine
 10
-29.39187975888959
 20
630.4689075968611
 30
0.0
 11
-28.88935323640223
 21
630.4689075968611
 31
0.0
  0
LINE
  5
66
330
32
100
AcDbEntity
  8
0
  6
Continuous
 62
     7
100
AcDbLine
 10
-19.95004534589828
 20
630.4689075968611
 30
0.0
 11
-28.88935323640223
 21
630.4689075968611
 31
0.0
  0
LINE
  5
67
330
32
100
AcDbEntity
  8
0
  6
Continuous
 62
     3
100
AcDbLine
 10
-19.95004534589828
 20
630.9253297254874
 30
0.0
 11
-28.39125588735632
 21
630.9253297254874
 31
0.0
  0
LINE
  5
68
330
32
100
AcDbEntity
  8
0
  6
Continuous
 62
     7
100
AcDbLine
 10
-19.95004534589828
 20
634.4689075968612
 30
0.0
 11
-19.95004534589828
 21
635.4708102478152
 31
0.0
  0
LINE
  5
69
330
32
100
AcDbEntity
  8
0
  6
Continuous
 62
     7
100
AcDbLine
 10
-19.95004534589828
 20
634.4689075968612
 30
0.0
 11
-19.95004534589828
 21
630.9253297254874
 31
0.0
  0
LINE
  5
6A
330
32
100
AcDbEntity
  8
0
  6
Continuous
 62
     7
100
AcDbLine
 10
-19.95004534589828
 20
635.4708102478152
 30
0.0
 11
-27.99357787137473
 21
635.4708102478152
 31
0.0
  0
LINE
  5
6B
330
32
100
AcDbEntity
  8
0
  6
Continuous
 62
     7
100
AcDbLine
 10
-27.99357787137473
 20
635.4708102478152
 30
0.0
 11
-27.45000000000087
 21
635.9689075968611
 31
0.0
  0
LINE
  5
6C
330
32
100
AcDbEntity
  8
0
  6
Continuous
 62
     7
100
AcDbLine
 10
-30.20000000000201
 20
635.9689075968611
 30
0.0
 11
-31.60000000000019
 21
635.9689075968611
 31
0.0
  0
LINE
  5
6D
330
32
100
AcDbEntity
  8
0
  6
Continuous
 62
     7
100
AcDbLine
 10
-27.45000000000087
 20
635.9689075968611
 30
0.0
 11
-30.20000000000201
 21
635.9689075968611
 31
0.0
  0
LINE
  5
6E
330
32
100
AcDbEntity
  8
0
  6
Continuous
 62
     7
100
AcDbLine
 10
-19.95004534589828
 20
635.9689075968611
 30
0.0
 11
-27.45000000000087
 21
635.9689075968611
 31
0.0
  0
LINE
  5
6F
330
32
100
AcDbEntity
  8
0
  6
Continuous
 62
     7
100
AcDbLine
 10
-30.20000000000201
 20
635.9689075968611
 30
0.0
 11
-30.20000000000204
 21
634.4689075968613
 31
0.0
  0
LINE
  5
70
330
32
100
AcDbEntity
  8
0
  6
Continuous
 62
     7
100
AcDbLine
 10
-19.95004534589828
 20
635.4708102478152
 30
0.0
 11
-19.95004534589828
 21
635.9689075968611
 31
0.0
  0
LINE
  5
71
330
32
100
AcDbEntity
  8
0
  6
Continuous
 62
     7
100
AcDbLine
 10
-30.20000000000204
 20
634.4689075968613
 30
0.0
 11
-29.88997710793547
 21
630.9253297254874
 31
0.0
  0
LINE
  5
72
330
32
100
AcDbEntity
  8
0
  6
Continuous
 62
     7
100
AcDbLine
 10
-28.39125588735632
 20
630.9253297254874
 30
0.0
 11
-27.99357787137473
 21
635.4708102478152
 31
0.0
  0
ARC
  5
73
330
32
100
AcDbEntity
  8
0
  6
Continuous
 62
     7
100
AcDbCircle
 10
108.8893532364004
 20
630.9689075968611
 30
0.0
 40
0.5000000000000092
100
AcDbArc
 50
-175.0000000000134
 51
-90.0
  0
ARC
  5
74
330
32
100
AcDbEntity
  8
0
  6
Continuous
 62
     7
100
AcDbCircle
 10
109.3918797588878
 20
630.9689075968611
 30
0.0
 40
0.5
100
AcDbArc
 50
-90.0
 51
-4.99999999999946
  0
ARC
  5
75
330
32
100
AcDbEntity
  8
0
  6
Continuous
 62
     7
100
AcDbCircle
 10
-29.39187975888959
 20
630.9689075968611
 30
0.0
 40
0.4999999999999951
100
AcDbArc
 50
-175.0000000000132
 51
-90.0
  0
ARC
  5
76
330
32
100
AcDbEntity
  8
0
  6
Continuous
 62
     7
100
AcDbCircle
 10
-28.8893532364022
 20
630.9689075968611
 30
0.0
 40
0.5
100
AcDbArc
 50
-90.00000000000325
 51
-4.99999999998673
  0
ENDBLK
  5
34
330
32
100
AcDbEntity
  8
0
100
AcDbBlockEnd
  0
BLOCK
  5
36
330
35
100
AcDbEntity
  8
0
100
AcDbBlockBegin
  2
Niro_Rahmen60L
 70
     0
 71
     0
 10
-32.60000000000082
 20
563.0310924031412
 30
0.0
  3
Niro_Rahmen60L
  1

  0
LINE
  5
77
330
35
100
AcDbEntity
  8
0
  6
Continuous
 62
     7
100
AcDbLine
 10
108.5999999999992
 20
582.0310924031375
 30
0.0
 11
111.3999999999992
 21
582.0310924031375
 31
0.0
  0
LINE
  5
78
330
35
100
AcDbEntity
  8
0
  6
Continuous
 62
     3
100
AcDbLine
 10
108.5999999999992
 20
582.0310924031375
 30
0.0
 11
108.5999999999992
 21
581.0310924031375
 31
0.0
  0
LINE
  5
79
330
35
100
AcDbEntity
  8
0
  6
Continuous
 62
     3
100
AcDbLine
 10
108.5999999999992
 20
581.0310924031375
 30
0.0
 11
112.3999999999992
 21
581.0310924031375
 31
0.0
  0
LINE
  5
7A
330
35
100
AcDbEntity
  8
0
  6
Continuous
 62
     7
100
AcDbLine
 10
112.3999999999992
 20
579.5310924031375
 30
0.0
 11
112.3999999999992
 21
581.0310924031375
 31
0.0
  0
LINE
  5
7B
330
35
100
AcDbEntity
  8
0
  6
Continuous
 62
     3
100
AcDbLine
 10
108.5999999999992
 20
579.5310924031375
 30
0.0
 11
108.5999999999992
 21
581.0310924031375
 31
0.0
  0
LINE
  5
7C
330
35
100
AcDbEntity
  8
0
  6
Continuous
 62
     3
100
AcDbLine
 10
107.8999999999992
 20
576.3310924031375
 30
0.0
 11
110.5999999999992
 21
576.3310924031375
 31
0.0
  0
LINE
  5
7D
330
35
100
AcDbEntity
  8
0
  6
Continuous
 62
     7
100
AcDbLine
 10
107.8999999999992
 20
575.3310924031375
 30
0.0
 11
109.5999999999992
 21
575.3310924031375
 31
0.0
  0
LINE
  5
7E
330
35
100
AcDbEntity
  8
0
  6
Continuous
 62
     7
100
AcDbLine
 10
108.5999999999992
 20
579.5310924031375
 30
0.0
 11
112.3999999999992
 21
579.5310924031375
 31
0.0
  0
LINE
  5
7F
330
35
100
AcDbEntity
  8
0
  6
Continuous
 62
     7
100
AcDbLine
 10
110.5999999999992
 20
576.3310910010184
 30
0.0
 11
110.5999999999992
 21
574.0310924031368
 31
0.0
  0
LINE
  5
80
330
35
100
AcDbEntity
  8
0
  6
Continuous
 62
     3
100
AcDbLine
 10
107.8999999999992
 20
576.3310924031375
 30
0.0
 11
107.8999999999992
 21
575.3310924031375
 31
0.0
  0
LINE
  5
81
330
35
100
AcDbEntity
  8
0
  6
Continuous
 62
     3
100
AcDbLine
 10
107.8999999999992
 20
576.3310924031375
 30
0.0
 11
107.8999999999992
 21
579.5310924031375
 31
0.0
  0
LINE
  5
82
330
35
100
AcDbEntity
  8
0
  6
Continuous
 62
     7
100
AcDbLine
 10
110.5999999999992
 20
576.3310924031375
 30
0.0
 11
110.5999999999992
 21
579.5310924031375
 31
0.0
  0
LINE
  5
83
330
35
100
AcDbEntity
  8
0
  6
Continuous
 62
     7
100
AcDbLine
 10
-28.80000000000081
 20
579.5310924031375
 30
0.0
 11
108.5999999999992
 21
579.5310924031375
 31
0.0
  0
LINE
  5
84
330
35
100
AcDbEntity
  8
0
  6
Continuous
 62
     3
100
AcDbLine
 10
-28.10000000000082
 20
575.3310924031375
 30
0.0
 11
-28.10000000000082
 21
576.3310924031375
 31
0.0
  0
LINE
  5
85
330
35
100
AcDbEntity
  8
0
  6
Continuous
 62
     3
100
AcDbLine
 10
-28.10000000000082
 20
579.5310924031375
 30
0.0
 11
-28.10000000000082
 21
576.3310924031375
 31
0.0
  0
LINE
  5
86
330
35
100
AcDbEntity
  8
0
  6
Continuous
 62
     3
100
AcDbLine
 10
-30.80000000000081
 20
574.0310924031368
 30
0.0
 11
110.5999999999992
 21
574.0310924031368
 31
0.0
  0
LINE
  5
87
330
35
100
AcDbEntity
  8
0
  6
Continuous
 62
     7
100
AcDbLine
 10
108.8999999999992
 20
573.0310924031368
 30
0.0
 11
39.89999999999918
 21
573.0310924031368
 31
0.0
  0
LINE
  5
88
330
35
100
AcDbEntity
  8
0
  6
Continuous
 62
     7
100
AcDbLine
 10
-29.10000000000082
 20
573.0310924031368
 30
0.0
 11
-29.79999999999936
 21
573.0310924031368
 31
0.0
  0
LINE
  5
89
330
35
100
AcDbEntity
  8
0
  6
Continuous
 62
     7
100
AcDbLine
 10
109.5999999999977
 20
573.0310924031368
 30
0.0
 11
108.8999999999992
 21
573.0310924031368
 31
0.0
  0
LINE
  5
8A
330
35
100
AcDbEntity
  8
0
  6
Continuous
 62
     7
100
AcDbLine
 10
39.89999999999918
 20
573.0310924031368
 30
0.0
 11
-29.10000000000082
 21
573.0310924031368
 31
0.0
  0
LINE
  5
8B
330
35
100
AcDbEntity
  8
0
  6
Continuous
 62
     7
100
AcDbLine
 10
108.5999999999992
 20
582.0310924031375
 30
0.0
 11
-28.80000000000081
 21
582.0310924031375
 31
0.0
  0
LINE
  5
8C
330
35
100
AcDbEntity
  8
0
  6
Continuous
 62
     3
100
AcDbLine
 10
39.90000000000289
 20
581.0310924031375
 30
0.0
 11
39.25000000000141
 21
581.0310924031375
 31
0.0
  0
LINE
  5
8D
330
35
100
AcDbEntity
  8
0
  6
Continuous
 62
     3
100
AcDbLine
 10
39.25000000000141
 20
581.0310924031375
 30
0.0
 11
37.25000000000141
 21
581.0310924031375
 31
0.0
  0
LINE
  5
8E
330
35
100
AcDbEntity
  8
0
  6
Continuous
 62
     3
100
AcDbLine
 10
42.75000000000141
 20
581.0310924031375
 30
0.0
 11
39.90000000000289
 21
581.0310924031375
 31
0.0
  0
LINE
  5
8F
330
35
100
AcDbEntity
  8
0
  6
Continuous
 62
     3
100
AcDbLine
 10
43.25000000000142
 20
581.0310924031375
 30
0.0
 11
42.75000000000141
 21
581.0310924031375
 31
0.0
  0
LINE
  5
90
330
35
100
AcDbEntity
  8
0
  6
Continuous
 62
     3
100
AcDbLine
 10
44.25000000000142
 20
581.0310924031375
 30
0.0
 11
43.25000000000142
 21
581.0310924031375
 31
0.0
  0
LINE
  5
91
330
35
100
AcDbEntity
  8
0
  6
Continuous
 62
     3
100
AcDbLine
 10
5.53171070982556
 20
581.0310924031375
 30
0.0
 11
-1.60004138182413
 21
581.0310924031375
 31
0.0
  0
LINE
  5
92
330
35
100
AcDbEntity
  8
0
  6
Continuous
 62
     3
100
AcDbLine
 10
31.39802593459039
 20
581.0310924031375
 30
0.0
 11
26.03791271172241
 21
581.0310924031375
 31
0.0
  0
LINE
  5
93
330
35
100
AcDbEntity
  8
0
  6
Continuous
 62
     3
100
AcDbLine
 10
-16.09949771795066
 20
581.0310924031375
 30
0.0
 11
-26.10000000000088
 21
581.0310924031375
 31
0.0
  0
LINE
  5
94
330
35
100
AcDbEntity
  8
0
  6
Continuous
 62
     3
100
AcDbLine
 10
-27.10000000000088
 20
581.0310924031375
 30
0.0
 11
-28.80000000000081
 21
581.0310924031375
 31
0.0
  0
LINE
  5
95
330
35
100
AcDbEntity
  8
0
  6
Continuous
 62
     3
100
AcDbLine
 10
-2.95357066441301
 20
581.0310924031375
 30
0.0
 11
-15.09948918340204
 21
581.0310924031375
 31
0.0
  0
LINE
  5
96
330
35
100
AcDbEntity
  8
0
  6
Continuous
 62
     3
100
AcDbLine
 10
34.52289966874318
 20
581.0310924031375
 30
0.0
 11
33.8160873047745
 21
581.0310924031375
 31
0.0
  0
LINE
  5
97
330
35
100
AcDbEntity
  8
0
  6
Continuous
 62
     3
100
AcDbLine
 10
33.8160873047745
 20
581.0310924031375
 30
0.0
 11
31.39802593459039
 21
581.0310924031375
 31
0.0
  0
LINE
  5
98
330
35
100
AcDbEntity
  8
0
  6
Continuous
 62
     3
100
AcDbLine
 10
34.52319408596111
 20
581.0310924031375
 30
0.0
 11
34.52289966874318
 21
581.0310924031375
 31
0.0
  0
LINE
  5
99
330
35
100
AcDbEntity
  8
0
  6
Continuous
 62
     3
100
AcDbLine
 10
37.25000000000141
 20
581.0310924031375
 30
0.0
 11
34.52319408596111
 21
581.0310924031375
 31
0.0
  0
LINE
  5
9A
330
35
100
AcDbEntity
  8
0
  6
Continuous
 62
     3
100
AcDbLine
 10
53.76238170549379
 20
581.0310924031375
 30
0.0
 11
53.74122413022781
 21
581.0310924031375
 31
0.0
  0
LINE
  5
9B
330
35
100
AcDbEntity
  8
0
  6
Continuous
 62
     3
100
AcDbLine
 10
53.79999999999627
 20
581.0310924031375
 30
0.0
 11
53.76238170549379
 21
581.0310924031375
 31
0.0
  0
LINE
  5
9C
330
35
100
AcDbEntity
  8
0
  6
Continuous
 62
     3
100
AcDbLine
 10
58.00453890566383
 20
581.0310924031375
 30
0.0
 11
53.79999999999627
 21
581.0310924031375
 31
0.0
  0
LINE
  5
9D
330
35
100
AcDbEntity
  8
0
  6
Continuous
 62
     3
100
AcDbLine
 10
58.00483332288241
 20
581.0310924031375
 30
0.0
 11
58.00453890566383
 21
581.0310924031375
 31
0.0
  0
LINE
  5
9E
330
35
100
AcDbEntity
  8
0
  6
Continuous
 62
     3
100
AcDbLine
 10
58.71194010406902
 20
581.0310924031375
 30
0.0
 11
58.00483332288241
 21
581.0310924031375
 31
0.0
  0
LINE
  5
9F
330
35
100
AcDbEntity
  8
0
  6
Continuous
 62
     3
100
AcDbLine
 10
61.54026188132787
 20
581.0310924031375
 30
0.0
 11
58.71194010406902
 21
581.0310924031375
 31
0.0
  0
LINE
  5
A0
330
35
100
AcDbEntity
  8
0
  6
Continuous
 62
     3
100
AcDbLine
 10
45.27710033125527
 20
581.0310924031375
 30
0.0
 11
45.27680591403732
 21
581.0310924031375
 31
0.0
  0
LINE
  5
A1
330
35
100
AcDbEntity
  8
0
  6
Continuous
 62
     3
100
AcDbLine
 10
45.98420711244188
 20
581.0310924031375
 30
0.0
 11
45.27710033125527
 21
581.0310924031375
 31
0.0
  0
LINE
  5
A2
330
35
100
AcDbEntity
  8
0
  6
Continuous
 62
     3
100
AcDbLine
 10
45.27680591403732
 20
581.0310924031375
 30
0.0
 11
44.25000000000142
 21
581.0310924031375
 31
0.0
  0
LINE
  5
A3
330
35
100
AcDbEntity
  8
0
  6
Continuous
 62
     3
100
AcDbLine
 10
48.40197406540791
 20
581.0310924031375
 30
0.0
 11
45.98420711244188
 21
581.0310924031375
 31
0.0
  0
LINE
  5
A4
330
35
100
AcDbEntity
  8
0
  6
Continuous
 62
     3
100
AcDbLine
 10
53.74122413022781
 20
581.0310924031375
 30
0.0
 11
48.40197406540791
 21
581.0310924031375
 31
0.0
  0
LINE
  5
A5
330
35
100
AcDbEntity
  8
0
  6
Continuous
 62
     3
100
AcDbLine
 10
70.02583767278435
 20
581.0310924031375
 30
0.0
 11
70.02554325556656
 21
581.0310924031375
 31
0.0
  0
LINE
  5
A6
330
35
100
AcDbEntity
  8
0
  6
Continuous
 62
     3
100
AcDbLine
 10
74.26799487295449
 20
581.0310924031375
 30
0.0
 11
70.02583767278435
 21
581.0310924031375
 31
0.0
  0
LINE
  5
A7
330
35
100
AcDbEntity
  8
0
  6
Continuous
 62
     3
100
AcDbLine
 10
81.40004138182243
 20
581.0310924031375
 30
0.0
 11
74.26799487295449
 21
581.0310924031375
 31
0.0
  0
LINE
  5
A8
330
35
100
AcDbEntity
  8
0
  6
Continuous
 62
     3
100
AcDbLine
 10
82.75357066441137
 20
581.0310924031375
 30
0.0
 11
82.75327624719313
 21
581.0310924031375
 31
0.0
  0
LINE
  5
A9
330
35
100
AcDbEntity
  8
0
  6
Continuous
 62
     3
100
AcDbLine
 10
95.89949771794896
 20
581.0310924031375
 30
0.0
 11
94.89948918340035
 21
581.0310924031375
 31
0.0
  0
LINE
  5
AA
330
35
100
AcDbEntity
  8
0
  6
Continuous
 62
     3
100
AcDbLine
 10
82.75327624719313
 20
581.0310924031375
 30
0.0
 11
82.04616946600653
 21
581.0310924031375
 31
0.0
  0
LINE
  5
AB
330
35
100
AcDbEntity
  8
0
  6
Continuous
 62
     3
100
AcDbLine
 10
82.04616946600653
 20
581.0310924031375
 30
0.0
 11
81.40004138182243
 21
581.0310924031375
 31
0.0
  0
LINE
  5
AC
330
35
100
AcDbEntity
  8
0
  6
Continuous
 62
     3
100
AcDbLine
 10
105.8999999999992
 20
581.0310924031375
 30
0.0
 11
95.89949771794896
 21
581.0310924031375
 31
0.0
  0
LINE
  5
AD
330
35
100
AcDbEntity
  8
0
  6
Continuous
 62
     3
100
AcDbLine
 10
69.31843647437997
 20
581.0310924031375
 30
0.0
 11
66.49011469712099
 21
581.0310924031375
 31
0.0
  0
LINE
  5
AE
330
35
100
AcDbEntity
  8
0
  6
Continuous
 62
     3
100
AcDbLine
 10
70.02554325556656
 20
581.0310924031375
 30
0.0
 11
69.31843647437997
 21
581.0310924031375
 31
0.0
  0
LINE
  5
AF
330
35
100
AcDbEntity
  8
0
  6
Continuous
 62
     3
100
AcDbLine
 10
66.49011469712099
 20
581.0310924031375
 30
0.0
 11
61.54026188132787
 21
581.0310924031375
 31
0.0
  0
LINE
  5
B0
330
35
100
AcDbEntity
  8
0
  6
Continuous
 62
     3
100
AcDbLine
 10
108.5999999999992
 20
581.0310924031375
 30
0.0
 11
106.8999999999992
 21
581.0310924031375
 31
0.0
  0
LINE
  5
B1
330
35
100
AcDbEntity
  8
0
  6
Continuous
 62
     3
100
AcDbLine
 10
106.8999999999992
 20
581.0310924031375
 30
0.0
 11
105.8999999999992
 21
581.0310924031375
 31
0.0
  0
LINE
  5
B2
330
35
100
AcDbEntity
  8
0
  6
Continuous
 62
     3
100
AcDbLine
 10
94.89948918340035
 20
581.0310924031375
 30
0.0
 11
82.75357066441137
 21
581.0310924031375
 31
0.0
  0
LINE
  5
B3
330
35
100
AcDbEntity
  8
0
  6
Continuous
 62
     7
100
AcDbLine
 10
51.74905059487821
 20
575.3310924031375
 30
0.0
 11
107.8999999999992
 21
575.3310924031375
 31
0.0
  0
LINE
  5
B4
330
35
100
AcDbEntity
  8
0
  6
Continuous
 62
     3
100
AcDbLine
 10
-28.10000000000082
 20
576.3310924031375
 30
0.0
 11
107.8999999999992
 21
576.3310924031375
 31
0.0
  0
LINE
  5
B5
330
35
100
AcDbEntity
  8
0
  6
Continuous
 62
     7
100
AcDbLine
 10
-28.10000000000082
 20
575.3310924031375
 30
0.0
 11
28.05094940512021
 21
575.3310924031375
 31
0.0
  0
LINE
  5
B6
330
35
100
AcDbEntity
  8
0
  6
Continuous
 62
     3
100
AcDbLine
 10
21.08835431314799
 20
581.0310924031375
 30
0.0
 11
18.25944370145266
 21
581.0310924031375
 31
0.0
  0
LINE
  5
B7
330
35
100
AcDbEntity
  8
0
  6
Continuous
 62
     3
100
AcDbLine
 10
21.79546109433457
 20
581.0310924031375
 30
0.0
 11
21.79516667711601
 21
581.0310924031375
 31
0.0
  0
LINE
  5
B8
330
35
100
AcDbEntity
  8
0
  6
Continuous
 62
     3
100
AcDbLine
 10
21.79516667711601
 20
581.0310924031375
 30
0.0
 11
21.08835431314799
 21
581.0310924031375
 31
0.0
  0
LINE
  5
B9
330
35
100
AcDbEntity
  8
0
  6
Continuous
 62
     3
100
AcDbLine
 10
26.00000000000305
 20
581.0310924031375
 30
0.0
 11
21.79546109433457
 21
581.0310924031375
 31
0.0
  0
LINE
  5
BA
330
35
100
AcDbEntity
  8
0
  6
Continuous
 62
     3
100
AcDbLine
 10
10.48126910840071
 20
581.0310924031375
 30
0.0
 11
9.77445674443183
 21
581.0310924031375
 31
0.0
  0
LINE
  5
BB
330
35
100
AcDbEntity
  8
0
  6
Continuous
 62
     3
100
AcDbLine
 10
26.03791271172241
 20
581.0310924031375
 30
0.0
 11
26.00000000000305
 21
581.0310924031375
 31
0.0
  0
LINE
  5
BC
330
35
100
AcDbEntity
  8
0
  6
Continuous
 62
     3
100
AcDbLine
 10
18.25944370145266
 20
581.0310924031375
 30
0.0
 11
13.3101797200959
 21
581.0310924031375
 31
0.0
  0
LINE
  5
BD
330
35
100
AcDbEntity
  8
0
  6
Continuous
 62
     3
100
AcDbLine
 10
-15.09948918340204
 20
581.0310924031375
 30
0.0
 11
-16.09949771795066
 21
581.0310924031375
 31
0.0
  0
LINE
  5
BE
330
35
100
AcDbEntity
  8
0
  6
Continuous
 62
     3
100
AcDbLine
 10
-2.95327624719476
 20
581.0310924031375
 30
0.0
 11
-2.95357066441301
 21
581.0310924031375
 31
0.0
  0
LINE
  5
BF
330
35
100
AcDbEntity
  8
0
  6
Continuous
 62
     3
100
AcDbLine
 10
-1.60004138182413
 20
581.0310924031375
 30
0.0
 11
-2.2464638832264
 21
581.0310924031375
 31
0.0
  0
LINE
  5
C0
330
35
100
AcDbEntity
  8
0
  6
Continuous
 62
     3
100
AcDbLine
 10
-2.2464638832264
 20
581.0310924031375
 30
0.0
 11
-2.95327624719476
 21
581.0310924031375
 31
0.0
  0
LINE
  5
C1
330
35
100
AcDbEntity
  8
0
  6
Continuous
 62
     3
100
AcDbLine
 10
13.3101797200959
 20
581.0310924031375
 30
0.0
 11
10.48126910840071
 21
581.0310924031375
 31
0.0
  0
LINE
  5
C2
330
35
100
AcDbEntity
  8
0
  6
Continuous
 62
     3
100
AcDbLine
 10
9.77445674443183
 20
581.0310924031375
 30
0.0
 11
9.77416232721408
 21
581.0310924031375
 31
0.0
  0
LINE
  5
C3
330
35
100
AcDbEntity
  8
0
  6
Continuous
 62
     3
100
AcDbLine
 10
9.77416232721408
 20
581.0310924031375
 30
0.0
 11
5.53171070982556
 21
581.0310924031375
 31
0.0
  0
LINE
  5
C4
330
35
100
AcDbEntity
  8
0
  6
Continuous
 62
     3
100
AcDbLine
 10
-26.10000000000088
 20
581.0310924031375
 30
0.0
 11
-27.10000000000088
 21
581.0310924031375
 31
0.0
  0
LINE
  5
C5
330
35
100
AcDbEntity
  8
0
  6
Continuous
 62
     3
100
AcDbLine
 10
-28.10000000000082
 20
576.3310924031375
 30
0.0
 11
-30.80000000000081
 21
576.3310924031375
 31
0.0
  0
LINE
  5
C6
330
35
100
AcDbEntity
  8
0
  6
Continuous
 62
     7
100
AcDbLine
 10
-28.10000000000082
 20
575.3310924031375
 30
0.0
 11
-29.80000000000081
 21
575.3310924031375
 31
0.0
  0
LINE
  5
C7
330
35
100
AcDbEntity
  8
0
  6
Continuous
 62
     7
100
AcDbLine
 10
-31.6000000000008
 20
582.0310924031375
 30
0.0
 11
-28.80000000000081
 21
582.0310924031375
 31
0.0
  0
LINE
  5
C8
330
35
100
AcDbEntity
  8
0
  6
Continuous
 62
     3
100
AcDbLine
 10
-28.80000000000081
 20
582.0310924031375
 30
0.0
 11
-28.80000000000081
 21
581.0310924031375
 31
0.0
  0
LINE
  5
C9
330
35
100
AcDbEntity
  8
0
  6
Continuous
 62
     3
100
AcDbLine
 10
-32.6000000000008
 20
581.0310924031375
 30
0.0
 11
-28.80000000000081
 21
581.0310924031375
 31
0.0
  0
LINE
  5
CA
330
35
100
AcDbEntity
  8
0
  6
Continuous
 62
     7
100
AcDbLine
 10
-32.60000000000079
 20
579.5310924031375
 30
0.0
 11
-32.6000000000008
 21
581.0310924031375
 31
0.0
  0
LINE
  5
CB
330
35
100
AcDbEntity
  8
0
  6
Continuous
 62
     3
100
AcDbLine
 10
-28.80000000000081
 20
579.5310924031375
 30
0.0
 11
-28.80000000000081
 21
581.0310924031375
 31
0.0
  0
LINE
  5
CC
330
35
100
AcDbEntity
  8
0
  6
Continuous
 62
     7
100
AcDbLine
 10
-30.80000000000081
 20
579.5310924031375
 30
0.0
 11
-30.80000000000081
 21
576.3310924031375
 31
0.0
  0
LINE
  5
CD
330
35
100
AcDbEntity
  8
0
  6
Continuous
 62
     7
100
AcDbLine
 10
-30.80000000000081
 20
576.3310910010223
 30
0.0
 11
-30.80000000000081
 21
574.0310924031368
 31
0.0
  0
LINE
  5
CE
330
35
100
AcDbEntity
  8
0
  6
Continuous
 62
     7
100
AcDbLine
 10
-32.60000000000079
 20
579.5310924031375
 30
0.0
 11
-28.80000000000081
 21
579.5310924031375
 31
0.0
  0
LINE
  5
CF
330
35
100
AcDbEntity
  8
1
  6
DOT_CENTER
 62
     2
100
AcDbLine
 10
40.44999999999919
 20
578.5310924031375
 30
0.0
 11
39.34999999999917
 21
578.5310924031375
 31
0.0
  0
LINE
  5
D0
330
35
100
AcDbEntity
  8
1
  6
DOT_CENTER
 62
     2
100
AcDbLine
 10
39.89999999999918
 20
579.0810924031375
 30
0.0
 11
39.89999999999918
 21
577.9810924031374
 31
0.0
  0
ARC
  5
D1
330
35
100
AcDbEntity
  8
0
  6
Continuous
 62
     7
100
AcDbCircle
 10
109.5999999999992
 20
576.3310924031375
 30
0.0
 40
1.0
100
AcDbArc
 50
-90.0
 51
0.0
  0
ARC
  5
D2
330
35
100
AcDbEntity
  8
0
  6
Continuous
 62
     7
100
AcDbCircle
 10
111.3999999999992
 20
581.0310924031375
 30
0.0
 40
1.0
100
AcDbArc
 50
0.0
 51
90.0
  0
ARC
  5
D3
330
35
100
AcDbEntity
  8
0
  6
Continuous
 62
     7
100
AcDbCircle
 10
-29.79999999999936
 20
574.0310924031384
 30
0.0
 40
1.00000000000145
100
AcDbArc
 50
-179.9999999999088
 51
-90.0
  0
ARC
  5
D4
330
35
100
AcDbEntity
  8
0
  6
Continuous
 62
     7
100
AcDbCircle
 10
109.5999999999977
 20
574.0310924031384
 30
0.0
 40
1.000000000001592
100
AcDbArc
 50
-90.0
 51
-0.00000000009119
  0
ARC
  5
D5
330
35
100
AcDbEntity
  8
0
  6
Continuous
 62
     7
100
AcDbCircle
 10
-31.60000000000079
 20
581.0310924031375
 30
0.0
 40
1.0
100
AcDbArc
 50
90.00000000000061
 51
180.0
  0
ARC
  5
D6
330
35
100
AcDbEntity
  8
0
  6
Continuous
 62
     7
100
AcDbCircle
 10
-29.80000000000081
 20
576.3310924031375
 30
0.0
 40
1.0
100
AcDbArc
 50
180.0
 51
-90.0
  0
CIRCLE
  5
D7
330
35
100
AcDbEntity
  8
0
  6
Continuous
 62
     7
100
AcDbCircle
 10
39.89999999999918
 20
578.5310924031375
 30
0.0
 40
0.5
  0
SPLINE
  5
D8
330
35
100
AcDbEntity
  8
0
  6
Continuous
 62
     7
100
AcDbSpline
210
0.0
220
0.0
230
1.0
 70
     8
 71
     3
 72
    13
 73
     9
 74
     7
 42
0.0000000001
 43
0.0000000001
 44
0.00000001
 40
0.0
 40
0.0
 40
0.0
 40
0.0
 40
3.013398799815406
 40
5.969935716501833
 40
7.472526609464301
 40
8.941827819415291
 40
10.42855725711359
 40
11.89754893628401
 40
11.89754893628401
 40
11.89754893628401
 40
11.89754893628401
 10
39.89998831363056
 20
576.3310910132813
 30
0.0
 10
38.90255368055298
 20
576.2124502640494
 30
0.0
 10
36.92650569073816
 20
575.977407479034
 30
0.0
 10
34.44985984768735
 20
575.7106043157098
 30
0.0
 10
32.48151526923138
 20
575.5341567710333
 30
0.0
 10
30.99914059109994
 20
575.4271698093447
 30
0.0
 10
29.52588717398773
 20
575.3489119878539
 30
0.0
 10
28.54062442124784
 20
575.3370084530332
 30
0.0
 10
28.05094940512021
 20
575.3310924031375
 30
0.0
 11
39.89998831363056
 21
576.3310910132813
 31
0.0
 11
36.90702481281577
 21
575.9807457414145
 31
0.0
 11
33.96682784926537
 21
575.6703389836615
 31
0.0
 11
32.47011617803793
 21
575.5375475501076
 31
0.0
 11
31.00459674794809
 21
575.4321964912966
 31
0.0
 11
29.51967952731373
 21
575.3588121007068
 31
0.0
 11
28.05094940512021
 21
575.3310924031375
 31
0.0
  0
SPLINE
  5
D9
330
35
100
AcDbEntity
  8
0
  6
Continuous
 62
     7
100
AcDbSpline
210
0.0
220
0.0
230
1.0
 70
     8
 71
     3
 72
   181
 73
   177
 74
   175
 42
0.0000000001
 43
0.0000000001
 44
0.00000001
 40
0.0
 40
0.0
 40
0.0
 40
0.0
 40
0.0826742517733631
 40
0.1655467265449516
 40
0.2486090719321742
 40
0.3318529139599666
 40
0.4152698577783325
 40
0.4988514883512401
 40
0.5825893711179641
 40
0.6664750526286223
 40
0.7505000611544724
 40
0.83465590727477
 40
0.918934084440747
 40
1.003326069518147
 40
1.087823323308994
 40
1.172417291053712
 40
1.257099402914432
 40
1.34186107444026
 40
1.426693707015356
 40
1.511588688290677
 40
1.596537392599817
 40
1.681531181360088
 40
1.766561403458854
 40
1.851619395626549
 40
1.936696482796068
 40
2.021783978449987
 40
2.106873184955323
 40
2.191955393887027
 40
2.277021886340247
 40
2.362063933232018
 40
2.447072795592827
 40
2.53203972484836
 40
2.616955963091959
 40
2.701812743348141
 40
2.786601289827482
 40
2.871312818173303
 40
2.95593853570046
 40
3.052467840108559
 40
3.149210189429766
 40
3.246161523267344
 40
3.343317772749662
 40
3.440674860741856
 40
3.538228702051732
 40
3.63597520363024
 40
3.733910264766722
 40
3.832029777278879
 40
3.930329625697975
 40
4.028805687449131
 40
4.127453833027082
 40
4.226269926167404
 40
4.325249824013553
 40
4.424389377279569
 40
4.523684430408897
 40
4.623130821729225
 40
4.722724383603585
 40
4.822460942577923
 40
4.9223363195249
 40
5.022346329784539
 40
5.12248678330154
 40
5.222753484759275
 40
5.32314223371086
 40
5.423648824707292
 40
5.524269047422507
 40
5.624998686775946
 40
5.725833523052204
 40
5.826769332018266
 40
5.927801885038109
 40
6.055437810463546
 40
6.183295775784114
 40
6.311370503599169
 40
6.439656707084631
 40
6.568149090287517
 40
6.696842348414244
 40
6.82573116811311
 40
6.954810227751064
 40
7.084074197684807
 40
7.213517740526765
 40
7.343135511405938
 40
7.472922158223819
 40
7.60287232190571
 40
7.73298063664742
 40
7.863241730157773
 40
7.993650223896867
 40
8.124200733310396
 40
8.254887868060285
 40
8.385706232251433
 40
8.516650424655296
 40
8.647715038929894
 40
8.778894663836834
 40
8.910183883455241
 40
9.123555779405621
 40
9.336934317858598
 40
9.550311843925229
 40
9.763680677527331
 40
9.977033115579578
 40
10.19036143416365
 40
10.40365789069585
 40
10.55283909926071
 40
10.70210317483165
 40
10.85147877716414
 40
11.00099456338961
 40
11.15067918833939
 40
11.33738807113539
 40
11.52422533795946
 40
11.53203583454093
 40
11.53984165333869
 40
11.54763982895275
 40
11.55542739598303
 40
11.56320138902948
 40
11.57095884269205
 40
11.57869679157068
 40
11.58641227026527
 40
11.59410231337574
 40
11.60176395550199
 40
11.60939423124396
 40
11.6169901752015
 40
11.62454882197455
 40
11.63206720616297
 40
11.63954236236664
 40
11.64697132518543
 40
11.65435112921924
 40
11.66167880906794
 40
11.66895139933136
 40
11.67616593460939
 40
11.68331944950185
 40
11.69040897860864
 40
11.69743155652959
 40
11.70438421786456
 40
11.71126399721336
 40
11.71806792917585
 40
11.72479304835186
 40
11.73143638934125
 40
11.73799498674384
 40
11.74446587515942
 40
11.75084608918787
 40
11.757132663429
 40
11.76332263248263
 40
11.76941303094858
 40
11.77540089342667
 40
11.78128325451674
 40
11.78705714881855
 40
11.79271961093197
 40
11.79826767545681
 40
11.80369837699285
 40
11.80900875013993
 40
11.81419582949784
 40
11.8192566496664
 40
11.82418824524543
 40
11.82898765083474
 40
11.83365190103413
 40
11.8381780304434
 40
11.8425630736624
 40
11.8468040652909
 40
11.85089803992872
 40
11.8548420321757
 40
11.85863307663166
 40
11.8622682078964
 40
11.86574446056977
 40
11.86905886925158
 40
11.8722084685417
 40
11.87519029303998
 40
11.87800137734628
 40
11.88063875606048
 40
11.88309946378251
 40
11.88538053511233
 40
11.88747900464991
 40
11.8893919069953
 40
11.8911162767487
 40
11.89264914851039
 40
11.89398755688098
 40
11.89512853646144
 40
11.8960691218536
 40
11.89680634766103
 40
11.89733724849182
 40
11.89765885897063
 40
11.89776821386861
 40
11.89776821386861
 40
11.89776821386861
 40
11.89776821386861
 10
51.74905059487821
 20
575.3310924031375
 30
0.0
 10
51.7214925047284
 20
575.3311114092286
 30
0.0
 10
51.66631025008111
 20
575.3311494669808
 30
0.0
 10
51.58344100324934
 20
575.3314536684081
 30
0.0
 10
51.5003827904581
 20
575.3319351427754
 30
0.0
 10
51.41714440024031
 20
575.3326092175407
 30
0.0
 10
51.33373462077053
 20
575.3334683000649
 30
0.0
 10
51.25016224034403
 20
575.3345109596996
 30
0.0
 10
51.16643604724682
 20
575.3357341094082
 30
0.0
 10
51.08256482978941
 20
575.3371351073129
 30
0.0
 10
50.99855737629678
 20
575.3387111918974
 30
0.0
 10
50.91442247511004
 20
575.3404596337757
 30
0.0
 10
50.83016891458496
 20
575.3423776949155
 30
0.0
 10
50.7458054830915
 20
575.3444626395939
 30
0.0
 10
50.66134096901313
 20
575.3467117314532
 30
0.0
 10
50.57678416074606
 20
575.349122234294
 30
0.0
 10
50.49214384669894
 20
575.351691411862
 30
0.0
 10
50.40742881529184
 20
575.3544165279047
 30
0.0
 10
50.32264785495615
 20
575.3572948461571
 30
0.0
 10
50.23780975413386
 20
575.3603236303472
 30
0.0
 10
50.152923301277
 20
575.3635001441932
 30
0.0
 10
50.06799728484743
 20
575.366821651405
 30
0.0
 10
49.98304049331615
 20
575.370285415685
 30
0.0
 10
49.89806171516295
 20
575.3738887007264
 30
0.0
 10
49.81306973887624
 20
575.3776287702171
 30
0.0
 10
49.72807335295222
 20
575.381502887835
 30
0.0
 10
49.64308134589509
 20
575.3855083172539
 30
0.0
 10
49.55810250621616
 20
575.3896423221383
 30
0.0
 10
49.47314562243395
 20
575.3939021661474
 30
0.0
 10
49.38821948307363
 20
575.3982851129342
 30
0.0
 10
49.3033328766671
 20
575.4027884261446
 30
0.0
 10
49.2184945917512
 20
575.4074093694234
 30
0.0
 10
49.13371341687337
 20
575.4121452063896
 30
0.0
 10
49.0489981405693
 20
575.4169932007346
 30
0.0
 10
48.96435755144509
 20
575.4219506158574
 30
0.0
 10
48.87980043786952
 20
575.4270147162154
 30
0.0
 10
48.79134365387974
 20
575.4324270119055
 30
0.0
 10
48.69889184195543
 20
575.4382097962656
 30
0.0
 10
48.60234818835149
 20
575.444386315085
 30
0.0
 10
48.50560472488104
 20
575.4507113801219
 30
0.0
 10
48.40866558518948
 20
575.4571829923989
 30
0.0
 10
48.31153490242478
 20
575.463799151772
 30
0.0
 10
48.21421680987306
 20
575.4705578584056
 30
0.0
 10
48.11671544078796
 20
575.4774571123796
 30
0.0
 10
48.01903492843611
 20
575.4844949137928
 30
0.0
 10
47.92117940608482
 20
575.4916692627357
 30
0.0
 10
47.82315300700527
 20
575.4989781592996
 30
0.0
 10
47.7249598644714
 20
575.5064196035703
 30
0.0
 10
47.62660411176027
 20
575.5139915956346
 30
0.0
 10
47.52808988215161
 20
575.5216921355748
 30
0.0
 10
47.42942130892803
 20
575.5295192234729
 30
0.0
 10
47.33060252537455
 20
575.5374708594067
 30
0.0
 10
47.231637664779
 20
575.5455450434552
 30
0.0
 10
47.13253086043142
 20
575.5537397756921
 30
0.0
 10
47.03328624562431
 20
575.5620530561907
 30
0.0
 10
46.93390795365254
 20
575.5704828850237
 30
0.0
 10
46.83440011781298
 20
575.5790272622595
 30
0.0
 10
46.73476687140476
 20
575.5876841879664
 30
0.0
 10
46.63501234772911
 20
575.5964516622111
 30
0.0
 10
46.53514068008901
 20
575.6053276850576
 30
0.0
 10
46.43515600178986
 20
575.6143102565695
 30
0.0
 10
46.33506244613716
 20
575.623397376806
 30
0.0
 10
46.23486414644491
 20
575.632587045837
 30
0.0
 10
46.1345652360034
 20
575.6418772636814
 30
0.0
 10
46.03416984819959
 20
575.6512660305459
 30
0.0
 10
45.93368211606723
 20
575.6607513459258
 30
0.0
 10
45.82430903546482
 20
575.6711691400747
 30
0.0
 10
45.70601298681056
 20
575.6825492217467
 30
0.0
 10
45.57875689600755
 20
575.6949226734141
 30
0.0
 10
45.45129748064873
 20
575.7074441447551
 30
0.0
 10
45.3236398390715
 20
575.720110187816
 30
0.0
 10
45.19578906919748
 20
575.7329173556328
 30
0.0
 10
45.06775026906475
 20
575.7458622009699
 30
0.0
 10
44.93952853668485
 20
575.7589412766638
 30
0.0
 10
44.81112897008082
 20
575.7721511355267
 30
0.0
 10
44.68255666727708
 20
575.785488330376
 30
0.0
 10
44.55381672630157
 20
575.7989494140236
 30
0.0
 10
44.42491424518551
 20
575.8125309392813
 30
0.0
 10
44.29585432196275
 20
575.8262294589567
 30
0.0
 10
44.16664205467031
 20
575.8400415258573
 30
0.0
 10
44.03728254134772
 20
575.8539636927877
 30
0.0
 10
43.90778088003727
 20
575.867992512551
 30
0.0
 10
43.77814216878315
 20
575.8821245379447
 30
0.0
 10
43.64837150563434
 20
575.8963563217823
 30
0.0
 10
43.5184739886331
 20
575.9106844168084
 30
0.0
 10
43.38845471585766
 20
575.9251053760182
 30
0.0
 10
43.25831878526138
 20
575.9396157514575
 30
0.0
 10
43.12807129527489
 20
575.9542120987208
 30
0.0
 10
42.99771734255376
 20
575.9688909601273
 30
0.0
 10
42.84010905652312
 20
575.9867206515344
 30
0.0
 10
42.65528822490846
 20
576.0077488413089
 30
0.0
 10
42.44329780553916
 20
576.0320260156268
 30
0.0
 10
42.23132487701646
 20
576.0564465012075
 30
0.0
 10
42.01937573593484
 20
576.0809970667324
 30
0.0
 10
41.80745667993466
 20
576.1056644988908
 30
0.0
 10
41.59557400803215
 20
576.1304355926244
 30
0.0
 10
41.40494696878588
 20
576.1528075436326
 30
0.0
 10
41.23553566814048
 20
576.1727461024748
 30
0.0
 10
41.08728953397245
 20
576.1902303918959
 30
0.0
 10
40.93893644289086
 20
576.2077599417096
 30
0.0
 10
40.79044747209719
 20
576.2253341398426
 30
0.0
 10
40.62960342605742
 20
576.2443971329659
 30
0.0
 10
40.45640847562994
 20
576.2649506615971
 30
0.0
 10
40.33017726978522
 20
576.2799470915625
 30
0.0
 10
40.26316434024761
 20
576.2879113060996
 30
0.0
 10
40.25541405521018
 20
576.2888324240817
 30
0.0
 10
40.24767136309301
 20
576.289752666544
 30
0.0
 10
40.2399392084781
 20
576.2906716827238
 30
0.0
 10
40.23222053593506
 20
576.2915891217519
 30
0.0
 10
40.22451829003678
 20
576.2925046327883
 30
0.0
 10
40.21683541535536
 20
576.2934178649853
 30
0.0
 10
40.20917485646296
 20
576.294328467496
 30
0.0
 10
40.20153955793184
 20
576.2952360894744
 30
0.0
 10
40.19393246433416
 20
576.2961403800738
 30
0.0
 10
40.18635652024224
 20
576.2970409884484
 30
0.0
 10
40.17881467022811
 20
576.2979375637507
 30
0.0
 10
40.17130985886414
 20
576.2988297551353
 30
0.0
 10
40.16384503072245
 20
576.299717211755
 30
0.0
 10
40.15642313037526
 20
576.3005995827634
 30
0.0
 10
40.14904710239475
 20
576.3014765173141
 30
0.0
 10
40.14171989135316
 20
576.3023476645609
 30
0.0
 10
40.13444444182269
 20
576.3032126736568
 30
0.0
 10
40.12722369837547
 20
576.3040711937556
 30
0.0
 10
40.12006060558383
 20
576.3049228740107
 30
0.0
 10
40.11295810801983
 20
576.3057673635753
 30
0.0
 10
40.10591915025576
 20
576.3066043116033
 30
0.0
 10
40.09894667686382
 20
576.3074333672482
 30
0.0
 10
40.09204363241616
 20
576.3082541796636
 30
0.0
 10
40.08521296148503
 20
576.3090663980023
 30
0.0
 10
40.07845760864259
 20
576.3098696714185
 30
0.0
 10
40.07178051846108
 20
576.3106636490652
 30
0.0
 10
40.0651846355127
 20
576.3114479800964
 30
0.0
 10
40.05867290436965
 20
576.3122223136658
 30
0.0
 10
40.05224826960413
 20
576.3129862989259
 30
0.0
 10
40.04591367578834
 20
576.3137395850313
 30
0.0
 10
40.03967206749455
 20
576.3144818211353
 30
0.0
 10
40.03352638929491
 20
576.3152126563914
 30
0.0
 10
40.02747958576168
 20
576.3159317399534
 30
0.0
 10
40.02153460146701
 20
576.3166387209745
 30
0.0
 10
40.01569438098326
 20
576.3173332486092
 30
0.0
 10
40.0099618688825
 20
576.3180149720105
 30
0.0
 10
40.0043400097371
 20
576.3186835403326
 30
0.0
 10
39.99883174811926
 20
576.3193386027294
 30
0.0
 10
39.99344002860121
 20
576.3199798083548
 30
0.0
 10
39.98816779575524
 20
576.3206068063626
 30
0.0
 10
39.98301799415359
 20
576.3212192459068
 30
0.0
 10
39.97799356836855
 20
576.3218167761415
 30
0.0
 10
39.97309746297245
 20
576.3223990462216
 30
0.0
 10
39.96833262253762
 20
576.3229657053014
 30
0.0
 10
39.96370199163633
 20
576.3235164025351
 30
0.0
 10
39.95920851484098
 20
576.324050787078
 30
0.0
 10
39.95485513672402
 20
576.3245685080856
 30
0.0
 10
39.95064480185783
 20
576.3250692147126
 30
0.0
 10
39.94658045481484
 20
576.3255525561146
 30
0.0
 10
39.9426650401677
 20
576.3260181814489
 30
0.0
 10
39.938901502489
 20
576.3264657398727
 30
0.0
 10
39.93529278635135
 20
576.3268948805423
 30
0.0
 10
39.93184183632773
 20
576.3273052526178
 30
0.0
 10
39.92855159699094
 20
576.3276965052583
 30
0.0
 10
39.92542501291425
 20
576.3280682876255
 30
0.0
 10
39.92246502867113
 20
576.3284202488842
 30
0.0
 10
39.91967458883523
 20
576.3287520381997
 30
0.0
 10
39.91705663798103
 20
576.3290633047452
 30
0.0
 10
39.91461412068307
 20
576.3293536976934
 30
0.0
 10
39.9123499815186
 20
576.3296228662408
 30
0.0
 10
39.91026716506092
 20
576.3298704595493
 30
0.0
 10
39.90836861590345
 20
576.3300961269534
 30
0.0
 10
39.90665727858513
 20
576.3302995173209
 30
0.0
 10
39.90513609783633
 20
576.3304802811551
 30
0.0
 10
39.90380801782303
 20
576.330638064136
 30
0.0
 10
39.90267598446555
 20
576.3307725269316
 30
0.0
 10
39.90174293870992
 20
576.3308832877077
 30
0.0
 10
39.90101183534777
 20
576.3309700829179
 30
0.0
 10
39.90048559494115
 20
576.3310323565834
 30
0.0
 10
39.90016721414449
 20
576.3310702031262
 30
0.0
 10
39.9000245211326
 20
576.3310868015342
 30
0.0
 10
39.89998831363056
 20
576.3310910132813
 30
0.0
 11
51.74905059487821
 21
575.3310924031375
 31
0.0
 11
51.66637640124363
 21
575.3311904498469
 31
0.0
 11
51.58350444201549
 21
575.3314827655265
 31
0.0
 11
51.50044350587604
 21
575.3319666135037
 31
0.0
 11
51.41720238150754
 21
575.3326392571055
 31
0.0
 11
51.33378985759224
 21
575.3334979596593
 31
0.0
 11
51.25021472281237
 21
575.3345399844923
 31
0.0
 11
51.16648576585023
 21
575.3357625949318
 31
0.0
 11
51.08261177538805
 21
575.3371630543052
 31
0.0
 11
50.99860154010808
 21
575.3387386259394
 31
0.0
 11
50.91446384869258
 21
575.3404865731618
 31
0.0
 11
50.83020748982381
 21
575.3424041592998
 31
0.0
 11
50.74584125218401
 21
575.3444886476805
 31
0.0
 11
50.66137392445544
 21
575.346737301631
 31
0.0
 11
50.57681429532037
 21
575.3491473844789
 31
0.0
 11
50.49217115346104
 21
575.3517161595513
 31
0.0
 11
50.40745328755969
 21
575.3544408901754
 31
0.0
 11
50.3226694862986
 21
575.3573188396783
 31
0.0
 11
50.23782853836001
 21
575.3603472713876
 31
0.0
 11
50.15293923242619
 21
575.3635234486303
 31
0.0
 11
50.06801035717936
 21
575.3668446347338
 31
0.0
 11
49.98305070130183
 21
575.3703080930252
 31
0.0
 11
49.89806905347578
 21
575.3739110868316
 31
0.0
 11
49.81307420238355
 21
575.3776508794808
 31
0.0
 11
49.7280749367073
 21
575.3815247342993
 31
0.0
 11
49.64308004512936
 21
575.3855299146151
 31
0.0
 11
49.55809831633196
 21
575.3896636837551
 31
0.0
 11
49.47313853899733
 21
575.3939233050463
 31
0.0
 11
49.38820950180777
 21
575.3983060418163
 31
0.0
 11
49.3033199934455
 21
575.4028091573924
 31
0.0
 11
49.21847880259278
 21
575.4074299151016
 31
0.0
 11
49.13369471793187
 21
575.4121655782711
 31
0.0
 11
49.04897652814503
 21
575.4170134102286
 31
0.0
 11
48.96433302191449
 21
575.4219706743006
 31
0.0
 11
48.87977298792254
 21
575.4270346338151
 31
0.0
 11
48.7953052148514
 21
575.4322025520991
 31
0.0
 11
48.69896416116423
 21
575.43822816277
 31
0.0
 11
48.60241916065046
 21
575.4444043288931
 31
0.0
 11
48.5056743466773
 21
575.4507290504035
 31
0.0
 11
48.408733852612
 21
575.4572003272364
 31
0.0
 11
48.31160181182181
 21
575.4638161593271
 31
0.0
 11
48.21428235767395
 21
575.4705745466106
 31
0.0
 11
48.11677962353568
 21
575.4774734890223
 31
0.0
 11
48.01909774277422
 21
575.4845109864973
 31
0.0
 11
47.92124084875684
 21
575.4916850389709
 31
0.0
 11
47.82321307485076
 21
575.4989936463784
 31
0.0
 11
47.72501855442322
 21
575.5064348086547
 31
0.0
 11
47.62666142084147
 21
575.5140065257353
 31
0.0
 11
47.52814580747275
 21
575.5217067975553
 31
0.0
 11
47.42947584768429
 21
575.52953362405
 31
0.0
 11
47.33065567484332
 21
575.5374850051544
 31
0.0
 11
47.23168942231713
 21
575.5455589408042
 31
0.0
 11
47.1325812234729
 21
575.5537534309341
 31
0.0
 11
47.03333521167792
 21
575.5620664754795
 31
0.0
 11
46.9339555202994
 21
575.5704960743757
 31
0.0
 11
46.83444628270458
 21
575.5790402275577
 31
0.0
 11
46.73481163226071
 21
575.5876969349607
 31
0.0
 11
46.63505570233503
 21
575.5964641965203
 31
0.0
 11
46.53518262629478
 21
575.6053400121714
 31
0.0
 11
46.43519653750721
 21
575.6143223818492
 31
0.0
 11
46.33510156933953
 21
575.623409305489
 31
0.0
 11
46.23490185515902
 21
575.632598783026
 31
0.0
 11
46.13460152833289
 21
575.6418888143954
 31
0.0
 11
46.0342047222284
 21
575.6512773995326
 31
0.0
 11
45.93371557021277
 21
575.6607625383725
 31
0.0
 11
45.83313820565326
 21
575.6703422308505
 31
0.0
 11
45.70608875373986
 21
575.6825637785312
 31
0.0
 11
45.57883087537736
 21
575.6949368012254
 31
0.0
 11
45.45136966871311
 21
575.7074578515245
 31
0.0
 11
45.32371023189443
 21
575.7201234820201
 31
0.0
 11
45.19585766306866
 21
575.7329302453039
 31
0.0
 11
45.06781706038311
 21
575.7458746939672
 31
0.0
 11
44.93959352198515
 21
575.7589533806013
 31
0.0
 11
44.81119214602207
 21
575.7721628577978
 31
0.0
 11
44.68261803064124
 21
575.7854996781485
 31
0.0
 11
44.55387627398996
 21
575.7989603942447
 31
0.0
 11
44.42497197421558
 21
575.8125415586779
 31
0.0
 11
44.29591022946541
 21
575.8262397240394
 31
0.0
 11
44.16669613788682
 21
575.8400514429212
 31
0.0
 11
44.03733479762713
 21
575.8539732679145
 31
0.0
 11
43.90783130683364
 21
575.8680017516107
 31
0.0
 11
43.77819076365369
 21
575.8821334466013
 31
0.0
 11
43.64841826623464
 21
575.8963649054779
 31
0.0
 11
43.51851891272381
 21
575.9106926808322
 31
0.0
 11
43.38849780126852
 21
575.9251133252553
 31
0.0
 11
43.25836003001612
 21
575.9396233913392
 31
0.0
 11
43.12811069711394
 21
575.954219431675
 31
0.0
 11
42.99775490070928
 21
575.9688979988541
 31
0.0
 11
42.8672977389495
 21
575.9836556454685
 31
0.0
 11
42.6552933880438
 21
576.0077745421786
 31
0.0
 11
42.44330021643626
 21
576.0320499590464
 31
0.0
 11
42.23132452283064
 21
576.0564686803629
 31
0.0
 11
42.01937260593071
 21
576.0810174904188
 31
0.0
 11
41.80745076444024
 21
576.1056831735054
 31
0.0
 11
41.59556529706304
 21
576.1304525139135
 31
0.0
 11
41.38372250250285
 21
576.1553122959343
 31
0.0
 11
41.23556381181948
 21
576.1727489058073
 31
0.0
 11
41.0873270864704
 21
576.190231397444
 31
0.0
 11
40.93898340302751
 21
576.2077591512873
 31
0.0
 11
40.79050383806273
 21
576.2253315477799
 31
0.0
 11
40.64185946814797
 21
576.242947967365
 31
0.0
 11
40.45645143691373
 21
576.2649495325087
 31
0.0
 11
40.27091870740696
 21
576.2869897356851
 31
0.0
 11
40.26316279243184
 21
576.2879114947359
 31
0.0
 11
40.25541152581367
 21
576.288832729189
 31
0.0
 11
40.24766785212464
 21
576.289753088198
 31
0.0
 11
40.23993471593691
 21
576.290672220916
 31
0.0
 11
40.23221506182264
 21
576.2915897764959
 31
0.0
 11
40.224511834354
 21
576.2925054040912
 31
0.0
 11
40.21682797810317
 21
576.2934187528554
 31
0.0
 11
40.2091664376423
 21
576.2943294719411
 31
0.0
 11
40.20153015754356
 21
576.2952372105017
 31
0.0
 11
40.19392208237913
 21
576.2961416176904
 31
0.0
 11
40.18634515672115
 21
576.2970423426607
 31
0.0
 11
40.17880232514182
 21
576.2979390345654
 31
0.0
 11
40.17129653221328
 21
576.298831342558
 31
0.0
 11
40.1638307225077
 21
576.2997189157915
 31
0.0
 11
40.15640784059728
 21
576.3006014034191
 31
0.0
 11
40.14903083105413
 21
576.3014784545941
 31
0.0
 11
40.14170263845047
 21
576.3023497184697
 31
0.0
 11
40.13442620735844
 21
576.3032148441993
 31
0.0
 11
40.1272044823502
 21
576.3040734809356
 31
0.0
 11
40.12004040799795
 21
576.3049252778324
 31
0.0
 11
40.11293692887382
 21
576.3057698840422
 31
0.0
 11
40.10589698954999
 21
576.3066069487188
 31
0.0
 11
40.09892353459864
 21
576.3074361210154
 31
0.0
 11
40.09201950859191
 21
576.3082570500849
 31
0.0
 11
40.08518785610199
 21
576.3090693850805
 31
0.0
 11
40.07843152170104
 21
576.3098727751556
 31
0.0
 11
40.07175344996123
 21
576.3106668694633
 31
0.0
 11
40.06515658545472
 21
576.3114513171569
 31
0.0
 11
40.05864387275366
 21
576.3122257673895
 31
0.0
 11
40.05221825643027
 21
576.3129898693143
 31
0.0
 11
40.04588268105666
 21
576.3137432720845
 31
0.0
 11
40.03964009120503
 21
576.3144856248534
 31
0.0
 11
40.03349343144754
 21
576.3152165767742
 31
0.0
 11
40.02744564635635
 21
576.3159357770001
 31
0.0
 11
40.02149968050362
 21
576.316642874684
 31
0.0
 11
40.01565847846154
 21
576.3173375189797
 31
0.0
 11
40.00992498480225
 21
576.3180193590397
 31
0.0
 11
40.00430214409795
 21
576.3186880440178
 31
0.0
 11
39.99879290092078
 21
576.3193432230671
 31
0.0
 11
39.99340019984292
 21
576.3199845453405
 31
0.0
 11
39.98812698543654
 21
576.3206116599915
 31
0.0
 11
39.98297620227378
 21
576.3212242161731
 31
0.0
 11
39.97795079492682
 21
576.3218218630384
 31
0.0
 11
39.97305370796785
 21
576.322404249741
 31
0.0
 11
39.96828788596901
 21
576.322971025434
 31
0.0
 11
39.96365627350247
 21
576.3235218392703
 31
0.0
 11
39.95916181514042
 21
576.3240563404033
 31
0.0
 11
39.954807455455
 21
576.3245741779865
 31
0.0
 11
39.95059613901839
 21
576.3250750011725
 31
0.0
 11
39.94653081040274
 21
576.3255584591148
 31
0.0
 11
39.94261441418024
 21
576.3260242009667
 31
0.0
 11
39.93884989492305
 21
576.3264718758815
 31
0.0
 11
39.93524019720333
 21
576.326901133012
 31
0.0
 11
39.93178826559326
 21
576.3273116215119
 31
0.0
 11
39.92849704466498
 21
576.3277029905338
 31
0.0
 11
39.92536947899068
 21
576.3280748892314
 31
0.0
 11
39.92240851314254
 21
576.3284269667579
 31
0.0
 11
39.91961709169268
 21
576.3287588722661
 31
0.0
 11
39.91699815921331
 21
576.3290702549095
 31
0.0
 11
39.91455466027658
 21
576.3293607638414
 31
0.0
 11
39.91228953945465
 21
576.3296300482148
 31
0.0
 11
39.91020574131971
 21
576.3298777571831
 31
0.0
 11
39.9083062104439
 21
576.330103539899
 31
0.0
 11
39.9065938913994
 21
576.3303070455164
 31
0.0
 11
39.90507172875838
 21
576.330487923188
 31
0.0
 11
39.903742667093
 21
576.3306458220673
 31
0.0
 11
39.90260965097542
 21
576.3307803913071
 31
0.0
 11
39.90167562497783
 21
576.3308912800612
 31
0.0
 11
39.90094353367238
 21
576.3309781374825
 31
0.0
 11
39.90041632163124
 21
576.331040612724
 31
0.0
 11
39.90009693342658
 21
576.3310783549392
 31
0.0
 11
39.89998831363056
 21
576.3310910132813
 31
0.0
  0
ENDBLK
  5
37
330
35
100
AcDbEntity
  8
0
100
AcDbBlockEnd
  0
BLOCK
  5
39
330
38
100
AcDbEntity
  8
0
100
AcDbBlockBegin
  2
AufsatzrahmenD145
 70
     0
 71
     0
 10
-32.44999999999931
 20
482.0310924031389
 30
0.0
  3
AufsatzrahmenD145
  1

  0
LINE
  5
DA
330
38
100
AcDbEntity
  8
0
  6
Continuous
 62
     7
100
AcDbLine
 10
112.4499999999977
 20
529.0473375260235
 30
0.0
 11
112.4499999999977
 21
528.5148472802542
 31
0.0
  0
LINE
  5
DB
330
38
100
AcDbEntity
  8
0
  6
Continuous
 62
     7
100
AcDbLine
 10
110.21284425725
 20
529.7012288790646
 30
0.0
 11
111.9935778713715
 21
529.5454348750694
 31
0.0
  0
LINE
  5
DC
330
38
100
AcDbEntity
  8
0
  6
Continuous
 62
     7
100
AcDbLine
 10
110.21284425725
 20
521.3609559272132
 30
0.0
 11
111.9935778713715
 21
521.5167499312084
 31
0.0
  0
LINE
  5
DD
330
38
100
AcDbEntity
  8
0
  6
Continuous
 62
     7
100
AcDbLine
 10
110.21284425725
 20
527.8609559272132
 30
0.0
 11
111.9935778713715
 21
528.0167499312084
 31
0.0
  0
LINE
  5
DE
330
38
100
AcDbEntity
  8
0
  6
Continuous
 62
     7
100
AcDbLine
 10
112.4499999999977
 20
522.5473375260235
 30
0.0
 11
112.4499999999977
 21
522.0148472802542
 31
0.0
  0
LINE
  5
DF
330
38
100
AcDbEntity
  8
0
  6
Continuous
 62
     7
100
AcDbLine
 10
110.21284425725
 20
523.2012288790646
 30
0.0
 11
111.9935778713715
 21
523.0454348750694
 31
0.0
  0
LINE
  5
E0
330
38
100
AcDbEntity
  8
0
  6
Continuous
 62
     7
100
AcDbLine
 10
109.2999999999977
 20
520.3647612291215
 30
0.0
 11
109.2999999999977
 21
517.6974235771563
 31
0.0
  0
LINE
  5
E1
330
38
100
AcDbEntity
  8
0
  6
Continuous
 62
     7
100
AcDbLine
 10
109.2999999999977
 20
513.8647612291214
 30
0.0
 11
109.2999999999977
 21
511.1974235771563
 31
0.0
  0
LINE
  5
E2
330
38
100
AcDbEntity
  8
0
  6
Continuous
 62
     7
100
AcDbLine
 10
112.4499999999977
 20
516.0473375260235
 30
0.0
 11
112.4499999999977
 21
515.5148472802542
 31
0.0
  0
LINE
  5
E3
330
38
100
AcDbEntity
  8
0
  6
Continuous
 62
     7
100
AcDbLine
 10
110.21284425725
 20
501.8609559272132
 30
0.0
 11
111.9935778713715
 21
502.0167499312084
 31
0.0
  0
LINE
  5
E4
330
38
100
AcDbEntity
  8
0
  6
Continuous
 62
     7
100
AcDbLine
 10
110.21284425725
 20
503.7012288790646
 30
0.0
 11
111.9935778713715
 21
503.5454348750694
 31
0.0
  0
LINE
  5
E5
330
38
100
AcDbEntity
  8
0
  6
Continuous
 62
     7
100
AcDbLine
 10
110.21284425725
 20
508.3609559272132
 30
0.0
 11
111.9935778713715
 21
508.5167499312084
 31
0.0
  0
LINE
  5
E6
330
38
100
AcDbEntity
  8
0
  6
Continuous
 62
     7
100
AcDbLine
 10
112.4499999999977
 20
503.0473375260236
 30
0.0
 11
112.4499999999977
 21
502.5148472802542
 31
0.0
  0
LINE
  5
E7
330
38
100
AcDbEntity
  8
0
  6
Continuous
 62
     7
100
AcDbLine
 10
110.21284425725
 20
514.8609559272132
 30
0.0
 11
111.9935778713715
 21
515.0167499312084
 31
0.0
  0
LINE
  5
E8
330
38
100
AcDbEntity
  8
0
  6
Continuous
 62
     7
100
AcDbLine
 10
110.21284425725
 20
510.2012288790646
 30
0.0
 11
111.9935778713715
 21
510.0454348750694
 31
0.0
  0
LINE
  5
E9
330
38
100
AcDbEntity
  8
0
  6
Continuous
 62
     7
100
AcDbLine
 10
110.21284425725
 20
534.3609559272132
 30
0.0
 11
111.9935778713715
 21
534.5167499312084
 31
0.0
  0
LINE
  5
EA
330
38
100
AcDbEntity
  8
0
  6
Continuous
 62
     7
100
AcDbLine
 10
109.2999999999977
 20
539.8647612291215
 30
0.0
 11
109.2999999999977
 21
537.1974235771563
 31
0.0
  0
LINE
  5
EB
330
38
100
AcDbEntity
  8
0
  6
Continuous
 62
     7
100
AcDbLine
 10
109.2999999999977
 20
533.3647612291215
 30
0.0
 11
109.2999999999977
 21
530.6974235771563
 31
0.0
  0
LINE
  5
EC
330
38
100
AcDbEntity
  8
0
  6
Continuous
 62
     7
100
AcDbLine
 10
110.21284425725
 20
536.2012288790646
 30
0.0
 11
111.9935778713715
 21
536.0454348750694
 31
0.0
  0
LINE
  5
ED
330
38
100
AcDbEntity
  8
0
  6
Continuous
 62
     7
100
AcDbLine
 10
110.21284425725
 20
549.2012288790646
 30
0.0
 11
111.9935778713715
 21
549.0454348750694
 31
0.0
  0
LINE
  5
EE
330
38
100
AcDbEntity
  8
0
  6
Continuous
 62
     7
100
AcDbLine
 10
112.4499999999977
 20
535.5473375260235
 30
0.0
 11
112.4499999999977
 21
535.0148472802542
 31
0.0
  0
LINE
  5
EF
330
38
100
AcDbEntity
  8
0
  6
Continuous
 62
     7
100
AcDbLine
 10
112.4499999999977
 20
542.0473375260235
 30
0.0
 11
112.4499999999977
 21
541.5148472802542
 31
0.0
  0
LINE
  5
F0
330
38
100
AcDbEntity
  8
0
  6
Continuous
 62
     7
100
AcDbLine
 10
112.4499999999977
 20
554.8296034031389
 30
0.0
 11
112.4499999999977
 21
554.5148472802542
 31
0.0
  0
LINE
  5
F1
330
38
100
AcDbEntity
  8
0
  6
Continuous
 62
     7
100
AcDbLine
 10
111.4999999999992
 20
572.5310924031389
 30
0.0
 11
111.4999999999992
 21
560.7039989270173
 31
0.0
  0
LINE
  5
F2
330
38
100
AcDbEntity
  8
0
  6
Continuous
 62
     7
100
AcDbLine
 10
108.8999999999992
 20
573.0310924031368
 30
0.0
 11
39.89999999999918
 21
573.0310924031368
 31
0.0
  0
LINE
  5
F3
330
38
100
AcDbEntity
  8
0
  6
Continuous
 62
     7
100
AcDbLine
 10
-29.10000000000082
 20
573.0310924031368
 30
0.0
 11
-29.79999999999936
 21
573.0310924031368
 31
0.0
  0
LINE
  5
F4
330
38
100
AcDbEntity
  8
0
  6
Continuous
 62
     7
100
AcDbLine
 10
-29.79999999999936
 20
573.0310924031368
 30
0.0
 11
-31.0000000000008
 21
573.0310924031389
 31
0.0
  0
LINE
  5
F5
330
38
100
AcDbEntity
  8
0
  6
Continuous
 62
     7
100
AcDbLine
 10
109.5999999999977
 20
573.0310924031368
 30
0.0
 11
108.8999999999992
 21
573.0310924031368
 31
0.0
  0
LINE
  5
F6
330
38
100
AcDbEntity
  8
0
  6
Continuous
 62
     7
100
AcDbLine
 10
110.9999999999992
 20
573.0310924031389
 30
0.0
 11
109.5999999999977
 21
573.0310924031368
 31
0.0
  0
LINE
  5
F7
330
38
100
AcDbEntity
  8
0
  6
Continuous
 62
     7
100
AcDbLine
 10
39.89999999999918
 20
573.0310924031368
 30
0.0
 11
-29.10000000000082
 21
573.0310924031368
 31
0.0
  0
LINE
  5
F8
330
38
100
AcDbEntity
  8
0
  6
Continuous
 62
     3
100
AcDbLine
 10
111.4999999999992
 20
572.5310924031389
 30
0.0
 11
-31.5000000000008
 21
572.5310924031389
 31
0.0
  0
LINE
  5
F9
330
38
100
AcDbEntity
  8
0
  6
Continuous
 62
     3
100
AcDbLine
 10
-29.29999999999927
 20
533.3647612291214
 30
0.0
 11
109.2999999999977
 21
533.3647612291215
 31
0.0
  0
LINE
  5
FA
330
38
100
AcDbEntity
  8
0
  6
Continuous
 62
     3
100
AcDbLine
 10
-30.2128442572516
 20
534.3609559272132
 30
0.0
 11
110.21284425725
 21
534.3609559272132
 31
0.0
  0
LINE
  5
FB
330
38
100
AcDbEntity
  8
0
  6
Continuous
 62
     3
100
AcDbLine
 10
-31.99357787137311
 20
534.5167499312084
 30
0.0
 11
111.9935778713715
 21
534.5167499312084
 31
0.0
  0
LINE
  5
FC
330
38
100
AcDbEntity
  8
0
  6
Continuous
 62
     3
100
AcDbLine
 10
-29.29999999999927
 20
539.8647612291214
 30
0.0
 11
109.2999999999977
 21
539.8647612291215
 31
0.0
  0
LINE
  5
FD
330
38
100
AcDbEntity
  8
0
  6
Continuous
 62
     3
100
AcDbLine
 10
-31.99357787137311
 20
536.0454348750694
 30
0.0
 11
111.9935778713715
 21
536.0454348750694
 31
0.0
  0
LINE
  5
FE
330
38
100
AcDbEntity
  8
0
  6
Continuous
 62
     3
100
AcDbLine
 10
-32.44999999999928
 20
535.5473375260235
 30
0.0
 11
112.4499999999977
 21
535.5473375260235
 31
0.0
  0
LINE
  5
FF
330
38
100
AcDbEntity
  8
0
  6
Continuous
 62
     3
100
AcDbLine
 10
-30.2128442572516
 20
536.2012288790646
 30
0.0
 11
110.21284425725
 21
536.2012288790646
 31
0.0
  0
LINE
  5
100
330
38
100
AcDbEntity
  8
0
  6
Continuous
 62
     3
100
AcDbLine
 10
-29.29999999999927
 20
537.1974235771563
 30
0.0
 11
109.2999999999977
 21
537.1974235771563
 31
0.0
  0
LINE
  5
101
330
38
100
AcDbEntity
  8
0
  6
Continuous
 62
     3
100
AcDbLine
 10
-32.44999999999928
 20
541.5148472802542
 30
0.0
 11
112.4499999999977
 21
541.5148472802542
 31
0.0
  0
LINE
  5
102
330
38
100
AcDbEntity
  8
0
  6
Continuous
 62
     3
100
AcDbLine
 10
-32.44999999999928
 20
542.0473375260235
 30
0.0
 11
112.4499999999977
 21
542.0473375260235
 31
0.0
  0
LINE
  5
103
330
38
100
AcDbEntity
  8
0
  6
Continuous
 62
     3
100
AcDbLine
 10
-31.99357787137311
 20
541.0167499312084
 30
0.0
 11
111.9935778713715
 21
541.0167499312084
 31
0.0
  0
LINE
  5
104
330
38
100
AcDbEntity
  8
0
  6
Continuous
 62
     3
100
AcDbLine
 10
-30.2128442572516
 20
540.8609559272132
 30
0.0
 11
110.21284425725
 21
540.8609559272132
 31
0.0
  0
LINE
  5
105
330
38
100
AcDbEntity
  8
0
  6
Continuous
 62
     7
100
AcDbLine
 10
109.2999999999977
 20
546.3647612291215
 30
0.0
 11
109.2999999999977
 21
543.6974235771563
 31
0.0
  0
LINE
  5
106
330
38
100
AcDbEntity
  8
0
  6
Continuous
 62
     3
100
AcDbLine
 10
-29.29999999999927
 20
543.6974235771563
 30
0.0
 11
109.2999999999977
 21
543.6974235771563
 31
0.0
  0
LINE
  5
107
330
38
100
AcDbEntity
  8
0
  6
Continuous
 62
     3
100
AcDbLine
 10
-31.99357787137311
 20
547.5167499312084
 30
0.0
 11
111.9935778713715
 21
547.5167499312084
 31
0.0
  0
LINE
  5
108
330
38
100
AcDbEntity
  8
0
  6
Continuous
 62
     7
100
AcDbLine
 10
110.21284425725
 20
547.3609559272132
 30
0.0
 11
111.9935778713715
 21
547.5167499312084
 31
0.0
  0
LINE
  5
109
330
38
100
AcDbEntity
  8
0
  6
Continuous
 62
     3
100
AcDbLine
 10
-30.2128442572516
 20
547.3609559272132
 30
0.0
 11
110.21284425725
 21
547.3609559272132
 31
0.0
  0
LINE
  5
10A
330
38
100
AcDbEntity
  8
0
  6
Continuous
 62
     7
100
AcDbLine
 10
110.21284425725
 20
542.7012288790646
 30
0.0
 11
111.9935778713715
 21
542.5454348750694
 31
0.0
  0
LINE
  5
10B
330
38
100
AcDbEntity
  8
0
  6
Continuous
 62
     3
100
AcDbLine
 10
-29.29999999999927
 20
546.3647612291214
 30
0.0
 11
109.2999999999977
 21
546.3647612291215
 31
0.0
  0
LINE
  5
10C
330
38
100
AcDbEntity
  8
0
  6
Continuous
 62
     3
100
AcDbLine
 10
-30.2128442572516
 20
542.7012288790646
 30
0.0
 11
110.21284425725
 21
542.7012288790646
 31
0.0
  0
LINE
  5
10D
330
38
100
AcDbEntity
  8
0
  6
Continuous
 62
     3
100
AcDbLine
 10
-31.99357787137311
 20
542.5454348750694
 30
0.0
 11
111.9935778713715
 21
542.5454348750694
 31
0.0
  0
LINE
  5
10E
330
38
100
AcDbEntity
  8
0
  6
Continuous
 62
     3
100
AcDbLine
 10
-30.2128442572516
 20
549.2012288790646
 30
0.0
 11
110.21284425725
 21
549.2012288790646
 31
0.0
  0
LINE
  5
10F
330
38
100
AcDbEntity
  8
0
  6
Continuous
 62
     3
100
AcDbLine
 10
-31.99357787137311
 20
549.0454348750694
 30
0.0
 11
111.9935778713715
 21
549.0454348750694
 31
0.0
  0
LINE
  5
110
330
38
100
AcDbEntity
  8
0
  6
Continuous
 62
     3
100
AcDbLine
 10
-29.29999999999927
 20
550.1974235771563
 30
0.0
 11
109.2999999999977
 21
550.1974235771563
 31
0.0
  0
LINE
  5
111
330
38
100
AcDbEntity
  8
0
  6
Continuous
 62
     7
100
AcDbLine
 10
109.2999999999977
 20
550.1974235771563
 30
0.0
 11
109.2999999999977
 21
552.8647612291215
 31
0.0
  0
LINE
  5
112
330
38
100
AcDbEntity
  8
0
  6
Continuous
 62
     3
100
AcDbLine
 10
-29.29999999999927
 20
552.8647612291214
 30
0.0
 11
109.2999999999977
 21
552.8647612291215
 31
0.0
  0
LINE
  5
113
330
38
100
AcDbEntity
  8
0
  6
Continuous
 62
     3
100
AcDbLine
 10
-32.44999999999928
 20
548.0148472802543
 30
0.0
 11
112.4499999999977
 21
548.0148472802542
 31
0.0
  0
LINE
  5
114
330
38
100
AcDbEntity
  8
0
  6
Continuous
 62
     3
100
AcDbLine
 10
-32.44999999999928
 20
548.5473375260236
 30
0.0
 11
112.4499999999977
 21
548.5473375260235
 31
0.0
  0
LINE
  5
115
330
38
100
AcDbEntity
  8
0
  6
Continuous
 62
     7
100
AcDbLine
 10
112.4499999999977
 20
548.5473375260235
 30
0.0
 11
112.4499999999977
 21
548.0148472802542
 31
0.0
  0
LINE
  5
116
330
38
100
AcDbEntity
  8
0
  6
Continuous
 62
     3
100
AcDbLine
 10
-30.2128442572516
 20
553.8609559272132
 30
0.0
 11
110.21284425725
 21
553.8609559272132
 31
0.0
  0
LINE
  5
117
330
38
100
AcDbEntity
  8
0
  6
Continuous
 62
     3
100
AcDbLine
 10
-31.99357787137311
 20
554.0167499312084
 30
0.0
 11
111.9935778713715
 21
554.0167499312084
 31
0.0
  0
LINE
  5
118
330
38
100
AcDbEntity
  8
0
  6
Continuous
 62
     7
100
AcDbLine
 10
109.2999999999963
 20
559.1370271062359
 30
0.0
 11
109.2999999999963
 21
556.4796894542717
 31
0.0
  0
LINE
  5
119
330
38
100
AcDbEntity
  8
0
  6
Continuous
 62
     3
100
AcDbLine
 10
-29.29999999999788
 20
556.4796894542717
 30
0.0
 11
109.2999999999963
 21
556.4796894542717
 31
0.0
  0
LINE
  5
11A
330
38
100
AcDbEntity
  8
0
  6
Continuous
 62
     7
100
AcDbLine
 10
-29.29999999999788
 20
559.1370271062359
 30
0.0
 11
-29.29999999999788
 21
556.4796894542717
 31
0.0
  0
LINE
  5
11B
330
38
100
AcDbEntity
  8
0
  6
Continuous
 62
     3
100
AcDbLine
 10
-29.29999999999788
 20
559.1370271062359
 30
0.0
 11
109.2999999999963
 21
559.1370271062359
 31
0.0
  0
LINE
  5
11C
330
38
100
AcDbEntity
  8
0
  6
Continuous
 62
     3
100
AcDbLine
 10
-32.44999999999928
 20
554.5148472802542
 30
0.0
 11
112.4499999999977
 21
554.5148472802542
 31
0.0
  0
LINE
  5
11D
330
38
100
AcDbEntity
  8
0
  6
Continuous
 62
     3
100
AcDbLine
 10
-30.21284425725159
 20
560.1332218043269
 30
0.0
 11
110.21284425725
 21
560.1332218043269
 31
0.0
  0
LINE
  5
11E
330
38
100
AcDbEntity
  8
0
  6
Continuous
 62
     3
100
AcDbLine
 10
-30.2128442572516
 20
555.48349475618
 30
0.0
 11
110.21284425725
 21
555.48349475618
 31
0.0
  0
LINE
  5
11F
330
38
100
AcDbEntity
  8
0
  6
Continuous
 62
     3
100
AcDbLine
 10
-32.44999999999928
 20
554.8296034031389
 30
0.0
 11
112.4499999999977
 21
554.8296034031389
 31
0.0
  0
LINE
  5
120
330
38
100
AcDbEntity
  8
0
  6
Continuous
 62
     3
100
AcDbLine
 10
-31.99357787137311
 20
555.3277007521848
 30
0.0
 11
111.9935778713715
 21
555.3277007521848
 31
0.0
  0
LINE
  5
121
330
38
100
AcDbEntity
  8
0
  6
Continuous
 62
     3
100
AcDbLine
 10
-31.5000000000008
 20
560.7039989270173
 30
0.0
 11
111.4999999999992
 21
560.7039989270173
 31
0.0
  0
LINE
  5
122
330
38
100
AcDbEntity
  8
0
  6
Continuous
 62
     3
100
AcDbLine
 10
-31.04357787137403
 20
560.2059015779715
 30
0.0
 11
111.0435778713724
 21
560.2059015779715
 31
0.0
  0
LINE
  5
123
330
38
100
AcDbEntity
  8
0
  6
Continuous
 62
     7
100
AcDbLine
 10
110.21284425725
 20
560.1332218043269
 30
0.0
 11
111.0435778713724
 21
560.2059015779715
 31
0.0
  0
LINE
  5
124
330
38
100
AcDbEntity
  8
0
  6
Continuous
 62
     7
100
AcDbLine
 10
110.21284425725
 20
555.48349475618
 30
0.0
 11
111.9935778713715
 21
555.3277007521848
 31
0.0
  0
LINE
  5
125
330
38
100
AcDbEntity
  8
0
  6
Continuous
 62
     7
100
AcDbLine
 10
110.21284425725
 20
553.8609559272132
 30
0.0
 11
111.9935778713715
 21
554.0167499312084
 31
0.0
  0
LINE
  5
126
330
38
100
AcDbEntity
  8
0
  6
Continuous
 62
     7
100
AcDbLine
 10
110.21284425725
 20
540.8609559272132
 30
0.0
 11
111.9935778713715
 21
541.0167499312084
 31
0.0
  0
LINE
  5
127
330
38
100
AcDbEntity
  8
0
  6
Continuous
 62
     3
100
AcDbLine
 10
-32.44999999999928
 20
535.0148472802543
 30
0.0
 11
112.4499999999977
 21
535.0148472802542
 31
0.0
  0
LINE
  5
128
330
38
100
AcDbEntity
  8
0
  6
Continuous
 62
     3
100
AcDbLine
 10
-31.99357787137311
 20
489.0167499312084
 30
0.0
 11
111.9935778713715
 21
489.0167499312084
 31
0.0
  0
LINE
  5
129
330
38
100
AcDbEntity
  8
0
  6
Continuous
 62
     3
100
AcDbLine
 10
-31.99357787137311
 20
497.0454348750694
 30
0.0
 11
111.9935778713715
 21
497.0454348750694
 31
0.0
  0
LINE
  5
12A
330
38
100
AcDbEntity
  8
0
  6
Continuous
 62
     3
100
AcDbLine
 10
-32.44999999999928
 20
496.5473375260236
 30
0.0
 11
112.4499999999977
 21
496.5473375260236
 31
0.0
  0
LINE
  5
12B
330
38
100
AcDbEntity
  8
0
  6
Continuous
 62
     7
100
AcDbLine
 10
112.4499999999977
 20
496.5473375260236
 30
0.0
 11
112.4499999999977
 21
496.0148472802542
 31
0.0
  0
LINE
  5
12C
330
38
100
AcDbEntity
  8
0
  6
Continuous
 62
     3
100
AcDbLine
 10
-32.44999999999928
 20
496.0148472802543
 30
0.0
 11
112.4499999999977
 21
496.0148472802542
 31
0.0
  0
LINE
  5
12D
330
38
100
AcDbEntity
  8
0
  6
Continuous
 62
     3
100
AcDbLine
 10
-32.44999999999928
 20
489.5148472802542
 30
0.0
 11
112.4499999999977
 21
489.5148472802542
 31
0.0
  0
LINE
  5
12E
330
38
100
AcDbEntity
  8
0
  6
Continuous
 62
     3
100
AcDbLine
 10
-30.21284425725159
 20
497.2012288790646
 30
0.0
 11
110.21284425725
 21
497.2012288790646
 31
0.0
  0
LINE
  5
12F
330
38
100
AcDbEntity
  8
0
  6
Continuous
 62
     3
100
AcDbLine
 10
-32.44999999999928
 20
490.0473375260236
 30
0.0
 11
112.4499999999977
 21
490.0473375260236
 31
0.0
  0
LINE
  5
130
330
38
100
AcDbEntity
  8
0
  6
Continuous
 62
     7
100
AcDbLine
 10
110.21284425725
 20
497.2012288790646
 30
0.0
 11
111.9935778713715
 21
497.0454348750694
 31
0.0
  0
LINE
  5
131
330
38
100
AcDbEntity
  8
0
  6
Continuous
 62
     7
100
AcDbLine
 10
-31.94999999999928
 20
482.0310924031389
 30
0.0
 11
111.9499999999977
 21
482.0310924031389
 31
0.0
  0
LINE
  5
132
330
38
100
AcDbEntity
  8
0
  6
Continuous
 62
     3
100
AcDbLine
 10
-31.99357787137311
 20
490.5454348750694
 30
0.0
 11
111.9935778713715
 21
490.5454348750694
 31
0.0
  0
LINE
  5
133
330
38
100
AcDbEntity
  8
0
  6
Continuous
 62
     3
100
AcDbLine
 10
-31.99357787137311
 20
484.0454348750694
 30
0.0
 11
111.9935778713715
 21
484.0454348750694
 31
0.0
  0
LINE
  5
134
330
38
100
AcDbEntity
  8
0
  6
Continuous
 62
     3
100
AcDbLine
 10
-31.99357787137311
 20
495.5167499312084
 30
0.0
 11
111.9935778713715
 21
495.5167499312084
 31
0.0
  0
LINE
  5
135
330
38
100
AcDbEntity
  8
0
  6
Continuous
 62
     3
100
AcDbLine
 10
-29.29999999999927
 20
485.1974235771563
 30
0.0
 11
109.2999999999977
 21
485.1974235771563
 31
0.0
  0
LINE
  5
136
330
38
100
AcDbEntity
  8
0
  6
Continuous
 62
     3
100
AcDbLine
 10
-30.21284425725159
 20
490.7012288790646
 30
0.0
 11
110.21284425725
 21
490.7012288790646
 31
0.0
  0
LINE
  5
137
330
38
100
AcDbEntity
  8
0
  6
Continuous
 62
     3
100
AcDbLine
 10
-29.29999999999927
 20
487.8647612291214
 30
0.0
 11
109.2999999999977
 21
487.8647612291215
 31
0.0
  0
LINE
  5
138
330
38
100
AcDbEntity
  8
0
  6
Continuous
 62
     3
100
AcDbLine
 10
-29.29999999999927
 20
491.6974235771563
 30
0.0
 11
109.2999999999977
 21
491.6974235771563
 31
0.0
  0
LINE
  5
139
330
38
100
AcDbEntity
  8
0
  6
Continuous
 62
     3
100
AcDbLine
 10
-29.29999999999927
 20
494.3647612291214
 30
0.0
 11
109.2999999999977
 21
494.3647612291215
 31
0.0
  0
LINE
  5
13A
330
38
100
AcDbEntity
  8
0
  6
Continuous
 62
     3
100
AcDbLine
 10
-30.21284425725159
 20
495.3609559272132
 30
0.0
 11
110.21284425725
 21
495.3609559272132
 31
0.0
  0
LINE
  5
13B
330
38
100
AcDbEntity
  8
0
  6
Continuous
 62
     3
100
AcDbLine
 10
-30.2128442572516
 20
488.8609559272132
 30
0.0
 11
110.21284425725
 21
488.8609559272132
 31
0.0
  0
LINE
  5
13C
330
38
100
AcDbEntity
  8
0
  6
Continuous
 62
     3
100
AcDbLine
 10
-30.2128442572516
 20
484.2012288790646
 30
0.0
 11
110.21284425725
 21
484.2012288790646
 31
0.0
  0
LINE
  5
13D
330
38
100
AcDbEntity
  8
0
  6
Continuous
 62
     3
100
AcDbLine
 10
-32.44999999999928
 20
482.5310924031389
 30
0.0
 11
112.4499999999977
 21
482.5310924031389
 31
0.0
  0
LINE
  5
13E
330
38
100
AcDbEntity
  8
0
  6
Continuous
 62
     3
100
AcDbLine
 10
-32.44999999999928
 20
483.5473375260235
 30
0.0
 11
112.4499999999977
 21
483.5473375260235
 31
0.0
  0
LINE
  5
13F
330
38
100
AcDbEntity
  8
0
  6
Continuous
 62
     7
100
AcDbLine
 10
110.21284425725
 20
484.2012288790646
 30
0.0
 11
111.9935778713715
 21
484.0454348750694
 31
0.0
  0
LINE
  5
140
330
38
100
AcDbEntity
  8
0
  6
Continuous
 62
     7
100
AcDbLine
 10
112.4499999999977
 20
483.5473375260235
 30
0.0
 11
112.4499999999977
 21
482.5310924031389
 31
0.0
  0
LINE
  5
141
330
38
100
AcDbEntity
  8
0
  6
Continuous
 62
     7
100
AcDbLine
 10
110.21284425725
 20
488.8609559272132
 30
0.0
 11
111.9935778713715
 21
489.0167499312084
 31
0.0
  0
LINE
  5
142
330
38
100
AcDbEntity
  8
0
  6
Continuous
 62
     7
100
AcDbLine
 10
110.21284425725
 20
490.7012288790646
 30
0.0
 11
111.9935778713715
 21
490.5454348750694
 31
0.0
  0
LINE
  5
143
330
38
100
AcDbEntity
  8
0
  6
Continuous
 62
     7
100
AcDbLine
 10
110.21284425725
 20
495.3609559272132
 30
0.0
 11
111.9935778713715
 21
495.5167499312084
 31
0.0
  0
LINE
  5
144
330
38
100
AcDbEntity
  8
0
  6
Continuous
 62
     7
100
AcDbLine
 10
109.2999999999977
 20
494.3647612291215
 30
0.0
 11
109.2999999999977
 21
491.6974235771563
 31
0.0
  0
LINE
  5
145
330
38
100
AcDbEntity
  8
0
  6
Continuous
 62
     7
100
AcDbLine
 10
109.2999999999977
 20
487.8647612291215
 30
0.0
 11
109.2999999999977
 21
485.1974235771563
 31
0.0
  0
LINE
  5
146
330
38
100
AcDbEntity
  8
0
  6
Continuous
 62
     7
100
AcDbLine
 10
112.4499999999977
 20
490.0473375260236
 30
0.0
 11
112.4499999999977
 21
489.5148472802542
 31
0.0
  0
LINE
  5
147
330
38
100
AcDbEntity
  8
0
  6
Continuous
 62
     3
100
AcDbLine
 10
-30.2128442572516
 20
529.7012288790646
 30
0.0
 11
110.21284425725
 21
529.7012288790646
 31
0.0
  0
LINE
  5
148
330
38
100
AcDbEntity
  8
0
  6
Continuous
 62
     3
100
AcDbLine
 10
-29.29999999999927
 20
530.6974235771563
 30
0.0
 11
109.2999999999977
 21
530.6974235771563
 31
0.0
  0
LINE
  5
149
330
38
100
AcDbEntity
  8
0
  6
Continuous
 62
     3
100
AcDbLine
 10
-29.29999999999927
 20
520.3647612291214
 30
0.0
 11
109.2999999999977
 21
520.3647612291215
 31
0.0
  0
LINE
  5
14A
330
38
100
AcDbEntity
  8
0
  6
Continuous
 62
     3
100
AcDbLine
 10
-31.99357787137311
 20
521.5167499312084
 30
0.0
 11
111.9935778713715
 21
521.5167499312084
 31
0.0
  0
LINE
  5
14B
330
38
100
AcDbEntity
  8
0
  6
Continuous
 62
     3
100
AcDbLine
 10
-31.99357787137311
 20
523.0454348750694
 30
0.0
 11
111.9935778713715
 21
523.0454348750694
 31
0.0
  0
LINE
  5
14C
330
38
100
AcDbEntity
  8
0
  6
Continuous
 62
     3
100
AcDbLine
 10
-32.44999999999928
 20
522.5473375260235
 30
0.0
 11
112.4499999999977
 21
522.5473375260235
 31
0.0
  0
LINE
  5
14D
330
38
100
AcDbEntity
  8
0
  6
Continuous
 62
     3
100
AcDbLine
 10
-32.44999999999928
 20
522.0148472802542
 30
0.0
 11
112.4499999999977
 21
522.0148472802542
 31
0.0
  0
LINE
  5
14E
330
38
100
AcDbEntity
  8
0
  6
Continuous
 62
     3
100
AcDbLine
 10
-30.2128442572516
 20
521.3609559272132
 30
0.0
 11
110.21284425725
 21
521.3609559272132
 31
0.0
  0
LINE
  5
14F
330
38
100
AcDbEntity
  8
0
  6
Continuous
 62
     7
100
AcDbLine
 10
110.21284425725
 20
516.7012288790646
 30
0.0
 11
111.9935778713715
 21
516.5454348750694
 31
0.0
  0
LINE
  5
150
330
38
100
AcDbEntity
  8
0
  6
Continuous
 62
     3
100
AcDbLine
 10
-30.2128442572516
 20
516.7012288790646
 30
0.0
 11
110.21284425725
 21
516.7012288790646
 31
0.0
  0
LINE
  5
151
330
38
100
AcDbEntity
  8
0
  6
Continuous
 62
     3
100
AcDbLine
 10
-29.29999999999927
 20
517.6974235771563
 30
0.0
 11
109.2999999999977
 21
517.6974235771563
 31
0.0
  0
LINE
  5
152
330
38
100
AcDbEntity
  8
0
  6
Continuous
 62
     7
100
AcDbLine
 10
109.2999999999977
 20
526.8647612291215
 30
0.0
 11
109.2999999999977
 21
524.1974235771563
 31
0.0
  0
LINE
  5
153
330
38
100
AcDbEntity
  8
0
  6
Continuous
 62
     3
100
AcDbLine
 10
-32.44999999999928
 20
529.0473375260235
 30
0.0
 11
112.4499999999977
 21
529.0473375260235
 31
0.0
  0
LINE
  5
154
330
38
100
AcDbEntity
  8
0
  6
Continuous
 62
     3
100
AcDbLine
 10
-31.99357787137311
 20
528.0167499312084
 30
0.0
 11
111.9935778713715
 21
528.0167499312084
 31
0.0
  0
LINE
  5
155
330
38
100
AcDbEntity
  8
0
  6
Continuous
 62
     3
100
AcDbLine
 10
-29.29999999999927
 20
524.1974235771563
 30
0.0
 11
109.2999999999977
 21
524.1974235771563
 31
0.0
  0
LINE
  5
156
330
38
100
AcDbEntity
  8
0
  6
Continuous
 62
     3
100
AcDbLine
 10
-30.2128442572516
 20
523.2012288790646
 30
0.0
 11
110.21284425725
 21
523.2012288790646
 31
0.0
  0
LINE
  5
157
330
38
100
AcDbEntity
  8
0
  6
Continuous
 62
     3
100
AcDbLine
 10
-29.29999999999927
 20
526.8647612291214
 30
0.0
 11
109.2999999999977
 21
526.8647612291215
 31
0.0
  0
LINE
  5
158
330
38
100
AcDbEntity
  8
0
  6
Continuous
 62
     3
100
AcDbLine
 10
-30.2128442572516
 20
527.8609559272132
 30
0.0
 11
110.21284425725
 21
527.8609559272132
 31
0.0
  0
LINE
  5
159
330
38
100
AcDbEntity
  8
0
  6
Continuous
 62
     3
100
AcDbLine
 10
-31.99357787137311
 20
516.5454348750694
 30
0.0
 11
111.9935778713715
 21
516.5454348750694
 31
0.0
  0
LINE
  5
15A
330
38
100
AcDbEntity
  8
0
  6
Continuous
 62
     3
100
AcDbLine
 10
-31.99357787137311
 20
529.5454348750694
 30
0.0
 11
111.9935778713715
 21
529.5454348750694
 31
0.0
  0
LINE
  5
15B
330
38
100
AcDbEntity
  8
0
  6
Continuous
 62
     3
100
AcDbLine
 10
-32.44999999999928
 20
516.0473375260235
 30
0.0
 11
112.4499999999977
 21
516.0473375260235
 31
0.0
  0
LINE
  5
15C
330
38
100
AcDbEntity
  8
0
  6
Continuous
 62
     3
100
AcDbLine
 10
-32.44999999999928
 20
515.5148472802542
 30
0.0
 11
112.4499999999977
 21
515.5148472802542
 31
0.0
  0
LINE
  5
15D
330
38
100
AcDbEntity
  8
0
  6
Continuous
 62
     7
100
AcDbLine
 10
112.4499999999977
 20
509.5473375260236
 30
0.0
 11
112.4499999999977
 21
509.0148472802542
 31
0.0
  0
LINE
  5
15E
330
38
100
AcDbEntity
  8
0
  6
Continuous
 62
     3
100
AcDbLine
 10
-32.44999999999928
 20
509.5473375260236
 30
0.0
 11
112.4499999999977
 21
509.5473375260236
 31
0.0
  0
LINE
  5
15F
330
38
100
AcDbEntity
  8
0
  6
Continuous
 62
     3
100
AcDbLine
 10
-32.44999999999928
 20
509.0148472802542
 30
0.0
 11
112.4499999999977
 21
509.0148472802542
 31
0.0
  0
LINE
  5
160
330
38
100
AcDbEntity
  8
0
  6
Continuous
 62
     3
100
AcDbLine
 10
-32.44999999999928
 20
502.5148472802542
 30
0.0
 11
112.4499999999977
 21
502.5148472802542
 31
0.0
  0
LINE
  5
161
330
38
100
AcDbEntity
  8
0
  6
Continuous
 62
     3
100
AcDbLine
 10
-32.44999999999928
 20
503.0473375260236
 30
0.0
 11
112.4499999999977
 21
503.0473375260236
 31
0.0
  0
LINE
  5
162
330
38
100
AcDbEntity
  8
0
  6
Continuous
 62
     3
100
AcDbLine
 10
-31.99357787137311
 20
502.0167499312084
 30
0.0
 11
111.9935778713715
 21
502.0167499312084
 31
0.0
  0
LINE
  5
163
330
38
100
AcDbEntity
  8
0
  6
Continuous
 62
     3
100
AcDbLine
 10
-31.99357787137311
 20
510.0454348750694
 30
0.0
 11
111.9935778713715
 21
510.0454348750694
 31
0.0
  0
LINE
  5
164
330
38
100
AcDbEntity
  8
0
  6
Continuous
 62
     3
100
AcDbLine
 10
-31.99357787137311
 20
508.5167499312084
 30
0.0
 11
111.9935778713715
 21
508.5167499312084
 31
0.0
  0
LINE
  5
165
330
38
100
AcDbEntity
  8
0
  6
Continuous
 62
     3
100
AcDbLine
 10
-31.99357787137311
 20
503.5454348750694
 30
0.0
 11
111.9935778713715
 21
503.5454348750694
 31
0.0
  0
LINE
  5
166
330
38
100
AcDbEntity
  8
0
  6
Continuous
 62
     3
100
AcDbLine
 10
-30.2128442572516
 20
503.7012288790646
 30
0.0
 11
110.21284425725
 21
503.7012288790646
 31
0.0
  0
LINE
  5
167
330
38
100
AcDbEntity
  8
0
  6
Continuous
 62
     3
100
AcDbLine
 10
-29.29999999999927
 20
513.8647612291214
 30
0.0
 11
109.2999999999977
 21
513.8647612291214
 31
0.0
  0
LINE
  5
168
330
38
100
AcDbEntity
  8
0
  6
Continuous
 62
     3
100
AcDbLine
 10
-30.2128442572516
 20
508.3609559272132
 30
0.0
 11
110.21284425725
 21
508.3609559272132
 31
0.0
  0
LINE
  5
169
330
38
100
AcDbEntity
  8
0
  6
Continuous
 62
     3
100
AcDbLine
 10
-30.21284425725159
 20
501.8609559272132
 30
0.0
 11
110.21284425725
 21
501.8609559272132
 31
0.0
  0
LINE
  5
16A
330
38
100
AcDbEntity
  8
0
  6
Continuous
 62
     3
100
AcDbLine
 10
-29.29999999999927
 20
507.3647612291214
 30
0.0
 11
109.2999999999977
 21
507.3647612291215
 31
0.0
  0
LINE
  5
16B
330
38
100
AcDbEntity
  8
0
  6
Continuous
 62
     7
100
AcDbLine
 10
109.2999999999977
 20
507.3647612291215
 30
0.0
 11
109.2999999999977
 21
504.6974235771563
 31
0.0
  0
LINE
  5
16C
330
38
100
AcDbEntity
  8
0
  6
Continuous
 62
     3
100
AcDbLine
 10
-29.29999999999927
 20
504.6974235771563
 30
0.0
 11
109.2999999999977
 21
504.6974235771563
 31
0.0
  0
LINE
  5
16D
330
38
100
AcDbEntity
  8
0
  6
Continuous
 62
     3
100
AcDbLine
 10
-30.2128442572516
 20
510.2012288790646
 30
0.0
 11
110.21284425725
 21
510.2012288790646
 31
0.0
  0
LINE
  5
16E
330
38
100
AcDbEntity
  8
0
  6
Continuous
 62
     3
100
AcDbLine
 10
-29.29999999999927
 20
511.1974235771563
 30
0.0
 11
109.2999999999977
 21
511.1974235771563
 31
0.0
  0
LINE
  5
16F
330
38
100
AcDbEntity
  8
0
  6
Continuous
 62
     3
100
AcDbLine
 10
-30.2128442572516
 20
514.8609559272132
 30
0.0
 11
110.21284425725
 21
514.8609559272132
 31
0.0
  0
LINE
  5
170
330
38
100
AcDbEntity
  8
0
  6
Continuous
 62
     3
100
AcDbLine
 10
-31.99357787137311
 20
515.0167499312084
 30
0.0
 11
111.9935778713715
 21
515.0167499312084
 31
0.0
  0
LINE
  5
171
330
38
100
AcDbEntity
  8
0
  6
Continuous
 62
     3
100
AcDbLine
 10
-32.44999999999928
 20
528.5148472802542
 30
0.0
 11
112.4499999999977
 21
528.5148472802542
 31
0.0
  0
LINE
  5
172
330
38
100
AcDbEntity
  8
0
  6
Continuous
 62
     7
100
AcDbLine
 10
-32.44999999999928
 20
483.5473375260235
 30
0.0
 11
-32.44999999999928
 21
482.5310924031389
 31
0.0
  0
LINE
  5
173
330
38
100
AcDbEntity
  8
0
  6
Continuous
 62
     7
100
AcDbLine
 10
-30.2128442572516
 20
484.2012288790646
 30
0.0
 11
-31.99357787137311
 21
484.0454348750694
 31
0.0
  0
LINE
  5
174
330
38
100
AcDbEntity
  8
0
  6
Continuous
 62
     7
100
AcDbLine
 10
-32.44999999999928
 20
496.5473375260236
 30
0.0
 11
-32.44999999999928
 21
496.0148472802543
 31
0.0
  0
LINE
  5
175
330
38
100
AcDbEntity
  8
0
  6
Continuous
 62
     7
100
AcDbLine
 10
-30.21284425725159
 20
495.3609559272132
 30
0.0
 11
-31.99357787137311
 21
495.5167499312084
 31
0.0
  0
LINE
  5
176
330
38
100
AcDbEntity
  8
0
  6
Continuous
 62
     7
100
AcDbLine
 10
-29.29999999999927
 20
533.3647612291214
 30
0.0
 11
-29.29999999999927
 21
530.6974235771563
 31
0.0
  0
LINE
  5
177
330
38
100
AcDbEntity
  8
0
  6
Continuous
 62
     7
100
AcDbLine
 10
-29.29999999999927
 20
520.3647612291214
 30
0.0
 11
-29.29999999999927
 21
517.6974235771563
 31
0.0
  0
LINE
  5
178
330
38
100
AcDbEntity
  8
0
  6
Continuous
 62
     7
100
AcDbLine
 10
-30.21284425725159
 20
501.8609559272132
 30
0.0
 11
-31.99357787137311
 21
502.0167499312084
 31
0.0
  0
LINE
  5
179
330
38
100
AcDbEntity
  8
0
  6
Continuous
 62
     7
100
AcDbLine
 10
-30.21284425725159
 20
497.2012288790646
 30
0.0
 11
-31.99357787137311
 21
497.0454348750694
 31
0.0
  0
LINE
  5
17A
330
38
100
AcDbEntity
  8
0
  6
Continuous
 62
     7
100
AcDbLine
 10
-30.2128442572516
 20
503.7012288790646
 30
0.0
 11
-31.99357787137311
 21
503.5454348750694
 31
0.0
  0
LINE
  5
17B
330
38
100
AcDbEntity
  8
0
  6
Continuous
 62
     7
100
AcDbLine
 10
-29.29999999999927
 20
546.3647612291214
 30
0.0
 11
-29.29999999999927
 21
543.6974235771563
 31
0.0
  0
LINE
  5
17C
330
38
100
AcDbEntity
  8
0
  6
Continuous
 62
     7
100
AcDbLine
 10
-29.29999999999927
 20
550.1974235771563
 30
0.0
 11
-29.29999999999927
 21
552.8647612291214
 31
0.0
  0
LINE
  5
17D
330
38
100
AcDbEntity
  8
0
  6
Continuous
 62
     7
100
AcDbLine
 10
-29.29999999999927
 20
513.8647612291214
 30
0.0
 11
-29.29999999999927
 21
511.1974235771563
 31
0.0
  0
LINE
  5
17E
330
38
100
AcDbEntity
  8
0
  6
Continuous
 62
     7
100
AcDbLine
 10
-29.29999999999927
 20
494.3647612291214
 30
0.0
 11
-29.29999999999927
 21
491.6974235771563
 31
0.0
  0
LINE
  5
17F
330
38
100
AcDbEntity
  8
0
  6
Continuous
 62
     7
100
AcDbLine
 10
-29.29999999999927
 20
507.3647612291214
 30
0.0
 11
-29.29999999999927
 21
504.6974235771563
 31
0.0
  0
LINE
  5
180
330
38
100
AcDbEntity
  8
0
  6
Continuous
 62
     7
100
AcDbLine
 10
-29.29999999999927
 20
487.8647612291214
 30
0.0
 11
-29.29999999999927
 21
485.1974235771563
 31
0.0
  0
LINE
  5
181
330
38
100
AcDbEntity
  8
0
  6
Continuous
 62
     7
100
AcDbLine
 10
-29.29999999999927
 20
526.8647612291214
 30
0.0
 11
-29.29999999999927
 21
524.1974235771563
 31
0.0
  0
LINE
  5
182
330
38
100
AcDbEntity
  8
0
  6
Continuous
 62
     7
100
AcDbLine
 10
-29.29999999999927
 20
539.8647612291214
 30
0.0
 11
-29.29999999999927
 21
537.1974235771563
 31
0.0
  0
LINE
  5
183
330
38
100
AcDbEntity
  8
0
  6
Continuous
 62
     7
100
AcDbLine
 10
-30.2128442572516
 20
514.8609559272132
 30
0.0
 11
-31.99357787137311
 21
515.0167499312084
 31
0.0
  0
LINE
  5
184
330
38
100
AcDbEntity
  8
0
  6
Continuous
 62
     7
100
AcDbLine
 10
-30.2128442572516
 20
510.2012288790646
 30
0.0
 11
-31.99357787137311
 21
510.0454348750694
 31
0.0
  0
LINE
  5
185
330
38
100
AcDbEntity
  8
0
  6
Continuous
 62
     7
100
AcDbLine
 10
-30.2128442572516
 20
508.3609559272132
 30
0.0
 11
-31.99357787137311
 21
508.5167499312084
 31
0.0
  0
LINE
  5
186
330
38
100
AcDbEntity
  8
0
  6
Continuous
 62
     7
100
AcDbLine
 10
-30.2128442572516
 20
488.8609559272132
 30
0.0
 11
-31.99357787137311
 21
489.0167499312084
 31
0.0
  0
LINE
  5
187
330
38
100
AcDbEntity
  8
0
  6
Continuous
 62
     7
100
AcDbLine
 10
-30.21284425725159
 20
560.1332218043269
 30
0.0
 11
-31.04357787137403
 21
560.2059015779715
 31
0.0
  0
LINE
  5
188
330
38
100
AcDbEntity
  8
0
  6
Continuous
 62
     7
100
AcDbLine
 10
-30.2128442572516
 20
536.2012288790646
 30
0.0
 11
-31.99357787137311
 21
536.0454348750694
 31
0.0
  0
LINE
  5
189
330
38
100
AcDbEntity
  8
0
  6
Continuous
 62
     7
100
AcDbLine
 10
-30.2128442572516
 20
534.3609559272132
 30
0.0
 11
-31.99357787137311
 21
534.5167499312084
 31
0.0
  0
LINE
  5
18A
330
38
100
AcDbEntity
  8
0
  6
Continuous
 62
     7
100
AcDbLine
 10
-30.2128442572516
 20
523.2012288790646
 30
0.0
 11
-31.99357787137311
 21
523.0454348750694
 31
0.0
  0
LINE
  5
18B
330
38
100
AcDbEntity
  8
0
  6
Continuous
 62
     7
100
AcDbLine
 10
-30.2128442572516
 20
549.2012288790646
 30
0.0
 11
-31.99357787137311
 21
549.0454348750694
 31
0.0
  0
LINE
  5
18C
330
38
100
AcDbEntity
  8
0
  6
Continuous
 62
     7
100
AcDbLine
 10
-30.2128442572516
 20
521.3609559272132
 30
0.0
 11
-31.99357787137311
 21
521.5167499312084
 31
0.0
  0
LINE
  5
18D
330
38
100
AcDbEntity
  8
0
  6
Continuous
 62
     7
100
AcDbLine
 10
-30.2128442572516
 20
529.7012288790646
 30
0.0
 11
-31.99357787137311
 21
529.5454348750694
 31
0.0
  0
LINE
  5
18E
330
38
100
AcDbEntity
  8
0
  6
Continuous
 62
     7
100
AcDbLine
 10
-30.2128442572516
 20
527.8609559272132
 30
0.0
 11
-31.99357787137311
 21
528.0167499312084
 31
0.0
  0
LINE
  5
18F
330
38
100
AcDbEntity
  8
0
  6
Continuous
 62
     7
100
AcDbLine
 10
-30.2128442572516
 20
547.3609559272132
 30
0.0
 11
-31.99357787137311
 21
547.5167499312084
 31
0.0
  0
LINE
  5
190
330
38
100
AcDbEntity
  8
0
  6
Continuous
 62
     7
100
AcDbLine
 10
-30.2128442572516
 20
542.7012288790646
 30
0.0
 11
-31.99357787137311
 21
542.5454348750694
 31
0.0
  0
LINE
  5
191
330
38
100
AcDbEntity
  8
0
  6
Continuous
 62
     7
100
AcDbLine
 10
-30.2128442572516
 20
555.48349475618
 30
0.0
 11
-31.99357787137311
 21
555.3277007521848
 31
0.0
  0
LINE
  5
192
330
38
100
AcDbEntity
  8
0
  6
Continuous
 62
     7
100
AcDbLine
 10
-30.2128442572516
 20
516.7012288790646
 30
0.0
 11
-31.99357787137311
 21
516.5454348750694
 31
0.0
  0
LINE
  5
193
330
38
100
AcDbEntity
  8
0
  6
Continuous
 62
     7
100
AcDbLine
 10
-30.2128442572516
 20
553.8609559272132
 30
0.0
 11
-31.99357787137311
 21
554.0167499312084
 31
0.0
  0
LINE
  5
194
330
38
100
AcDbEntity
  8
0
  6
Continuous
 62
     7
100
AcDbLine
 10
-30.2128442572516
 20
540.8609559272132
 30
0.0
 11
-31.99357787137311
 21
541.0167499312084
 31
0.0
  0
LINE
  5
195
330
38
100
AcDbEntity
  8
0
  6
Continuous
 62
     7
100
AcDbLine
 10
-32.44999999999928
 20
490.0473375260236
 30
0.0
 11
-32.44999999999928
 21
489.5148472802542
 31
0.0
  0
LINE
  5
196
330
38
100
AcDbEntity
  8
0
  6
Continuous
 62
     7
100
AcDbLine
 10
-30.21284425725159
 20
490.7012288790646
 30
0.0
 11
-31.99357787137311
 21
490.5454348750694
 31
0.0
  0
LINE
  5
197
330
38
100
AcDbEntity
  8
0
  6
Continuous
 62
     7
100
AcDbLine
 10
-32.44999999999928
 20
554.8296034031389
 30
0.0
 11
-32.44999999999928
 21
554.5148472802542
 31
0.0
  0
LINE
  5
198
330
38
100
AcDbEntity
  8
0
  6
Continuous
 62
     7
100
AcDbLine
 10
-32.44999999999928
 20
522.5473375260235
 30
0.0
 11
-32.44999999999928
 21
522.0148472802542
 31
0.0
  0
LINE
  5
199
330
38
100
AcDbEntity
  8
0
  6
Continuous
 62
     7
100
AcDbLine
 10
-32.44999999999928
 20
516.0473375260235
 30
0.0
 11
-32.44999999999928
 21
515.5148472802542
 31
0.0
  0
LINE
  5
19A
330
38
100
AcDbEntity
  8
0
  6
Continuous
 62
     7
100
AcDbLine
 10
-32.44999999999928
 20
542.0473375260235
 30
0.0
 11
-32.44999999999928
 21
541.5148472802542
 31
0.0
  0
LINE
  5
19B
330
38
100
AcDbEntity
  8
0
  6
Continuous
 62
     7
100
AcDbLine
 10
-32.44999999999928
 20
548.5473375260236
 30
0.0
 11
-32.44999999999928
 21
548.0148472802543
 31
0.0
  0
LINE
  5
19C
330
38
100
AcDbEntity
  8
0
  6
Continuous
 62
     7
100
AcDbLine
 10
-32.44999999999928
 20
529.0473375260235
 30
0.0
 11
-32.44999999999928
 21
528.5148472802542
 31
0.0
  0
LINE
  5
19D
330
38
100
AcDbEntity
  8
0
  6
Continuous
 62
     7
100
AcDbLine
 10
-32.44999999999928
 20
535.5473375260235
 30
0.0
 11
-32.44999999999928
 21
535.0148472802543
 31
0.0
  0
LINE
  5
19E
330
38
100
AcDbEntity
  8
0
  6
Continuous
 62
     7
100
AcDbLine
 10
-32.44999999999928
 20
503.0473375260236
 30
0.0
 11
-32.44999999999928
 21
502.5148472802542
 31
0.0
  0
LINE
  5
19F
330
38
100
AcDbEntity
  8
0
  6
Continuous
 62
     7
100
AcDbLine
 10
-32.44999999999928
 20
509.5473375260236
 30
0.0
 11
-32.44999999999928
 21
509.0148472802542
 31
0.0
  0
LINE
  5
1A0
330
38
100
AcDbEntity
  8
0
  6
Continuous
 62
     7
100
AcDbLine
 10
-31.5000000000008
 20
572.5310924031389
 30
0.0
 11
-31.5000000000008
 21
560.7039989270173
 31
0.0
  0
LINE
  5
1A1
330
38
100
AcDbEntity
  8
1
  6
DOT_CENTER
 62
     2
100
AcDbLine
 10
39.9999999999992
 20
585.875812642851
 30
0.0
 11
39.9999999999992
 21
478.6163957200652
 31
0.0
  0
ARC
  5
1A2
330
38
100
AcDbEntity
  8
0
  6
Continuous
 62
     7
100
AcDbCircle
 10
111.9499999999977
 20
528.5148472802542
 30
0.0
 40
0.4999999999999176
100
AcDbArc
 50
-85.00000000000266
 51
0.0
  0
ARC
  5
1A3
330
38
100
AcDbEntity
  8
0
  6
Continuous
 62
     7
100
AcDbCircle
 10
110.2999999999977
 20
524.1974235771563
 30
0.0
 40
1.0
100
AcDbArc
 50
180.0
 51
-95.00000000000246
  0
ARC
  5
1A4
330
38
100
AcDbEntity
  8
0
  6
Continuous
 62
     7
100
AcDbCircle
 10
110.2999999999977
 20
526.8647612291215
 30
0.0
 40
0.9999999999999572
100
AcDbArc
 50
95.00000000000246
 51
180.0
  0
ARC
  5
1A5
330
38
100
AcDbEntity
  8
0
  6
Continuous
 62
     7
100
AcDbCircle
 10
110.2999999999977
 20
517.6974235771563
 30
0.0
 40
1.0
100
AcDbArc
 50
180.0
 51
-95.00000000000246
  0
ARC
  5
1A6
330
38
100
AcDbEntity
  8
0
  6
Continuous
 62
     7
100
AcDbCircle
 10
111.9499999999977
 20
516.0473375260235
 30
0.0
 40
0.5
100
AcDbArc
 50
0.0
 51
85.00000000000378
  0
ARC
  5
1A7
330
38
100
AcDbEntity
  8
0
  6
Continuous
 62
     7
100
AcDbCircle
 10
111.9499999999977
 20
522.0148472802542
 30
0.0
 40
0.4999999999999176
100
AcDbArc
 50
-85.00000000000266
 51
0.0
  0
ARC
  5
1A8
330
38
100
AcDbEntity
  8
0
  6
Continuous
 62
     7
100
AcDbCircle
 10
110.2999999999977
 20
520.3647612291215
 30
0.0
 40
0.9999999999999572
100
AcDbArc
 50
95.00000000000246
 51
180.0
  0
ARC
  5
1A9
330
38
100
AcDbEntity
  8
0
  6
Continuous
 62
     7
100
AcDbCircle
 10
110.2999999999977
 20
504.6974235771564
 30
0.0
 40
1.0
100
AcDbArc
 50
-179.9999999999935
 51
-95.00000000000189
  0
ARC
  5
1AA
330
38
100
AcDbEntity
  8
0
  6
Continuous
 62
     7
100
AcDbCircle
 10
110.2999999999977
 20
513.8647612291215
 30
0.0
 40
0.9999999999999572
100
AcDbArc
 50
95.00000000000246
 51
-179.9999999999935
  0
ARC
  5
1AB
330
38
100
AcDbEntity
  8
0
  6
Continuous
 62
     7
100
AcDbCircle
 10
110.2999999999977
 20
500.8647612291214
 30
0.0
 40
1.000000000000014
100
AcDbArc
 50
95.00000000000219
 51
136.0105156281516
  0
ARC
  5
1AC
330
38
100
AcDbEntity
  8
0
  6
Continuous
 62
     7
100
AcDbCircle
 10
111.9499999999977
 20
515.5148472802542
 30
0.0
 40
0.4999999999999176
100
AcDbArc
 50
-85.00000000000266
 51
0.0
  0
ARC
  5
1AD
330
38
100
AcDbEntity
  8
0
  6
Continuous
 62
     7
100
AcDbCircle
 10
111.9499999999977
 20
509.0148472802542
 30
0.0
 40
0.4999999999999176
100
AcDbArc
 50
-85.00000000000266
 51
0.0
  0
ARC
  5
1AE
330
38
100
AcDbEntity
  8
0
  6
Continuous
 62
     7
100
AcDbCircle
 10
111.9499999999977
 20
503.0473375260235
 30
0.0
 40
0.5
100
AcDbArc
 50
0.00000000001303
 51
85.00000000000378
  0
ARC
  5
1AF
330
38
100
AcDbEntity
  8
0
  6
Continuous
 62
     7
100
AcDbCircle
 10
110.2999999999977
 20
507.3647612291214
 30
0.0
 40
1.000000000000014
100
AcDbArc
 50
95.00000000000219
 51
179.9999999999967
  0
ARC
  5
1B0
330
38
100
AcDbEntity
  8
0
  6
Continuous
 62
     7
100
AcDbCircle
 10
110.2999999999977
 20
530.6974235771563
 30
0.0
 40
1.0
100
AcDbArc
 50
180.0
 51
-95.00000000000246
  0
ARC
  5
1B1
330
38
100
AcDbEntity
  8
0
  6
Continuous
 62
     7
100
AcDbCircle
 10
110.2999999999977
 20
556.4796894542718
 30
0.0
 40
1.000000000001393
100
AcDbArc
 50
-179.9999999999935
 51
-95.00000000000189
  0
ARC
  5
1B2
330
38
100
AcDbEntity
  8
0
  6
Continuous
 62
     7
100
AcDbCircle
 10
110.2999999999977
 20
539.8647612291215
 30
0.0
 40
0.9999999999999572
100
AcDbArc
 50
95.00000000000246
 51
180.0
  0
ARC
  5
1B3
330
38
100
AcDbEntity
  8
0
  6
Continuous
 62
     7
100
AcDbCircle
 10
110.2999999999977
 20
543.6974235771563
 30
0.0
 40
1.0
100
AcDbArc
 50
180.0
 51
-95.00000000000246
  0
ARC
  5
1B4
330
38
100
AcDbEntity
  8
0
  6
Continuous
 62
     7
100
AcDbCircle
 10
110.2999999999977
 20
550.1974235771563
 30
0.0
 40
1.0
100
AcDbArc
 50
180.0
 51
-95.00000000000246
  0
ARC
  5
1B5
330
38
100
AcDbEntity
  8
0
  6
Continuous
 62
     7
100
AcDbCircle
 10
111.9499999999977
 20
535.5473375260235
 30
0.0
 40
0.5
100
AcDbArc
 50
0.0
 51
85.00000000000378
  0
ARC
  5
1B6
330
38
100
AcDbEntity
  8
0
  6
Continuous
 62
     7
100
AcDbCircle
 10
111.9499999999977
 20
541.5148472802542
 30
0.0
 40
0.4999999999999176
100
AcDbArc
 50
-85.00000000000266
 51
0.0
  0
ARC
  5
1B7
330
38
100
AcDbEntity
  8
0
  6
Continuous
 62
     7
100
AcDbCircle
 10
111.9499999999977
 20
548.5473375260235
 30
0.0
 40
0.5
100
AcDbArc
 50
0.0
 51
85.00000000000378
  0
ARC
  5
1B8
330
38
100
AcDbEntity
  8
0
  6
Continuous
 62
     7
100
AcDbCircle
 10
111.9499999999977
 20
548.0148472802542
 30
0.0
 40
0.4999999999999176
100
AcDbArc
 50
-85.00000000000266
 51
0.0
  0
ARC
  5
1B9
330
38
100
AcDbEntity
  8
0
  6
Continuous
 62
     7
100
AcDbCircle
 10
111.9499999999977
 20
535.0148472802542
 30
0.0
 40
0.4999999999999176
100
AcDbArc
 50
-85.00000000000266
 51
0.0
  0
ARC
  5
1BA
330
38
100
AcDbEntity
  8
0
  6
Continuous
 62
     7
100
AcDbCircle
 10
111.9499999999977
 20
554.8296034031389
 30
0.0
 40
0.5
100
AcDbArc
 50
0.0
 51
85.00000000000378
  0
ARC
  5
1BB
330
38
100
AcDbEntity
  8
0
  6
Continuous
 62
     7
100
AcDbCircle
 10
110.9999999999992
 20
572.5310924031389
 30
0.0
 40
0.5
100
AcDbArc
 50
0.0
 51
90.0
  0
ARC
  5
1BC
330
38
100
AcDbEntity
  8
0
  6
Continuous
 62
     7
100
AcDbCircle
 10
110.9999999999992
 20
560.7039989270173
 30
0.0
 40
0.4999999999998656
100
AcDbArc
 50
-85.0000000000708
 51
0.0
  0
ARC
  5
1BD
330
38
100
AcDbEntity
  8
0
  6
Continuous
 62
     7
100
AcDbCircle
 10
111.9499999999977
 20
554.5148472802542
 30
0.0
 40
0.4999999999999176
100
AcDbArc
 50
-85.00000000000266
 51
0.0
  0
ARC
  5
1BE
330
38
100
AcDbEntity
  8
0
  6
Continuous
 62
     7
100
AcDbCircle
 10
111.9499999999977
 20
529.0473375260235
 30
0.0
 40
0.5
100
AcDbArc
 50
0.0
 51
85.00000000000378
  0
ARC
  5
1BF
330
38
100
AcDbEntity
  8
0
  6
Continuous
 62
     7
100
AcDbCircle
 10
110.2999999999977
 20
533.3647612291215
 30
0.0
 40
0.9999999999999572
100
AcDbArc
 50
95.00000000000246
 51
180.0
  0
ARC
  5
1C0
330
38
100
AcDbEntity
  8
0
  6
Continuous
 62
     7
100
AcDbCircle
 10
-31.0000000000008
 20
572.5310924031389
 30
0.0
 40
0.5
100
AcDbArc
 50
90.0
 51
180.0
  0
ARC
  5
1C1
330
38
100
AcDbEntity
  8
0
  6
Continuous
 62
     7
100
AcDbCircle
 10
111.9499999999977
 20
542.0473375260235
 30
0.0
 40
0.5
100
AcDbArc
 50
0.0
 51
85.00000000000378
  0
ARC
  5
1C2
330
38
100
AcDbEntity
  8
0
  6
Continuous
 62
     7
100
AcDbCircle
 10
-31.0000000000008
 20
560.7039989270173
 30
0.0
 40
0.5
100
AcDbArc
 50
180.0
 51
-94.99999999993247
  0
ARC
  5
1C3
330
38
100
AcDbEntity
  8
0
  6
Continuous
 62
     7
100
AcDbCircle
 10
110.2999999999977
 20
552.8647612291215
 30
0.0
 40
0.9999999999999572
100
AcDbArc
 50
95.00000000000246
 51
180.0
  0
ARC
  5
1C4
330
38
100
AcDbEntity
  8
0
  6
Continuous
 62
     7
100
AcDbCircle
 10
110.2999999999977
 20
546.3647612291215
 30
0.0
 40
0.9999999999999572
100
AcDbArc
 50
95.00000000000246
 51
180.0
  0
ARC
  5
1C5
330
38
100
AcDbEntity
  8
0
  6
Continuous
 62
     7
100
AcDbCircle
 10
110.2999999999977
 20
537.1974235771563
 30
0.0
 40
1.0
100
AcDbArc
 50
180.0
 51
-95.00000000000246
  0
ARC
  5
1C6
330
38
100
AcDbEntity
  8
0
  6
Continuous
 62
     7
100
AcDbCircle
 10
-30.29999999999797
 20
559.1370271062359
 30
0.0
 40
1.000000000000089
100
AcDbArc
 50
0.0
 51
85.00000000006936
  0
ARC
  5
1C7
330
38
100
AcDbEntity
  8
0
  6
Continuous
 62
     7
100
AcDbCircle
 10
110.2999999999964
 20
559.1370271062359
 30
0.0
 40
0.9999999999991649
100
AcDbArc
 50
94.99999999993206
 51
180.0
  0
ARC
  5
1C8
330
38
100
AcDbEntity
  8
0
  6
Continuous
 62
     7
100
AcDbCircle
 10
110.2999999999977
 20
498.1974235771563
 30
0.0
 40
0.9999999999999458
100
AcDbArc
 50
-140.3470334266535
 51
-95.00000000000246
  0
ARC
  5
1C9
330
38
100
AcDbEntity
  8
0
  6
Continuous
 62
     7
100
AcDbCircle
 10
111.9499999999977
 20
483.5473375260235
 30
0.0
 40
0.5
100
AcDbArc
 50
0.0
 51
85.00000000000378
  0
ARC
  5
1CA
330
38
100
AcDbEntity
  8
0
  6
Continuous
 62
     7
100
AcDbCircle
 10
111.9499999999977
 20
482.5310924031389
 30
0.0
 40
0.5
100
AcDbArc
 50
-90.0
 51
0.0
  0
ARC
  5
1CB
330
38
100
AcDbEntity
  8
0
  6
Continuous
 62
     7
100
AcDbCircle
 10
111.9499999999977
 20
496.5473375260235
 30
0.0
 40
0.5
100
AcDbArc
 50
0.00000000001303
 51
85.00000000000378
  0
ARC
  5
1CC
330
38
100
AcDbEntity
  8
0
  6
Continuous
 62
     7
100
AcDbCircle
 10
111.9499999999977
 20
490.0473375260235
 30
0.0
 40
0.5
100
AcDbArc
 50
0.00000000001303
 51
85.00000000000378
  0
ARC
  5
1CD
330
38
100
AcDbEntity
  8
0
  6
Continuous
 62
     7
100
AcDbCircle
 10
111.9499999999977
 20
496.0148472802542
 30
0.0
 40
0.4999999999999176
100
AcDbArc
 50
-85.00000000000266
 51
0.0
  0
ARC
  5
1CE
330
38
100
AcDbEntity
  8
0
  6
Continuous
 62
     7
100
AcDbCircle
 10
110.2999999999977
 20
491.6974235771563
 30
0.0
 40
1.0
100
AcDbArc
 50
180.0
 51
-95.00000000000246
  0
ARC
  5
1CF
330
38
100
AcDbEntity
  8
0
  6
Continuous
 62
     7
100
AcDbCircle
 10
111.9499999999977
 20
489.5148472802542
 30
0.0
 40
0.4999999999999176
100
AcDbArc
 50
-85.00000000000266
 51
0.0
  0
ARC
  5
1D0
330
38
100
AcDbEntity
  8
0
  6
Continuous
 62
     7
100
AcDbCircle
 10
110.2999999999977
 20
487.8647612291214
 30
0.0
 40
1.000000000000014
100
AcDbArc
 50
95.00000000000219
 51
179.9999999999967
  0
ARC
  5
1D1
330
38
100
AcDbEntity
  8
0
  6
Continuous
 62
     7
100
AcDbCircle
 10
110.2999999999977
 20
485.1974235771563
 30
0.0
 40
1.0
100
AcDbArc
 50
180.0
 51
-95.00000000000246
  0
ARC
  5
1D2
330
38
100
AcDbEntity
  8
0
  6
Continuous
 62
     7
100
AcDbCircle
 10
110.2999999999977
 20
494.3647612291214
 30
0.0
 40
1.000000000000014
100
AcDbArc
 50
95.00000000000219
 51
179.9999999999967
  0
ARC
  5
1D3
330
38
100
AcDbEntity
  8
0
  6
Continuous
 62
     7
100
AcDbCircle
 10
111.9499999999977
 20
522.5473375260235
 30
0.0
 40
0.5
100
AcDbArc
 50
0.0
 51
85.00000000000378
  0
ARC
  5
1D4
330
38
100
AcDbEntity
  8
0
  6
Continuous
 62
     7
100
AcDbCircle
 10
111.9499999999977
 20
509.5473375260236
 30
0.0
 40
0.5
100
AcDbArc
 50
0.0
 51
85.00000000000266
  0
ARC
  5
1D5
330
38
100
AcDbEntity
  8
0
  6
Continuous
 62
     7
100
AcDbCircle
 10
111.9499999999977
 20
502.5148472802542
 30
0.0
 40
0.4999999999999176
100
AcDbArc
 50
-85.00000000000266
 51
0.0
  0
ARC
  5
1D6
330
38
100
AcDbEntity
  8
0
  6
Continuous
 62
     7
100
AcDbCircle
 10
110.2999999999977
 20
511.1974235771564
 30
0.0
 40
1.0
100
AcDbArc
 50
-179.9999999999935
 51
-95.00000000000189
  0
ARC
  5
1D7
330
38
100
AcDbEntity
  8
0
  6
Continuous
 62
     7
100
AcDbCircle
 10
-31.94999999999928
 20
483.5473375260236
 30
0.0
 40
0.4999999999999201
100
AcDbArc
 50
95.0000000000006
 51
-179.999999999987
  0
ARC
  5
1D8
330
38
100
AcDbEntity
  8
0
  6
Continuous
 62
     7
100
AcDbCircle
 10
-31.94999999999928
 20
482.5310924031389
 30
0.0
 40
0.4999999999999965
100
AcDbArc
 50
180.0
 51
-90.0
  0
ARC
  5
1D9
330
38
100
AcDbEntity
  8
0
  6
Continuous
 62
     7
100
AcDbCircle
 10
-30.29999999999927
 20
485.1974235771563
 30
0.0
 40
0.9999999999999547
100
AcDbArc
 50
-84.99999999999916
 51
0.0
  0
ARC
  5
1DA
330
38
100
AcDbEntity
  8
0
  6
Continuous
 62
     7
100
AcDbCircle
 10
-31.94999999999928
 20
496.5473375260236
 30
0.0
 40
0.4999999999999201
100
AcDbArc
 50
95.0000000000006
 51
180.0
  0
ARC
  5
1DB
330
38
100
AcDbEntity
  8
0
  6
Continuous
 62
     7
100
AcDbCircle
 10
-31.94999999999928
 20
496.0148472802543
 30
0.0
 40
0.4999999999999965
100
AcDbArc
 50
180.0
 51
-94.99999999999946
  0
ARC
  5
1DC
330
38
100
AcDbEntity
  8
0
  6
Continuous
 62
     7
100
AcDbCircle
 10
-30.29999999999927
 20
556.4796894542718
 30
0.0
 40
1.000000000000068
100
AcDbArc
 50
-84.99999999999974
 51
-0.00000000000651
  0
ARC
  5
1DD
330
38
100
AcDbEntity
  8
0
  6
Continuous
 62
     7
100
AcDbCircle
 10
-30.29999999999927
 20
552.8647612291215
 30
0.0
 40
1.0
100
AcDbArc
 50
-0.00000000000651
 51
84.99999999999916
  0
ARC
  5
1DE
330
38
100
AcDbEntity
  8
0
  6
Continuous
 62
     7
100
AcDbCircle
 10
-30.29999999999927
 20
550.1974235771563
 30
0.0
 40
0.9999999999999547
100
AcDbArc
 50
-84.99999999999916
 51
0.0
  0
ARC
  5
1DF
330
38
100
AcDbEntity
  8
0
  6
Continuous
 62
     7
100
AcDbCircle
 10
-30.29999999999927
 20
546.3647612291215
 30
0.0
 40
1.0
100
AcDbArc
 50
-0.00000000000651
 51
84.99999999999916
  0
ARC
  5
1E0
330
38
100
AcDbEntity
  8
0
  6
Continuous
 62
     7
100
AcDbCircle
 10
-30.29999999999927
 20
520.3647612291215
 30
0.0
 40
1.0
100
AcDbArc
 50
-0.00000000000651
 51
84.99999999999916
  0
ARC
  5
1E1
330
38
100
AcDbEntity
  8
0
  6
Continuous
 62
     7
100
AcDbCircle
 10
-30.29999999999927
 20
524.1974235771563
 30
0.0
 40
0.9999999999999547
100
AcDbArc
 50
-84.99999999999916
 51
0.0
  0
ARC
  5
1E2
330
38
100
AcDbEntity
  8
0
  6
Continuous
 62
     7
100
AcDbCircle
 10
-30.29999999999927
 20
526.8647612291215
 30
0.0
 40
1.0
100
AcDbArc
 50
-0.00000000000651
 51
84.99999999999916
  0
ARC
  5
1E3
330
38
100
AcDbEntity
  8
0
  6
Continuous
 62
     7
100
AcDbCircle
 10
-30.29999999999927
 20
513.8647612291215
 30
0.0
 40
1.0
100
AcDbArc
 50
-0.00000000000651
 51
84.99999999999916
  0
ARC
  5
1E4
330
38
100
AcDbEntity
  8
0
  6
Continuous
 62
     7
100
AcDbCircle
 10
-30.29999999999927
 20
504.6974235771564
 30
0.0
 40
1.000000000000068
100
AcDbArc
 50
-84.99999999999974
 51
-0.00000000000651
  0
ARC
  5
1E5
330
38
100
AcDbEntity
  8
0
  6
Continuous
 62
     7
100
AcDbCircle
 10
-30.29999999999927
 20
507.3647612291215
 30
0.0
 40
1.0
100
AcDbArc
 50
-0.00000000000326
 51
84.99999999999916
  0
ARC
  5
1E6
330
38
100
AcDbEntity
  8
0
  6
Continuous
 62
     7
100
AcDbCircle
 10
-30.29999999999927
 20
500.8647612291215
 30
0.0
 40
1.000000000000024
100
AcDbArc
 50
43.98948437184635
 51
84.99999999999855
  0
ARC
  5
1E7
330
38
100
AcDbEntity
  8
0
  6
Continuous
 62
     7
100
AcDbCircle
 10
-30.29999999999927
 20
511.1974235771564
 30
0.0
 40
1.000000000000068
100
AcDbArc
 50
-84.99999999999974
 51
-0.00000000000651
  0
ARC
  5
1E8
330
38
100
AcDbEntity
  8
0
  6
Continuous
 62
     7
100
AcDbCircle
 10
-30.29999999999927
 20
517.6974235771563
 30
0.0
 40
0.9999999999999547
100
AcDbArc
 50
-84.99999999999916
 51
0.0
  0
ARC
  5
1E9
330
38
100
AcDbEntity
  8
0
  6
Continuous
 62
     7
100
AcDbCircle
 10
-30.29999999999927
 20
539.8647612291215
 30
0.0
 40
1.0
100
AcDbArc
 50
-0.00000000000651
 51
84.99999999999916
  0
ARC
  5
1EA
330
38
100
AcDbEntity
  8
0
  6
Continuous
 62
     7
100
AcDbCircle
 10
-30.29999999999927
 20
543.6974235771563
 30
0.0
 40
0.9999999999999547
100
AcDbArc
 50
-84.99999999999916
 51
0.0
  0
ARC
  5
1EB
330
38
100
AcDbEntity
  8
0
  6
Continuous
 62
     7
100
AcDbCircle
 10
-30.29999999999927
 20
530.6974235771563
 30
0.0
 40
0.9999999999999547
100
AcDbArc
 50
-84.99999999999916
 51
0.0
  0
ARC
  5
1EC
330
38
100
AcDbEntity
  8
0
  6
Continuous
 62
     7
100
AcDbCircle
 10
-30.29999999999927
 20
498.1974235771564
 30
0.0
 40
1.000000000000069
100
AcDbArc
 50
-84.99999999999913
 51
-39.65296657335076
  0
ARC
  5
1ED
330
38
100
AcDbEntity
  8
0
  6
Continuous
 62
     7
100
AcDbCircle
 10
-30.29999999999927
 20
494.3647612291215
 30
0.0
 40
1.0
100
AcDbArc
 50
-0.00000000000326
 51
84.99999999999855
  0
ARC
  5
1EE
330
38
100
AcDbEntity
  8
0
  6
Continuous
 62
     7
100
AcDbCircle
 10
-30.29999999999927
 20
491.6974235771564
 30
0.0
 40
1.000000000000069
100
AcDbArc
 50
-84.99999999999913
 51
-0.00000000000651
  0
ARC
  5
1EF
330
38
100
AcDbEntity
  8
0
  6
Continuous
 62
     7
100
AcDbCircle
 10
-30.29999999999927
 20
487.8647612291214
 30
0.0
 40
1.0
100
AcDbArc
 50
0.0
 51
84.99999999999945
  0
ARC
  5
1F0
330
38
100
AcDbEntity
  8
0
  6
Continuous
 62
     7
100
AcDbCircle
 10
-31.94999999999928
 20
489.5148472802543
 30
0.0
 40
0.4999999999999965
100
AcDbArc
 50
-179.999999999987
 51
-94.99999999999946
  0
ARC
  5
1F1
330
38
100
AcDbEntity
  8
0
  6
Continuous
 62
     7
100
AcDbCircle
 10
-31.94999999999928
 20
490.0473375260236
 30
0.0
 40
0.4999999999999201
100
AcDbArc
 50
95.0000000000006
 51
180.0
  0
ARC
  5
1F2
330
38
100
AcDbEntity
  8
0
  6
Continuous
 62
     7
100
AcDbCircle
 10
-31.94999999999928
 20
554.8296034031389
 30
0.0
 40
0.5000000000000333
100
AcDbArc
 50
94.99999999999946
 51
180.0
  0
ARC
  5
1F3
330
38
100
AcDbEntity
  8
0
  6
Continuous
 62
     7
100
AcDbCircle
 10
-31.94999999999928
 20
522.0148472802543
 30
0.0
 40
0.4999999999999965
100
AcDbArc
 50
-179.999999999987
 51
-94.99999999999946
  0
ARC
  5
1F4
330
38
100
AcDbEntity
  8
0
  6
Continuous
 62
     7
100
AcDbCircle
 10
-31.94999999999928
 20
516.0473375260235
 30
0.0
 40
0.5000000000000333
100
AcDbArc
 50
94.99999999999946
 51
180.0
  0
ARC
  5
1F5
330
38
100
AcDbEntity
  8
0
  6
Continuous
 62
     7
100
AcDbCircle
 10
-31.94999999999928
 20
542.0473375260235
 30
0.0
 40
0.5000000000000333
100
AcDbArc
 50
94.99999999999946
 51
180.0
  0
ARC
  5
1F6
330
38
100
AcDbEntity
  8
0
  6
Continuous
 62
     7
100
AcDbCircle
 10
-31.94999999999928
 20
548.0148472802543
 30
0.0
 40
0.4999999999999965
100
AcDbArc
 50
180.0
 51
-94.99999999999946
  0
ARC
  5
1F7
330
38
100
AcDbEntity
  8
0
  6
Continuous
 62
     7
100
AcDbCircle
 10
-31.94999999999928
 20
541.5148472802543
 30
0.0
 40
0.4999999999999965
100
AcDbArc
 50
-179.999999999987
 51
-94.99999999999946
  0
ARC
  5
1F8
330
38
100
AcDbEntity
  8
0
  6
Continuous
 62
     7
100
AcDbCircle
 10
-31.94999999999928
 20
535.5473375260235
 30
0.0
 40
0.5000000000000333
100
AcDbArc
 50
94.99999999999946
 51
180.0
  0
ARC
  5
1F9
330
38
100
AcDbEntity
  8
0
  6
Continuous
 62
     7
100
AcDbCircle
 10
-31.94999999999928
 20
528.5148472802543
 30
0.0
 40
0.4999999999999965
100
AcDbArc
 50
-179.999999999987
 51
-94.99999999999946
  0
ARC
  5
1FA
330
38
100
AcDbEntity
  8
0
  6
Continuous
 62
     7
100
AcDbCircle
 10
-31.94999999999928
 20
522.5473375260235
 30
0.0
 40
0.5000000000000333
100
AcDbArc
 50
94.99999999999946
 51
180.0
  0
ARC
  5
1FB
330
38
100
AcDbEntity
  8
0
  6
Continuous
 62
     7
100
AcDbCircle
 10
-31.94999999999928
 20
535.0148472802543
 30
0.0
 40
0.4999999999999965
100
AcDbArc
 50
180.0
 51
-94.99999999999946
  0
ARC
  5
1FC
330
38
100
AcDbEntity
  8
0
  6
Continuous
 62
     7
100
AcDbCircle
 10
-31.94999999999928
 20
554.5148472802542
 30
0.0
 40
0.4999999999999965
100
AcDbArc
 50
180.0
 51
-95.0000000000006
  0
ARC
  5
1FD
330
38
100
AcDbEntity
  8
0
  6
Continuous
 62
     7
100
AcDbCircle
 10
-31.94999999999928
 20
548.5473375260236
 30
0.0
 40
0.4999999999999201
100
AcDbArc
 50
95.0000000000006
 51
180.0
  0
ARC
  5
1FE
330
38
100
AcDbEntity
  8
0
  6
Continuous
 62
     7
100
AcDbCircle
 10
-31.94999999999928
 20
503.0473375260236
 30
0.0
 40
0.4999999999999201
100
AcDbArc
 50
95.0000000000006
 51
180.0
  0
ARC
  5
1FF
330
38
100
AcDbEntity
  8
0
  6
Continuous
 62
     7
100
AcDbCircle
 10
-31.94999999999928
 20
502.5148472802543
 30
0.0
 40
0.4999999999999965
100
AcDbArc
 50
-179.999999999987
 51
-94.99999999999946
  0
ARC
  5
200
330
38
100
AcDbEntity
  8
0
  6
Continuous
 62
     7
100
AcDbCircle
 10
-31.94999999999928
 20
509.0148472802543
 30
0.0
 40
0.4999999999999965
100
AcDbArc
 50
-179.999999999987
 51
-94.99999999999946
  0
ARC
  5
201
330
38
100
AcDbEntity
  8
0
  6
Continuous
 62
     7
100
AcDbCircle
 10
-31.94999999999928
 20
509.5473375260236
 30
0.0
 40
0.4999999999999201
100
AcDbArc
 50
95.0000000000006
 51
180.0
  0
ARC
  5
202
330
38
100
AcDbEntity
  8
0
  6
Continuous
 62
     7
100
AcDbCircle
 10
-31.94999999999928
 20
515.5148472802543
 30
0.0
 40
0.4999999999999965
100
AcDbArc
 50
-179.999999999987
 51
-94.99999999999946
  0
ARC
  5
203
330
38
100
AcDbEntity
  8
0
  6
Continuous
 62
     7
100
AcDbCircle
 10
-31.94999999999928
 20
529.0473375260235
 30
0.0
 40
0.5000000000000333
100
AcDbArc
 50
94.99999999999946
 51
180.0
  0
ARC
  5
204
330
38
100
AcDbEntity
  8
0
  6
Continuous
 62
     7
100
AcDbCircle
 10
-30.29999999999927
 20
533.3647612291215
 30
0.0
 40
1.0
100
AcDbArc
 50
-0.00000000000651
 51
84.99999999999916
  0
ARC
  5
205
330
38
100
AcDbEntity
  8
0
  6
Continuous
 62
     7
100
AcDbCircle
 10
-30.29999999999927
 20
537.1974235771563
 30
0.0
 40
0.9999999999999547
100
AcDbArc
 50
-84.99999999999916
 51
0.0
  0
ENDBLK
  5
3A
330
38
100
AcDbEntity
  8
0
100
AcDbBlockEnd
  0
BLOCK
  5
3C
330
3B
100
AcDbEntity
  8
0
100
AcDbBlockBegin
  2
O-Ring__125x4
 70
     0
 71
     0
 10
371.9737029880853
 20
495.400048757725
 30
0.0
  3
O-Ring__125x4
  1

  0
LINE
  5
206
330
3B
100
AcDbEntity
  8
0
  6
Continuous
 62
     3
100
AcDbLine
 10
-33.5000000000008
 20
499.5592875657691
 30
0.0
 11
113.2999999999992
 21
499.5592875657691
 31
0.0
  0
LINE
  5
207
330
3B
100
AcDbEntity
  8
0
  6
Continuous
 62
     7
100
AcDbLine
 10
-31.5000000000008
 20
497.5592875657691
 30
0.0
 11
111.2999999999992
 21
497.5592875657691
 31
0.0
  0
LINE
  5
208
330
3B
100
AcDbEntity
  8
0
  6
Continuous
 62
     7
100
AcDbLine
 10
-31.5000000000008
 20
501.5592875657691
 30
0.0
 11
111.2999999999992
 21
501.5592875657691
 31
0.0
  0
ARC
  5
209
330
3B
100
AcDbEntity
  8
0
  6
Continuous
 62
     7
100
AcDbCircle
 10
111.2999999999992
 20
499.5592875657691
 30
0.0
 40
2.0
100
AcDbArc
 50
0.0
 51
90.0
  0
ARC
  5
20A
330
3B
100
AcDbEntity
  8
0
  6
Continuous
 62
     7
100
AcDbCircle
 10
111.2999999999992
 20
499.5592875657691
 30
0.0
 40
2.0
100
AcDbArc
 50
-90.0
 51
0.0
  0
ARC
  5
20B
330
3B
100
AcDbEntity
  8
0
  6
Continuous
 62
     7
100
AcDbCircle
 10
-31.5000000000008
 20
499.5592875657691
 30
0.0
 40
2.000000000000004
100
AcDbArc
 50
180.0
 51
-90.0
  0
ARC
  5
20C
330
3B
100
AcDbEntity
  8
0
  6
Continuous
 62
     7
100
AcDbCircle
 10
-31.5000000000008
 20
499.5592875657691
 30
0.0
 40
2.0
100
AcDbArc
 50
90.0
 51
180.0
  0
ENDBLK
  5
3D
330
3B
100
AcDbEntity
  8
0
100
AcDbBlockEnd
  0
BLOCK
  5
215
330
20D
100
AcDbEntity
  8
0
100
AcDbBlockBegin
  2
*D05
 70
     1
 71
     0
 10
0.0
 20
0.0
 30
0.0
  3
*D05
  1

  0
LINE
  5
20E
330
20D
100
AcDbEntity
  8
1
  6
Continuous
 62
     4
100
AcDbLine
 10
112.3999999999992
 20
592.287096989865
 30
0.0
 11
-32.6000000000008
 21
592.287096989865
 31
0.0
  0
LINE
  5
20F
330
20D
100
AcDbEntity
  8
1
  6
Continuous
 62
     4
100
AcDbLine
 10
-32.6000000000008
 20
581.0310924031375
 30
0.0
 11
-32.6000000000008
 21
594.287096989865
 31
0.0
  0
LINE
  5
210
330
20D
100
AcDbEntity
  8
1
  6
Continuous
 62
     4
100
AcDbLine
 10
112.3999999999992
 20
581.0310924031375
 30
0.0
 11
112.3999999999992
 21
594.287096989865
 31
0.0
  0
SOLID
  5
211
330
20D
100
AcDbEntity
  8
1
 62
     4
100
AcDbTrace
 10
105.3999999999992
 20
591.3655295067532
 30
0.0
 11
105.3999999999992
 21
593.2086644729767
 31
0.0
 12
112.3999999999992
 22
592.287096989865
 32
0.0
 13
112.3999999999992
 23
592.287096989865
 33
0.0
  0
SOLID
  5
212
330
20D
100
AcDbEntity
  8
1
 62
     4
100
AcDbTrace
 10
-25.6000000000008
 20
593.2086644729767
 30
0.0
 11
-25.6000000000008
 21
591.3655295067532
 31
0.0
 12
-32.6000000000008
 22
592.287096989865
 32
0.0
 13
-32.6000000000008
 23
592.287096989865
 33
0.0
  0
MTEXT
  5
214
330
20D
100
AcDbEntity
  8
1
 62
     1
100
AcDbMText
 10
21.08701818466856
 20
594.2870413332544
 30
0.0
 40
7.0
 41
0.0
 71
     7
 72
     1
  1
\C1;145x\C1;145
  7
CONVERTER_1
 11
0.9999999999970621
 21
2.424068405545307E-6
 31
0.0
 73
     1
 44
0.60024009603842
  0
ENDBLK
  5
216
330
20D
100
AcDbEntity
  8
0
100
AcDbBlockEnd
  0
BLOCK
  5
220
330
219
100
AcDbEntity
  8
0
100
AcDbBlockBegin
  2
*D16
 70
     1
 71
     0
 10
0.0
 20
0.0
 30
0.0
  3
*D16
  1

  0
LINE
  5
21A
330
219
100
AcDbEntity
  8
1
  6
Continuous
 62
     4
100
AcDbLine
 10
-32.44999999999928
 20
464.697938314653
 30
0.0
 11
112.4499999999977
 21
464.697938314653
 31
0.0
  0
LINE
  5
21B
330
219
100
AcDbEntity
  8
1
  6
Continuous
 62
     4
100
AcDbLine
 10
112.4499999999977
 20
489.5148472802542
 30
0.0
 11
112.4499999999977
 21
462.697938314653
 31
0.0
  0
LINE
  5
21C
330
219
100
AcDbEntity
  8
1
  6
Continuous
 62
     4
100
AcDbLine
 10
-32.44999999999928
 20
489.5148472802542
 30
0.0
 11
-32.44999999999928
 21
462.697938314653
 31
0.0
  0
SOLID
  5
21D
330
219
100
AcDbEntity
  8
1
 62
     4
100
AcDbTrace
 10
-25.44999999999928
 20
465.6195057977648
 30
0.0
 11
-25.44999999999928
 21
463.7763708315413
 31
0.0
 12
-32.44999999999928
 22
464.697938314653
 32
0.0
 13
-32.44999999999928
 23
464.697938314653
 33
0.0
  0
SOLID
  5
21E
330
219
100
AcDbEntity
  8
1
 62
     4
100
AcDbTrace
 10
105.4499999999977
 20
463.7763708315413
 30
0.0
 11
105.4499999999977
 21
465.6195057977648
 31
0.0
 12
112.4499999999977
 22
464.697938314653
 32
0.0
 13
112.4499999999977
 23
464.697938314653
 33
0.0
  0
MTEXT
  5
21F
330
219
100
AcDbEntity
  8
1
 62
     1
100
AcDbMText
 10
31.53649090771636
 20
466.6979244005004
 30
0.0
 40
7.0
 41
0.0
 71
     7
 72
     1
  1
\C1;Ø\C1;146
  7
CONVERTER_1
 11
0.9999999999970621
 21
2.424068405545307E-6
 31
0.0
 73
     1
 44
0.60024009603842
  0
ENDBLK
  5
221
330
219
100
AcDbEntity
  8
0
100
AcDbBlockEnd
  0
BLOCK
  5
22B
330
224
100
AcDbEntity
  8
0
100
AcDbBlockBegin
  2
*D27
 70
     1
 71
     0
 10
0.0
 20
0.0
 30
0.0
  3
*D27
  1

  0
LINE
  5
225
330
224
100
AcDbEntity
  8
1
  6
Continuous
 62
     4
100
AcDbLine
 10
-41.6000000000008
 20
582.0310924031375
 30
0.0
 11
-41.6000000000008
 21
560.1332218043269
 31
0.0
  0
LINE
  5
226
330
224
100
AcDbEntity
  8
1
  6
Continuous
 62
     4
100
AcDbLine
 10
-30.21284425725158
 20
560.1332218043269
 30
0.0
 11
-43.6000000000008
 21
560.1332218043269
 31
0.0
  0
LINE
  5
227
330
224
100
AcDbEntity
  8
1
  6
Continuous
 62
     4
100
AcDbLine
 10
-31.6000000000008
 20
582.0310924031375
 30
0.0
 11
-43.6000000000008
 21
582.0310924031375
 31
0.0
  0
SOLID
  5
228
330
224
100
AcDbEntity
  8
1
 62
     4
100
AcDbTrace
 10
-40.67843251688903
 20
575.0310924031375
 30
0.0
 11
-42.52156748311257
 21
575.0310924031375
 31
0.0
 12
-41.6000000000008
 22
582.0310924031375
 32
0.0
 13
-41.6000000000008
 23
582.0310924031375
 33
0.0
  0
SOLID
  5
229
330
224
100
AcDbEntity
  8
1
 62
     4
100
AcDbTrace
 10
-42.52156748311257
 20
567.1332218043269
 30
0.0
 11
-40.67843251688903
 21
567.1332218043269
 31
0.0
 12
-41.6000000000008
 22
560.1332218043269
 32
0.0
 13
-41.6000000000008
 23
560.1332218043269
 33
0.0
  0
MTEXT
  5
22A
330
224
100
AcDbEntity
  8
1
 62
     1
100
AcDbMText
 10
-43.6000000000008
 20
565.46419934521
 30
0.0
 40
7.0
 41
0.0
 71
     7
 72
     1
  1
22
  7
CONVERTER_1
 11
0.0
 21
1.0
 31
0.0
 73
     1
 44
0.60024009603842
  0
ENDBLK
  5
22C
330
224
100
AcDbEntity
  8
0
100
AcDbBlockEnd
  0
BLOCK
  5
236
330
22F
100
AcDbEntity
  8
0
100
AcDbBlockBegin
  2
*D38
 70
     1
 71
     0
 10
0.0
 20
0.0
 30
0.0
  3
*D38
  1

  0
LINE
  5
230
330
22F
100
AcDbEntity
  8
1
  6
Continuous
 62
     4
100
AcDbLine
 10
-55.5250337613081
 20
582.0310924031375
 30
0.0
 11
-55.5250337613081
 21
482.0310924031389
 31
0.0
  0
LINE
  5
231
330
22F
100
AcDbEntity
  8
1
  6
Continuous
 62
     4
100
AcDbLine
 10
-31.94999999999928
 20
482.0310924031389
 30
0.0
 11
-57.5250337613081
 21
482.0310924031389
 31
0.0
  0
LINE
  5
232
330
22F
100
AcDbEntity
  8
1
  6
Continuous
 62
     4
100
AcDbLine
 10
-31.6000000000008
 20
582.0310924031375
 30
0.0
 11
-57.5250337613081
 21
582.0310924031375
 31
0.0
  0
SOLID
  5
233
330
22F
100
AcDbEntity
  8
1
 62
     4
100
AcDbTrace
 10
-54.60346627819634
 20
575.0310924031375
 30
0.0
 11
-56.44660124441987
 21
575.0310924031375
 31
0.0
 12
-55.5250337613081
 22
582.0310924031375
 32
0.0
 13
-55.5250337613081
 23
582.0310924031375
 33
0.0
  0
SOLID
  5
234
330
22F
100
AcDbEntity
  8
1
 62
     4
100
AcDbTrace
 10
-56.44660124441987
 20
489.0310924031389
 30
0.0
 11
-54.60346627819633
 21
489.0310924031389
 31
0.0
 12
-55.5250337613081
 22
482.0310924031389
 32
0.0
 13
-55.5250337613081
 23
482.0310924031389
 33
0.0
  0
MTEXT
  5
235
330
22F
100
AcDbEntity
  8
1
 62
     1
100
AcDbMText
 10
-57.5250337613081
 20
529.511483546566
 30
0.0
 40
7.0
 41
0.0
 71
     7
 72
     1
  1
100
  7
CONVERTER_1
 11
0.0
 21
1.0
 31
0.0
 73
     1
 44
0.60024009603842
  0
ENDBLK
  5
237
330
22F
100
AcDbEntity
  8
0
100
AcDbBlockEnd
  0
ENDSEC
  0
SECTION
  2
ENTITIES
  0
INSERT
  5
3E
330
1F
100
AcDbEntity
  8
0
100
AcDbBlockReference
  2
Baust_tzrahmen_140_140_1
 10
-33.60000000000018
 20
630.4689075968611
 30
0.0
  0
INSERT
  5
3F
330
1F
100
AcDbEntity
  8
0
100
AcDbBlockReference
  2
Niro_Rahmen60L
 10
-32.60000000000082
 20
563.0310924031412
 30
0.0
  0
INSERT
  5
40
330
1F
100
AcDbEntity
  8
0
100
AcDbBlockReference
  2
AufsatzrahmenD145
 10
-32.44999999999931
 20
482.0310924031389
 30
0.0
  0
INSERT
  5
41
330
1F
100
AcDbEntity
  8
1
100
AcDbBlockReference
  2
O-Ring__125x4
 10
371.9737029880853
 20
495.400048757725
 30
0.0
  0
DIMENSION
  5
218
330
1F
100
AcDbEntity
  8
1
100
AcDbDimension
  2
*D05
 10
112.3999999999992
 20
592.287096989865
 30
0.0
 11
39.1470181846011
 21
597.787096989865
 31
0.0
 70
    32
  1
<>
 71
     5
 42
-1.0
 53
0.00013888888889
  3
ME10_DIM_0
100
AcDbAlignedDimension
 13
-32.6000000000008
 23
581.0310924031375
 33
0.0
 14
112.3999999999992
 24
581.0310924031375
 34
0.0
100
AcDbRotatedDimension
  0
DIMENSION
  5
223
330
1F
100
AcDbEntity
  8
1
100
AcDbDimension
  2
*D16
 10
-32.44999999999928
 20
464.697938314653
 30
0.0
 11
40.4264909076995
 21
470.197938314653
 31
0.0
 70
    32
  1
Ø146
 71
     5
 42
-1.0
 53
0.00013888888889
  3
ME10_DIM_1
100
AcDbAlignedDimension
 13
112.4499999999977
 23
489.5148472802542
 33
0.0
 14
-32.44999999999928
 24
489.5148472802542
 34
0.0
100
AcDbRotatedDimension
  0
DIMENSION
  5
22E
330
1F
100
AcDbEntity
  8
1
100
AcDbDimension
  2
*D27
 10
-41.6000000000008
 20
582.0310924031375
 30
0.0
 11
-47.1000000000008
 21
570.71419934521
 31
0.0
 70
    32
  1
<>
 71
     5
 42
-1.0
 53
90.0
  3
ME10_DIM_2
100
AcDbAlignedDimension
 13
-30.21284425725159
 23
560.1332218043269
 33
0.0
 14
-31.6000000000008
 24
582.0310924031375
 34
0.0
 50
90.0
100
AcDbRotatedDimension
  0
DIMENSION
  5
239
330
1F
100
AcDbEntity
  8
1
100
AcDbDimension
  2
*D38
 10
-55.5250337613081
 20
582.0310924031375
 30
0.0
 11
-61.0250337613081
 21
536.861483546566
 31
0.0
 70
    32
  1
<>
 71
     5
 42
-1.0
 53
90.0
  3
ME10_DIM_3
100
AcDbAlignedDimension
 13
-31.94999999999928
 23
482.0310924031389
 33
0.0
 14
-31.6000000000008
 24
582.0310924031375
 34
0.0
 50
90.0
100
AcDbRotatedDimension
  0
ENDSEC
  0
SECTION
  2
OBJECTS
  0
DICTIONARY
  5
C
330
0
100
AcDbDictionary
281
     1
  3
ACAD_GROUP
350
D
  3
ACAD_LAYOUT
350
1A
  3
ACAD_MLINESTYLE
350
17
  3
ACAD_PLOTSETTINGS
350
19
  3
ACAD_PLOTSTYLENAME
350
E
  0
DICTIONARY
  5
D
102
{ACAD_REACTORS
330
C
102
}
330
C
100
AcDbDictionary
281
     1
  0
DICTIONARY
  5
1A
102
{ACAD_REACTORS
330
C
102
}
330
C
100
AcDbDictionary
281
     1
  3
Layout1
350
1E
  3
Layout2
350
26
  3
Model
350
22
  0
DICTIONARY
  5
17
102
{ACAD_REACTORS
330
C
102
}
330
C
100
AcDbDictionary
281
     1
  3
Standard
350
18
  0
DICTIONARY
  5
19
102
{ACAD_REACTORS
330
C
102
}
330
C
100
AcDbDictionary
281
     1
  0
ACDBDICTIONARYWDFLT
  5
E
102
{ACAD_REACTORS
330
C
102
}
330
C
100
AcDbDictionary
281
     1
  3
Normal
350
F
100
AcDbDictionaryWithDefault
340
F
  0
LAYOUT
  5
1E
102
{ACAD_REACTORS
330
1A
102
}
330
1A
100
AcDbPlotSettings
  1

  2

  4

  6

 40
0.0
 41
0.0
 42
0.0
 43
0.0
 44
0.0
 45
0.0
 46
0.0
 47
0.0
 48
0.0
 49
0.0
140
0.0
141
0.0
142
1.0
143
1.0
 70
   688
 72
     0
 73
     0
 74
     5
  7

 75
    16
147
1.0
148
0.0
149
0.0
100
AcDbLayout
  1
Layout1
 70
     1
 71
     1
 10
0.0
 20
0.0
 11
0.0
 21
0.0
 12
0.0
 22
0.0
 32
0.0
 14
0.0
 24
0.0
 34
0.0
 15
0.0
 25
0.0
 35
0.0
146
0.0
 13
0.0
 23
0.0
 33
0.0
 16
1.0
 26
0.0
 36
0.0
 17
0.0
 27
1.0
 37
0.0
 76
     0
330
1B
  0
LAYOUT
  5
26
102
{ACAD_REACTORS
330
1A
102
}
330
1A
100
AcDbPlotSettings
  1

  2

  4

  6

 40
0.0
 41
0.0
 42
0.0
 43
0.0
 44
0.0
 45
0.0
 46
0.0
 47
0.0
 48
0.0
 49
0.0
140
0.0
141
0.0
142
1.0
143
1.0
 70
   688
 72
     0
 73
     0
 74
     5
  7

 75
    16
147
1.0
148
0.0
149
0.0
100
AcDbLayout
  1
Layout2
 70
     1
 71
     2
 10
0.0
 20
0.0
 11
0.0
 21
0.0
 12
0.0
 22
0.0
 32
0.0
 14
0.0
 24
0.0
 34
0.0
 15
0.0
 25
0.0
 35
0.0
146
0.0
 13
0.0
 23
0.0
 33
0.0
 16
1.0
 26
0.0
 36
0.0
 17
0.0
 27
1.0
 37
0.0
 76
     0
330
23
  0
LAYOUT
  5
22
102
{ACAD_REACTORS
330
1A
102
}
330
1A
100
AcDbPlotSettings
  1

  2

  4

  6

 40
0.0
 41
0.0
 42
0.0
 43
0.0
 44
0.0
 45
0.0
 46
0.0
 47
0.0
 48
0.0
 49
0.0
140
0.0
141
0.0
142
1.0
143
1.0
 70
  1712
 72
     0
 73
     0
 74
     0
  7

 75
     0
147
1.0
148
0.0
149
0.0
100
AcDbLayout
  1
Model
 70
     1
 71
     0
 10
0.0
 20
0.0
 11
0.0
 21
0.0
 12
0.0
 22
0.0
 32
0.0
 14
-64.52503376130809
 24
462.697938314653
 34
0.0
 15
113.6000000000002
 25
637.9689075968611
 35
0.0
146
0.0
 13
0.0
 23
0.0
 33
0.0
 16
1.0
 26
0.0
 36
0.0
 17
0.0
 27
1.0
 37
0.0
 76
     0
330
1F
  0
MLINESTYLE
  5
18
102
{ACAD_REACTORS
330
17
102
}
330
17
100
AcDbMlineStyle
  2
Standard
 70
     0
  3

 62
   256
 51
90.0
 52
90.0
 71
     2
 49
0.5
 62
   256
  6
BYLAYER
 49
-0.5
 62
   256
  6
BYLAYER
  0
ACDBPLACEHOLDER
  5
F
102
{ACAD_REACTORS
330
E
102
}
330
E
  0
ENDSEC
  0
EOF
