  0
SECTION
  2
HEADER
  9
$ACADVER
  1
AC1014
  9
$ACADMAINTVER
 70
             0
  9
$DWGCODEPAGE
  3
ANSI_1252
  9
$INSBASE
 10
0.0
 20
0.0
 30
0.0
  9
$EXTMIN
 10
-199.65991500848011
 20
-230.21727431089411
 30
0.0
  9
$EXTMAX
 10
176.99998541344829
 20
117.080668599652
 30
0.0
  9
$LIMMIN
 10
0.0
 20
0.0
  9
$LIMMAX
 10
0.0
 20
0.0
  9
$ORTHOMODE
 70
             0
  9
$REGENMODE
 70
             1
  9
$FILLMODE
 70
             1
  9
$QTEXTMODE
 70
             0
  9
$MIRRTEXT
 70
             1
  9
$DRAGMODE
 70
             2
  9
$LTSCALE
 40
1.0
  9
$OSMODE
 70
             0
  9
$ATTMODE
 70
             1
  9
$TEXTSIZE
 40
0.2
  9
$TRACEWID
 40
0.05
  9
$TEXTSTYLE
  7
STANDARD
  9
$CLAYER
  8
0
  9
$CELTYPE
  6
CONTINUOUS
  9
$CECOLOR
 62
           256
  9
$CELTSCALE
 40
1.0
  9
$DELOBJ
 70
             1
  9
$DISPSILH
 70
             0
  9
$DIMSCALE
 40
1.0
  9
$DIMASZ
 40
0.18
  9
$DIMEXO
 40
0.0625
  9
$DIMDLI
 40
0.38
  9
$DIMRND
 40
0.0
  9
$DIMDLE
 40
0.0
  9
$DIMEXE
 40
0.18
  9
$DIMTP
 40
0.0
  9
$DIMTM
 40
0.0
  9
$DIMTXT
 40
0.18
  9
$DIMCEN
 40
0.09
  9
$DIMTSZ
 40
0.0
  9
$DIMTOL
 70
             0
  9
$DIMLIM
 70
             0
  9
$DIMTIH
 70
             1
  9
$DIMTOH
 70
             1
  9
$DIMSE1
 70
             0
  9
$DIMSE2
 70
             0
  9
$DIMTAD
 70
             0
  9
$DIMZIN
 70
             0
  9
$DIMBLK
  1

  9
$DIMASO
 70
             1
  9
$DIMSHO
 70
             1
  9
$DIMPOST
  1

  9
$DIMAPOST
  1

  9
$DIMALT
 70
             0
  9
$DIMALTD
 70
             2
  9
$DIMALTF
 40
25.4
  9
$DIMLFAC
 40
1.0
  9
$DIMTOFL
 70
             0
  9
$DIMTVP
 40
0.0
  9
$DIMTIX
 70
             0
  9
$DIMSOXD
 70
             0
  9
$DIMSAH
 70
             0
  9
$DIMBLK1
  1

  9
$DIMBLK2
  1

  9
$DIMSTYLE
  2
STANDARD
  9
$DIMCLRD
 70
             0
  9
$DIMCLRE
 70
             0
  9
$DIMCLRT
 70
             0
  9
$DIMTFAC
 40
1.0
  9
$DIMGAP
 40
0.09
  9
$DIMJUST
 70
             0
  9
$DIMSD1
 70
             0
  9
$DIMSD2
 70
             0
  9
$DIMTOLJ
 70
             1
  9
$DIMTZIN
 70
             0
  9
$DIMALTZ
 70
             0
  9
$DIMALTTZ
 70
             0
  9
$DIMFIT
 70
             3
  9
$DIMUPT
 70
             0
  9
$DIMUNIT
 70
             2
  9
$DIMDEC
 70
             4
  9
$DIMTDEC
 70
             4
  9
$DIMALTU
 70
             2
  9
$DIMALTTD
 70
             2
  9
$DIMTXSTY
  7
STANDARD
  9
$DIMAUNIT
 70
             0
  9
$LUNITS
 70
             2
  9
$LUPREC
 70
             4
  9
$SKETCHINC
 40
0.1
  9
$FILLETRAD
 40
0.0
  9
$AUNITS
 70
             0
  9
$AUPREC
 70
             0
  9
$MENU
  1
acad
  9
$ELEVATION
 40
0.0
  9
$PELEVATION
 40
0.0
  9
$THICKNESS
 40
0.0
  9
$LIMCHECK
 70
             0
  9
$BLIPMODE
 70
             1
  9
$CHAMFERA
 40
0.0
  9
$CHAMFERB
 40
0.0
  9
$CHAMFERC
 40
0.0
  9
$CHAMFERD
 40
0.0
  9
$SKPOLY
 70
             0
  9
$TDCREATE
 40
0.000000000
  9
$TDUPDATE
 40
0.000000000
  9
$TDINDWG
 40
0.0000000000
  9
$TDUSRTIMER
 40
0.0000000000
  9
$USRTIMER
 70
             1
  9
$ANGBASE
 50
0.0
  9
$ANGDIR
 70
             0
  9
$PDMODE
 70
             0
  9
$PDSIZE
 40
0.0
  9
$PLINEWID
 40
0.0
  9
$COORDS
 70
             0
  9
$SPLFRAME
 70
             0
  9
$SPLINETYPE
 70
             6
  9
$SPLINESEGS
 70
             8
  9
$ATTDIA
 70
             0
  9
$ATTREQ
 70
             1
  9
$HANDLING
 70
             1
  9
$HANDSEED
  5
2F4
  9
$SURFTAB1
 70
             6
  9
$SURFTAB2
 70
             6
  9
$SURFTYPE
 70
             6
  9
$SURFU
 70
             6
  9
$SURFV
 70
             6
  9
$UCSNAME
  2

  9
$UCSORG
 10
0.0
 20
0.0
 30
0.0
  9
$UCSXDIR
 10
1.0
 20
0.0
 30
0.0
  9
$UCSYDIR
 10
0.0
 20
1.0
 30
0.0
  9
$PUCSNAME
  2

  9
$PUCSORG
 10
0.0
 20
0.0
 30
0.0
  9
$PUCSXDIR
 10
1.0
 20
0.0
 30
0.0
  9
$PUCSYDIR
 10
0.0
 20
1.0
 30
0.0
  9
$USERI1
 70
             0
  9
$USERI2
 70
             0
  9
$USERI3
 70
             0
  9
$USERI4
 70
             0
  9
$USERI5
 70
             0
  9
$USERR1
 40
12.01
  9
$USERR2
 40
0.0
  9
$USERR3
 40
0.0
  9
$USERR4
 40
0.0
  9
$USERR5
 40
0.0
  9
$WORLDVIEW
 70
             1
  9
$SHADEDGE
 70
             3
  9
$SHADEDIF
 70
            70
  9
$TILEMODE
 70
             1
  9
$MAXACTVP
 70
            16
  9
$PINSBASE
 10
0.0
 20
0.0
 30
0.0
  9
$PLIMCHECK
 70
             0
  9
$PEXTMIN
 10
1.00000000000000E+20
 20
1.00000000000000E+20
 30
1.00000000000000E+20
  9
$PEXTMAX
 10
-1.00000000000000E+20
 20
-1.00000000000000E+20
 30
-1.00000000000000E+20
  9
$PLIMMIN
 10
0.0
 20
0.0
  9
$PLIMMAX
 10
12.0
 20
9.0
  9
$UNITMODE
 70
             0
  9
$VISRETAIN
 70
             0
  9
$PLINEGEN
 70
             1
  9
$PSLTSCALE
 70
             0
  9
$TREEDEPTH
 70
          3020
  9
$PICKSTYLE
 70
             1
  9
$CMLSTYLE
  2
STANDARD
  9
$CMLJUST
 70
             0
  9
$CMLSCALE
 40
1.0
  9
$PROXYGRAPHICS
 70
             0
  9
$MEASUREMENT
 70
             1
  0
ENDSEC
  0
SECTION
  2
CLASSES
  0
CLASS
  1
LWPOLYLINE
  2
AcDbPolyline
  3
"AutoCAD"
 90
        0
280
             0
281
             1
  0
CLASS
  1
IMAGE
  2
AcDbRasterImage
  3
ISM
 90
      127
280
             0
281
             1
  0
CLASS
  1
OLE2FRAME
  2
AcDbOle2Frame
  3
""
 90
        0
280
             0
281
             1
  0
CLASS
  1
HATCH
  2
AcDbHatch
  3
"ACAD_SEDONA"
 90
        0
280
             0
281
             1
  0
CLASS
  1
DICTIONARYVAR
  2
AcDbDictionaryVar
  3
"AutoCAD"
 90
        0
280
             0
281
             0
  0
CLASS
  1
RASTERVARIABLES
  2
AcDbRasterVariables
  3
ISM
 90
        0
280
             0
281
             0
  0
CLASS
  1
IMAGEDEF
  2
AcDbRasterImageDef
  3
ISM
 90
        0
280
             0
281
             0
  0
CLASS
  1
IMAGEDEF_REACTOR
  2
AcDbRasterImageDefReactor
  3
ISM
 90
        1
280
             0
281
             0
  0
CLASS
  1
IDBUFFER
  2
AcDbIdBuffer
  3
"Acad"
 90
        0
280
             0
281
             0
  0
CLASS
  1
SPATIAL_FILTER
  2
AcDbSpatialFilter
  3
"Acad"
 90
        0
280
             0
281
             0
  0
CLASS
  1
XRECORD
  2
AcDbXrecord
  3
"<Built In>"
 90
        0
280
             0
281
             0
  0
CLASS
  1
SORTENTSTABLE
  2
AcDbSortentsTable
  3
"AutoCAD"
 90
        0
280
             0
281
             0
  0
CLASS
  1
LAYER_INDEX
  2
AcDbLayerIndex
  3
"Acad"
 90
        0
280
             0
281
             0
  0
CLASS
  1
SPATIAL_INDEX
  2
AcDbSpatialIndex
  3
"Acad"
 90
        0
280
             0
281
             0
  0
CLASS
  1
OBJECT_PTR
  2
CAseDLPNTableRecord
  3
"ASE-LPNTableRecord"
 90
        1
280
             0
281
             0
  0
CLASS
  1
LAYOUT
  2
AcDbLayout
  3
"AutoCAD 2000"
 90
        0
280
             0
281
             0
  0
CLASS
  1
PLOTSETTINGS
  2
AcDbPlotSettings
  3
"AutoCAD 2000"
 90
        0
280
             0
281
             0
  0
CLASS
  1
ACDBDICTIONARYWDFLT
  2
AcDbDictionaryWithDefault
  3
"AutoCAD 2000"
 90
        0
280
             0
281
             0
  0
CLASS
  1
ACDBPLACEHOLDER
  2
AcDbPlaceHolder
  3
"AutoCAD 2000"
 90
        0
280
             0
281
             0
  0
ENDSEC
  0
SECTION
  2
TABLES
  0
TABLE
  2
VPORT
  5
7
100
AcDbSymbolTable
 70
             1
  0
VPORT
  5
15
100
AcDbSymbolTableRecord
100
AcDbViewportTableRecord
  2
*ACTIVE
 70
             0
 10
0.0
 20
0.0
 11
1.0
 21
1.0
 12
-11.32996479751591
 22
-56.56830285562106
 13
0.0
 23
0.0
 14
1.0
 24
1.0
 15
0.0
 25
0.0
 16
0.0
 26
0.0
 36
1.0
 17
0.0
 27
0.0
 37
0.0
 40
382.02773720160076
 41
1.60267857142857
 42
50.0
 43
0.0
 44
0.0
 50
0.0
 51
0.0
 71
             0
 72
           100
 73
             1
 74
             1
 75
             0
 76
             0
 77
             0
 78
             0
  0
ENDTAB
  0
TABLE
  2
LTYPE
  5
4
100
AcDbSymbolTable
 70
            11
  0
LTYPE
  5
11
100
AcDbSymbolTableRecord
100
AcDbLinetypeTableRecord
  2
BYBLOCK
 70
            64
  3

 72
            65
 73
             0
 40
0.0
  0
LTYPE
  5
12
100
AcDbSymbolTableRecord
100
AcDbLinetypeTableRecord
  2
BYLAYER
 70
            64
  3

 72
            65
 73
             0
 40
0.0
  0
LTYPE
  5
13
100
AcDbSymbolTableRecord
100
AcDbLinetypeTableRecord
  2
CONTINUOUS
 70
            64
  3
Solid line
 72
            65
 73
             0
 40
0.0
  0
LTYPE
  5
1D
100
AcDbSymbolTableRecord
100
AcDbLinetypeTableRecord
  2
DASHED
 70
            64
  3
Dashed
 72
            65
 73
             2
 40
15.0
 49
7.0
 74
             0
 49
-8.0
 74
             0
  0
LTYPE
  5
1E
100
AcDbSymbolTableRecord
100
AcDbLinetypeTableRecord
  2
DOTTED
 70
            64
  3
Dotted
 72
            65
 73
             2
 40
1.0
 49
0.0
 74
             0
 49
-1.0
 74
             0
  0
LTYPE
  5
1F
100
AcDbSymbolTableRecord
100
AcDbLinetypeTableRecord
  2
DOT_CENTER
 70
            64
  3
Dot_Center
 72
            65
 73
             4
 40
14.0
 49
12.0
 74
             0
 49
-1.0
 74
             0
 49
0.0
 74
             0
 49
-1.0
 74
             0
  0
LTYPE
  5
20
100
AcDbSymbolTableRecord
100
AcDbLinetypeTableRecord
  2
LONG_DASHED
 70
            64
  3
Long_Dashed
 72
            65
 73
             2
 40
15.0
 49
10.0
 74
             0
 49
-5.0
 74
             0
  0
LTYPE
  5
21
100
AcDbSymbolTableRecord
100
AcDbLinetypeTableRecord
  2
DASH_CENTER
 70
            64
  3
Dash_Center
 72
            65
 73
             4
 40
14.0
 49
11.0
 74
             0
 49
-1.0
 74
             0
 49
1.0
 74
             0
 49
-1.0
 74
             0
  0
LTYPE
  5
22
100
AcDbSymbolTableRecord
100
AcDbLinetypeTableRecord
  2
PHANTOM
 70
            64
  3
Phantom
 72
            65
 73
             6
 40
13.0
 49
10.0
 74
             0
 49
-1.0
 74
             0
 49
0.0
 74
             0
 49
-1.0
 74
             0
 49
0.0
 74
             0
 49
-1.0
 74
             0
  0
LTYPE
  5
23
100
AcDbSymbolTableRecord
100
AcDbLinetypeTableRecord
  2
CENTER_DASH_DASH
 70
            64
  3
Center_Dash_Dash
 72
            65
 73
             6
 40
14.0
 49
9.0
 74
             0
 49
-1.0
 74
             0
 49
1.0
 74
             0
 49
-1.0
 74
             0
 49
1.0
 74
             0
 49
-1.0
 74
             0
  0
LTYPE
  5
24
100
AcDbSymbolTableRecord
100
AcDbLinetypeTableRecord
  2
DASHDOT
 70
            64
  3
DASHDOT
 72
            65
 73
             4
 40
16.0
 49
10.0
 74
             0
 49
-3.0
 74
             0
 49
0.0
 74
             0
 49
-3.0
 74
             0
  0
ENDTAB
  0
TABLE
  2
LAYER
  5
2
100
AcDbSymbolTable
 70
            10
  0
LAYER
  5
14
100
AcDbSymbolTableRecord
100
AcDbLayerTableRecord
  2
0
 70
             0
 62
             7
  6
CONTINUOUS
  0
LAYER
  5
25
100
AcDbSymbolTableRecord
100
AcDbLayerTableRecord
  2
1
 70
             0
 62
             7
  6
CONTINUOUS
  0
LAYER
  5
26
100
AcDbSymbolTableRecord
100
AcDbLayerTableRecord
  2
LC-001-002-----0
 70
             0
 62
             7
  6
CONTINUOUS
  0
LAYER
  5
27
100
AcDbSymbolTableRecord
100
AcDbLayerTableRecord
  2
LC-002-002-RND-0
 70
             0
 62
             7
  6
CONTINUOUS
  0
LAYER
  5
28
100
AcDbSymbolTableRecord
100
AcDbLayerTableRecord
  2
LC-003-002-----0
 70
             0
 62
             7
  6
CONTINUOUS
  0
LAYER
  5
29
100
AcDbSymbolTableRecord
100
AcDbLayerTableRecord
  2
LC-004-003-----0
 70
             0
 62
             7
  6
CONTINUOUS
  0
LAYER
  5
2A
100
AcDbSymbolTableRecord
100
AcDbLayerTableRecord
  2
LC-004-005-----0
 70
             0
 62
             7
  6
CONTINUOUS
  0
LAYER
  5
2B
100
AcDbSymbolTableRecord
100
AcDbLayerTableRecord
  2
LC-006-003-----0
 70
             0
 62
             7
  6
CONTINUOUS
  0
LAYER
  5
2C
100
AcDbSymbolTableRecord
100
AcDbLayerTableRecord
  2
LC-009-002-RND-0
 70
             0
 62
             7
  6
CONTINUOUS
  0
LAYER
  5
2D
100
AcDbSymbolTableRecord
100
AcDbLayerTableRecord
  2
LC-009-006-MLN-0
 70
             0
 62
             7
  6
CONTINUOUS
  0
ENDTAB
  0
TABLE
  2
STYLE
  5
3
100
AcDbSymbolTable
 70
             2
  0
STYLE
  5
17
100
AcDbSymbolTableRecord
100
AcDbTextStyleTableRecord
  2
STANDARD
 70
             0
 40
0.0
 41
1.0
 50
0.0
 71
             0
 42
0.0
  3
txt
  4

  0
STYLE
  5
2B7
100
AcDbSymbolTableRecord
100
AcDbTextStyleTableRecord
  2
CONVERTER_1
 70
             0
 40
0.0
 41
0.9
 50
0.0
 71
             0
 42
0.0
  3
txt.shx
  4

  0
ENDTAB
  0
TABLE
  2
VIEW
  5
5
100
AcDbSymbolTable
 70
             0
  0
ENDTAB
  0
TABLE
  2
UCS
  5
6
100
AcDbSymbolTable
 70
             0
  0
ENDTAB
  0
TABLE
  2
APPID
  5
8
100
AcDbSymbolTable
 70
             1
  0
APPID
  5
16
100
AcDbSymbolTableRecord
100
AcDbRegAppTableRecord
  2
ACAD
 70
             0
  0
ENDTAB
  0
TABLE
  2
DIMSTYLE
  5
9
100
AcDbSymbolTable
 70
             7
  0
DIMSTYLE
105
18
100
AcDbSymbolTableRecord
100
AcDbDimStyleTableRecord
  2
STANDARD
 70
             0
  3

  4

  5

  6

  7

 40
1.0
 41
0.18
 42
0.0625
 43
0.38
 44
0.18
 45
0.0
 46
0.0
 47
0.0
 48
0.0
 71
             0
 72
             0
 73
             1
 74
             1
 75
             0
 76
             0
 77
             0
 78
             0
140
0.18
141
0.09
142
0.0
143
25.4
144
1.0
145
0.0
146
1.0
147
0.09
170
             0
171
             2
172
             0
173
             0
174
             0
175
             0
176
             0
177
             0
178
             0
270
             2
271
             4
272
             4
273
             2
274
             2
275
             0
280
             0
281
             0
282
             0
283
             1
284
             0
285
             0
286
             0
287
             3
288
             0
340
17
  0
DIMSTYLE
105
2BA
100
AcDbSymbolTableRecord
100
AcDbDimStyleTableRecord
  2
ME10_DIM_0
 70
             0
  3

  4

  5

  6

  7

 40
1.0
 41
10.0
 42
0.0
 43
0.38
 44
2.0
 45
0.0
 46
0.0
 47
0.0
 48
0.0
 71
             0
 72
             0
 73
             0
 74
             0
 75
             0
 76
             0
 77
             1
 78
             8
140
10.0
141
0.09
142
0.0
143
25.4
144
1.0
145
0.0
146
1.0
147
0.625
170
             0
171
             2
172
             1
173
             1
174
             0
175
             0
176
             4
177
             4
178
             1
270
             2
271
             2
272
             4
273
             2
274
             2
275
             0
280
             0
281
             0
282
             0
283
             1
284
             0
285
             0
286
             0
287
             3
288
             0
340
2B7
  0
DIMSTYLE
105
2C5
100
AcDbSymbolTableRecord
100
AcDbDimStyleTableRecord
  2
ME10_DIM_1
 70
             0
  3
12-<>
  4

  5

  6

  7

 40
1.0
 41
10.0
 42
0.0
 43
0.38
 44
2.0
 45
0.0
 46
0.0
 47
0.0
 48
0.0
 71
             0
 72
             0
 73
             0
 74
             0
 75
             0
 76
             0
 77
             1
 78
             8
140
10.0
141
0.09
142
0.0
143
25.4
144
1.0
145
0.0
146
1.0
147
0.625
170
             0
171
             2
172
             1
173
             1
174
             0
175
             0
176
             4
177
             4
178
             1
270
             2
271
             2
272
             4
273
             2
274
             2
275
             0
280
             0
281
             0
282
             0
283
             1
284
             0
285
             0
286
             0
287
             3
288
             0
340
2B7
  0
DIMSTYLE
105
2D0
100
AcDbSymbolTableRecord
100
AcDbDimStyleTableRecord
  2
ME10_DIM_2
 70
             0
  3

  4

  5

  6

  7

 40
1.0
 41
10.0
 42
0.0
 43
0.38
 44
2.0
 45
0.0
 46
0.0
 47
0.0
 48
0.0
 71
             0
 72
             0
 73
             0
 74
             0
 75
             0
 76
             0
 77
             1
 78
             8
140
10.0
141
0.09
142
0.0
143
25.4
144
1.0
145
0.0
146
1.0
147
0.625
170
             0
171
             2
172
             1
173
             1
174
             0
175
             0
176
             4
177
             4
178
             1
270
             2
271
             2
272
             4
273
             2
274
             2
275
             0
280
             0
281
             0
282
             0
283
             1
284
             0
285
             0
286
             0
287
             3
288
             0
340
2B7
  0
DIMSTYLE
105
2DB
100
AcDbSymbolTableRecord
100
AcDbDimStyleTableRecord
  2
ME10_DIM_3
 70
             0
  3
Ø<>
  4

  5

  6

  7

 40
1.0
 41
10.0
 42
0.0
 43
0.38
 44
2.0
 45
0.0
 46
0.0
 47
0.0
 48
0.0
 71
             0
 72
             0
 73
             0
 74
             0
 75
             0
 76
             0
 77
             1
 78
             8
140
10.0
141
0.09
142
0.0
143
25.4
144
1.0
145
0.0
146
1.0
147
0.625
170
             0
171
             2
172
             1
173
             1
174
             0
175
             0
176
             4
177
             4
178
             1
270
             2
271
             2
272
             4
273
             2
274
             2
275
             0
280
             0
281
             0
282
             0
283
             1
284
             0
285
             0
286
             0
287
             3
288
             0
340
2B7
  0
DIMSTYLE
105
2E6
100
AcDbSymbolTableRecord
100
AcDbDimStyleTableRecord
  2
ME10_DIM_4
 70
             0
  3
Ø<>
  4

  5

  6

  7

 40
1.0
 41
15.0
 42
0.0
 43
0.38
 44
2.0
 45
0.0
 46
0.0
 47
0.0
 48
0.0
 71
             0
 72
             0
 73
             0
 74
             0
 75
             0
 76
             0
 77
             1
 78
             8
140
15.0
141
0.09
142
0.0
143
25.4
144
1.0
145
0.0
146
1.0
147
0.625
170
             0
171
             2
172
             1
173
             1
174
             0
175
             0
176
             4
177
             4
178
             1
270
             2
271
             2
272
             4
273
             2
274
             2
275
             0
280
             0
281
             0
282
             0
283
             1
284
             0
285
             0
286
             0
287
             3
288
             0
340
2B7
  0
DIMSTYLE
105
2F1
100
AcDbSymbolTableRecord
100
AcDbDimStyleTableRecord
  2
ME10_DIM_5
 70
             0
  3
DN<>
  4

  5

  6

  7

 40
1.0
 41
15.0
 42
0.0
 43
0.38
 44
2.0
 45
0.0
 46
0.0
 47
0.0
 48
0.0
 71
             0
 72
             0
 73
             0
 74
             0
 75
             0
 76
             0
 77
             1
 78
             8
140
15.0
141
0.09
142
0.0
143
25.4
144
1.0
145
0.0
146
1.0
147
0.625
170
             0
171
             2
172
             1
173
             1
174
             0
175
             0
176
             4
177
             4
178
             1
270
             2
271
             2
272
             4
273
             2
274
             2
275
             0
280
             0
281
             0
282
             0
283
             1
284
             0
285
             0
286
             0
287
             3
288
             0
340
2B7
  0
ENDTAB
  0
TABLE
  2
BLOCK_RECORD
  5
1
100
AcDbSymbolTable
 70
            15
  0
BLOCK_RECORD
  5
A
100
AcDbSymbolTableRecord
100
AcDbBlockTableRecord
  2
*MODEL_SPACE
  0
BLOCK_RECORD
  5
B
100
AcDbSymbolTableRecord
100
AcDbBlockTableRecord
  2
*PAPER_SPACE
  0
BLOCK_RECORD
  5
2E
100
AcDbSymbolTableRecord
100
AcDbBlockTableRecord
  2
062B_2E_AUFSATZRAHMEN__1
  0
BLOCK_RECORD
  5
30
100
AcDbSymbolTableRecord
100
AcDbBlockTableRecord
  2
062B_2E_AUFSATZRAHMEN__2
  0
BLOCK_RECORD
  5
33
100
AcDbSymbolTableRecord
100
AcDbBlockTableRecord
  2
HL_62_1_7_DACHABLAUF
  0
BLOCK_RECORD
  5
36
100
AcDbSymbolTableRecord
100
AcDbBlockTableRecord
  2
062_1E_LAUBFANGKORB
  0
BLOCK_RECORD
  5
38
100
AcDbSymbolTableRecord
100
AcDbBlockTableRecord
  2
HL62_1_1
  0
BLOCK_RECORD
  5
3C
100
AcDbSymbolTableRecord
100
AcDbBlockTableRecord
  2
HL_62_1B_1_FLACHDACHAB0__3
  0
BLOCK_RECORD
  5
3F
100
AcDbSymbolTableRecord
100
AcDbBlockTableRecord
  2
HL_62_1B_1_FLACHDACHAB0__4
  0
BLOCK_RECORD
  5
42
100
AcDbSymbolTableRecord
100
AcDbBlockTableRecord
  2
HL_62_1B_2_FLACHDACHABN125
  0
BLOCK_RECORD
  5
45
100
AcDbSymbolTableRecord
100
AcDbBlockTableRecord
  2
K_RPER
  0
BLOCK_RECORD
  5
2B0
100
AcDbSymbolTableRecord
100
AcDbBlockTableRecord
  2
*D9
  0
BLOCK_RECORD
  5
2BC
100
AcDbSymbolTableRecord
100
AcDbBlockTableRecord
  2
*D10
  0
BLOCK_RECORD
  5
2C7
100
AcDbSymbolTableRecord
100
AcDbBlockTableRecord
  2
*D11
  0
BLOCK_RECORD
  5
2D2
100
AcDbSymbolTableRecord
100
AcDbBlockTableRecord
  2
*D12
  0
BLOCK_RECORD
  5
2DD
100
AcDbSymbolTableRecord
100
AcDbBlockTableRecord
  2
*D13
  0
BLOCK_RECORD
  5
2E8
100
AcDbSymbolTableRecord
100
AcDbBlockTableRecord
  2
*D14
  0
ENDTAB
  0
ENDSEC
  0
SECTION
  2
BLOCKS
  0
BLOCK
  5
D
100
AcDbEntity
  8
0
100
AcDbBlockBegin
  2
*MODEL_SPACE
 70
             0
 10
0.0
 20
0.0
 30
0.0
  3
*MODEL_SPACE
  1

  0
ENDBLK
  5
E
100
AcDbEntity
  8
0
100
AcDbBlockEnd
  0
BLOCK
  5
F
100
AcDbEntity
 67
             1
  8
0
100
AcDbBlockBegin
  2
*PAPER_SPACE
 70
             0
 10
0.0
 20
0.0
 30
0.0
  3
*PAPER_SPACE
  1

  0
ENDBLK
  5
10
100
AcDbEntity
 67
             1
  8
0
100
AcDbBlockEnd
  0
BLOCK
  5
2F
100
AcDbEntity
  8
0
100
AcDbBlockBegin
  2
062B_2E_AUFSATZRAHMEN__1
 70
             0
 10
-145.5815597586367
 20
-343.8951779635106
 30
0.0
  3
062B_2E_AUFSATZRAHMEN__1
  1

  0
ARC
  5
108
100
AcDbEntity
  8
LC-009-002-RND-0
  6
CONTINUOUS
 62
             7
100
AcDbCircle
 10
71.9999874134472
 20
8.50013830458846
 40
0.5
100
AcDbArc
 50
-90.0
 51
0.0
  0
ARC
  5
107
100
AcDbEntity
  8
LC-009-002-RND-0
  6
CONTINUOUS
 62
             7
100
AcDbCircle
 10
71.9999874134472
 20
17.50013830458846
 40
0.5
100
AcDbArc
 50
-90.0
 51
0.0
  0
ARC
  5
106
100
AcDbEntity
  8
LC-009-002-RND-0
  6
CONTINUOUS
 62
             7
100
AcDbCircle
 10
71.9999874134472
 20
13.00013830458846
 40
0.5
100
AcDbArc
 50
-90.0
 51
0.0
  0
ARC
  5
105
100
AcDbEntity
  8
LC-009-002-RND-0
  6
CONTINUOUS
 62
             7
100
AcDbCircle
 10
71.9999874134472
 20
22.00013830458846
 40
0.5
100
AcDbArc
 50
-90.0
 51
0.0
  0
ARC
  5
104
100
AcDbEntity
  8
LC-009-002-RND-0
  6
CONTINUOUS
 62
             7
100
AcDbCircle
 10
71.9999874134472
 20
26.50013830458846
 40
0.5
100
AcDbArc
 50
-90.0
 51
0.0
  0
ARC
  5
103
100
AcDbEntity
  8
LC-009-002-RND-0
  6
CONTINUOUS
 62
             7
100
AcDbCircle
 10
71.9999874134472
 20
31.00013830458846
 40
0.5
100
AcDbArc
 50
-90.0
 51
0.0
  0
ARC
  5
102
100
AcDbEntity
  8
LC-009-002-RND-0
  6
CONTINUOUS
 62
             7
100
AcDbCircle
 10
71.9999874134472
 20
35.50013830458847
 40
0.5
100
AcDbArc
 50
-90.0
 51
0.0
  0
ARC
  5
101
100
AcDbEntity
  8
LC-009-002-RND-0
  6
CONTINUOUS
 62
             7
100
AcDbCircle
 10
71.9999874134472
 20
40.00013830458847
 40
0.5
100
AcDbArc
 50
-90.0
 51
0.0
  0
ARC
  5
100
100
AcDbEntity
  8
LC-009-002-RND-0
  6
CONTINUOUS
 62
             7
100
AcDbCircle
 10
71.9999874134472
 20
44.50013830458847
 40
0.5
100
AcDbArc
 50
-90.0
 51
0.0
  0
ARC
  5
FF
100
AcDbEntity
  8
LC-009-002-RND-0
  6
CONTINUOUS
 62
             7
100
AcDbCircle
 10
71.9999874134472
 20
41.00013830458847
 40
0.5
100
AcDbArc
 50
0.0
 51
90.0
  0
ARC
  5
FE
100
AcDbEntity
  8
LC-009-002-RND-0
  6
CONTINUOUS
 62
             7
100
AcDbCircle
 10
71.9999874134472
 20
36.50013830458847
 40
0.5
100
AcDbArc
 50
0.0
 51
90.0
  0
ARC
  5
FD
100
AcDbEntity
  8
LC-009-002-RND-0
  6
CONTINUOUS
 62
             7
100
AcDbCircle
 10
71.9999874134472
 20
32.00013830458847
 40
0.5
100
AcDbArc
 50
0.0
 51
90.0
  0
ARC
  5
FC
100
AcDbEntity
  8
LC-009-002-RND-0
  6
CONTINUOUS
 62
             7
100
AcDbCircle
 10
71.9999874134472
 20
27.50013830458846
 40
0.5
100
AcDbArc
 50
0.0
 51
90.0
  0
ARC
  5
FB
100
AcDbEntity
  8
LC-009-002-RND-0
  6
CONTINUOUS
 62
             7
100
AcDbCircle
 10
71.9999874134472
 20
23.00013830458846
 40
0.5
100
AcDbArc
 50
0.0
 51
90.0
  0
ARC
  5
FA
100
AcDbEntity
  8
LC-009-002-RND-0
  6
CONTINUOUS
 62
             7
100
AcDbCircle
 10
71.9999874134472
 20
18.50013830458846
 40
0.5
100
AcDbArc
 50
0.0
 51
90.0
  0
ARC
  5
F9
100
AcDbEntity
  8
LC-009-002-RND-0
  6
CONTINUOUS
 62
             7
100
AcDbCircle
 10
71.9999874134472
 20
14.00013830458846
 40
0.5
100
AcDbArc
 50
0.0
 51
90.0
  0
ARC
  5
F8
100
AcDbEntity
  8
LC-009-002-RND-0
  6
CONTINUOUS
 62
             7
100
AcDbCircle
 10
71.9999874134472
 20
9.50013830458846
 40
0.5
100
AcDbArc
 50
0.0
 51
90.0
  0
ARC
  5
F7
100
AcDbEntity
  8
LC-003-002-----0
  6
CONTINUOUS
 62
             7
100
AcDbCircle
 10
71.9999874134472
 20
42.75013830458847
 40
1.25
100
AcDbArc
 50
90.0
 51
-90.0
  0
ARC
  5
F6
100
AcDbEntity
  8
LC-003-002-----0
  6
CONTINUOUS
 62
             7
100
AcDbCircle
 10
71.9999874134472
 20
38.25013830458847
 40
1.25
100
AcDbArc
 50
90.0
 51
-90.0
  0
ARC
  5
F5
100
AcDbEntity
  8
LC-003-002-----0
  6
CONTINUOUS
 62
             7
100
AcDbCircle
 10
71.9999874134472
 20
33.75013830458847
 40
1.25
100
AcDbArc
 50
90.0
 51
-90.0
  0
ARC
  5
F4
100
AcDbEntity
  8
LC-003-002-----0
  6
CONTINUOUS
 62
             7
100
AcDbCircle
 10
71.9999874134472
 20
29.25013830458846
 40
1.25
100
AcDbArc
 50
90.0
 51
-90.0
  0
ARC
  5
F3
100
AcDbEntity
  8
LC-003-002-----0
  6
CONTINUOUS
 62
             7
100
AcDbCircle
 10
71.9999874134472
 20
24.75013830458846
 40
1.25
100
AcDbArc
 50
90.0
 51
-90.0
  0
ARC
  5
F2
100
AcDbEntity
  8
LC-003-002-----0
  6
CONTINUOUS
 62
             7
100
AcDbCircle
 10
71.9999874134472
 20
20.25013830458846
 40
1.25
100
AcDbArc
 50
90.0
 51
-90.0
  0
ARC
  5
F1
100
AcDbEntity
  8
LC-003-002-----0
  6
CONTINUOUS
 62
             7
100
AcDbCircle
 10
71.9999874134472
 20
15.75013830458846
 40
1.25
100
AcDbArc
 50
90.0
 51
-90.0
  0
ARC
  5
F0
100
AcDbEntity
  8
LC-003-002-----0
  6
CONTINUOUS
 62
             7
100
AcDbCircle
 10
71.9999874134472
 20
11.25013830458846
 40
1.25
100
AcDbArc
 50
90.0
 51
-90.0
  0
ARC
  5
EF
100
AcDbEntity
  8
LC-009-002-RND-0
  6
CONTINUOUS
 62
             7
100
AcDbCircle
 10
-72.0000125865528
 20
8.50013830458846
 40
0.5
100
AcDbArc
 50
180.0
 51
-90.0
  0
ARC
  5
EE
100
AcDbEntity
  8
LC-009-002-RND-0
  6
CONTINUOUS
 62
             7
100
AcDbCircle
 10
-72.0000125865528
 20
17.50013830458846
 40
0.5
100
AcDbArc
 50
180.0
 51
-90.0
  0
ARC
  5
ED
100
AcDbEntity
  8
LC-009-002-RND-0
  6
CONTINUOUS
 62
             7
100
AcDbCircle
 10
-72.0000125865528
 20
13.00013830458846
 40
0.5
100
AcDbArc
 50
180.0
 51
-90.0
  0
ARC
  5
EC
100
AcDbEntity
  8
LC-009-002-RND-0
  6
CONTINUOUS
 62
             7
100
AcDbCircle
 10
-72.0000125865528
 20
22.00013830458846
 40
0.5
100
AcDbArc
 50
180.0
 51
-90.0
  0
ARC
  5
EB
100
AcDbEntity
  8
LC-009-002-RND-0
  6
CONTINUOUS
 62
             7
100
AcDbCircle
 10
-72.0000125865528
 20
26.50013830458846
 40
0.5
100
AcDbArc
 50
180.0
 51
-90.0
  0
ARC
  5
EA
100
AcDbEntity
  8
LC-009-002-RND-0
  6
CONTINUOUS
 62
             7
100
AcDbCircle
 10
-72.0000125865528
 20
31.00013830458846
 40
0.5
100
AcDbArc
 50
180.0
 51
-90.0
  0
ARC
  5
E9
100
AcDbEntity
  8
LC-009-002-RND-0
  6
CONTINUOUS
 62
             7
100
AcDbCircle
 10
-72.0000125865528
 20
35.50013830458847
 40
0.5
100
AcDbArc
 50
180.0
 51
-90.0
  0
ARC
  5
E8
100
AcDbEntity
  8
LC-009-002-RND-0
  6
CONTINUOUS
 62
             7
100
AcDbCircle
 10
-72.0000125865528
 20
40.00013830458847
 40
0.5
100
AcDbArc
 50
180.0
 51
-90.0
  0
ARC
  5
E7
100
AcDbEntity
  8
LC-009-002-RND-0
  6
CONTINUOUS
 62
             7
100
AcDbCircle
 10
-72.0000125865528
 20
44.50013830458847
 40
0.5
100
AcDbArc
 50
180.0
 51
-90.0
  0
ARC
  5
E6
100
AcDbEntity
  8
LC-009-002-RND-0
  6
CONTINUOUS
 62
             7
100
AcDbCircle
 10
-72.0000125865528
 20
41.00013830458847
 40
0.5
100
AcDbArc
 50
90.0
 51
180.0
  0
ARC
  5
E5
100
AcDbEntity
  8
LC-009-002-RND-0
  6
CONTINUOUS
 62
             7
100
AcDbCircle
 10
-72.0000125865528
 20
36.50013830458847
 40
0.5
100
AcDbArc
 50
90.0
 51
180.0
  0
ARC
  5
E4
100
AcDbEntity
  8
LC-009-002-RND-0
  6
CONTINUOUS
 62
             7
100
AcDbCircle
 10
-72.0000125865528
 20
32.00013830458847
 40
0.5
100
AcDbArc
 50
90.0
 51
180.0
  0
ARC
  5
E3
100
AcDbEntity
  8
LC-009-002-RND-0
  6
CONTINUOUS
 62
             7
100
AcDbCircle
 10
-72.0000125865528
 20
27.50013830458846
 40
0.5
100
AcDbArc
 50
90.0
 51
180.0
  0
ARC
  5
E2
100
AcDbEntity
  8
LC-009-002-RND-0
  6
CONTINUOUS
 62
             7
100
AcDbCircle
 10
-72.0000125865528
 20
23.00013830458846
 40
0.5
100
AcDbArc
 50
90.0
 51
180.0
  0
ARC
  5
E1
100
AcDbEntity
  8
LC-009-002-RND-0
  6
CONTINUOUS
 62
             7
100
AcDbCircle
 10
-72.0000125865528
 20
18.50013830458846
 40
0.5
100
AcDbArc
 50
90.0
 51
180.0
  0
ARC
  5
E0
100
AcDbEntity
  8
LC-009-002-RND-0
  6
CONTINUOUS
 62
             7
100
AcDbCircle
 10
-72.0000125865528
 20
14.00013830458846
 40
0.5
100
AcDbArc
 50
90.0
 51
180.0
  0
ARC
  5
DF
100
AcDbEntity
  8
LC-009-002-RND-0
  6
CONTINUOUS
 62
             7
100
AcDbCircle
 10
-72.0000125865528
 20
9.50013830458846
 40
0.5
100
AcDbArc
 50
90.0
 51
180.0
  0
ARC
  5
DE
100
AcDbEntity
  8
LC-003-002-----0
  6
CONTINUOUS
 62
             7
100
AcDbCircle
 10
-72.0000125865528
 20
42.75013830458847
 40
1.25
100
AcDbArc
 50
-90.0
 51
90.0
  0
ARC
  5
DD
100
AcDbEntity
  8
LC-003-002-----0
  6
CONTINUOUS
 62
             7
100
AcDbCircle
 10
-72.0000125865528
 20
38.25013830458847
 40
1.25
100
AcDbArc
 50
-90.0
 51
90.0
  0
ARC
  5
DC
100
AcDbEntity
  8
LC-003-002-----0
  6
CONTINUOUS
 62
             7
100
AcDbCircle
 10
-72.0000125865528
 20
33.75013830458847
 40
1.25
100
AcDbArc
 50
-90.0
 51
90.0
  0
ARC
  5
DB
100
AcDbEntity
  8
LC-003-002-----0
  6
CONTINUOUS
 62
             7
100
AcDbCircle
 10
-72.0000125865528
 20
29.25013830458846
 40
1.25
100
AcDbArc
 50
-90.0
 51
90.0
  0
ARC
  5
DA
100
AcDbEntity
  8
LC-003-002-----0
  6
CONTINUOUS
 62
             7
100
AcDbCircle
 10
-72.0000125865528
 20
24.75013830458846
 40
1.25
100
AcDbArc
 50
-90.0
 51
90.0
  0
ARC
  5
D9
100
AcDbEntity
  8
LC-003-002-----0
  6
CONTINUOUS
 62
             7
100
AcDbCircle
 10
-72.0000125865528
 20
20.25013830458846
 40
1.25
100
AcDbArc
 50
-90.0
 51
90.0
  0
ARC
  5
D8
100
AcDbEntity
  8
LC-003-002-----0
  6
CONTINUOUS
 62
             7
100
AcDbCircle
 10
-72.0000125865528
 20
15.75013830458846
 40
1.25
100
AcDbArc
 50
-90.0
 51
90.0
  0
ARC
  5
D7
100
AcDbEntity
  8
LC-003-002-----0
  6
CONTINUOUS
 62
             7
100
AcDbCircle
 10
-72.0000125865528
 20
11.25013830458846
 40
1.25
100
AcDbArc
 50
-90.0
 51
90.0
  0
ARC
  5
D6
100
AcDbEntity
  8
LC-009-002-RND-0
  6
CONTINUOUS
 62
             7
100
AcDbCircle
 10
-72.0000125865528
 20
5.00013830458846
 40
0.5
100
AcDbArc
 50
90.0
 51
180.0
  0
ARC
  5
D5
100
AcDbEntity
  8
LC-003-002-----0
  6
CONTINUOUS
 62
             7
100
AcDbCircle
 10
-72.0000125865528
 20
6.75013830458846
 40
1.25
100
AcDbArc
 50
-90.0
 51
90.0
  0
ARC
  5
D4
100
AcDbEntity
  8
LC-009-002-RND-0
  6
CONTINUOUS
 62
             7
100
AcDbCircle
 10
71.9999874134472
 20
5.00013830458846
 40
0.5
100
AcDbArc
 50
0.0
 51
90.0
  0
ARC
  5
D3
100
AcDbEntity
  8
LC-003-002-----0
  6
CONTINUOUS
 62
             7
100
AcDbCircle
 10
71.9999874134472
 20
6.75013830458846
 40
1.25
100
AcDbArc
 50
90.0
 51
-90.0
  0
ARC
  5
D2
100
AcDbEntity
  8
LC-003-002-----0
  6
CONTINUOUS
 62
             7
100
AcDbCircle
 10
71.9999874134472
 20
2.25013830458846
 40
1.25
100
AcDbArc
 50
90.0
 51
-90.0
  0
ARC
  5
D1
100
AcDbEntity
  8
LC-009-002-RND-0
  6
CONTINUOUS
 62
             7
100
AcDbCircle
 10
71.9999874134472
 20
0.50013830458846
 40
0.5
100
AcDbArc
 50
0.0
 51
90.0
  0
ARC
  5
D0
100
AcDbEntity
  8
LC-009-002-RND-0
  6
CONTINUOUS
 62
             7
100
AcDbCircle
 10
71.9999874134472
 20
4.00013830458846
 40
0.5
100
AcDbArc
 50
-90.0
 51
0.0
  0
ARC
  5
CF
100
AcDbEntity
  8
LC-003-002-----0
  6
CONTINUOUS
 62
             7
100
AcDbCircle
 10
-72.0000125865528
 20
2.25013830458846
 40
1.25
100
AcDbArc
 50
-90.0
 51
90.0
  0
ARC
  5
CE
100
AcDbEntity
  8
LC-009-002-RND-0
  6
CONTINUOUS
 62
             7
100
AcDbCircle
 10
-72.0000125865528
 20
0.50013830458846
 40
0.5
100
AcDbArc
 50
90.0
 51
180.0
  0
ARC
  5
CD
100
AcDbEntity
  8
LC-009-002-RND-0
  6
CONTINUOUS
 62
             7
100
AcDbCircle
 10
-72.0000125865528
 20
4.00013830458846
 40
0.5
100
AcDbArc
 50
180.0
 51
-90.0
  0
LINE
  5
CC
100
AcDbEntity
  8
LC-003-002-----0
  6
CONTINUOUS
 62
             7
100
AcDbLine
 10
72.4999874134472
 20
51.50013830458847
 11
72.4999874134472
 21
49.00013830458847
  0
LINE
  5
CB
100
AcDbEntity
  8
LC-003-002-----0
  6
CONTINUOUS
 62
             7
100
AcDbLine
 10
72.4999874134472
 20
41.00013830458847
 11
72.4999874134472
 21
40.00013830458847
  0
LINE
  5
CA
100
AcDbEntity
  8
LC-003-002-----0
  6
CONTINUOUS
 62
             7
100
AcDbLine
 10
72.4999874134472
 20
36.50013830458847
 11
72.4999874134472
 21
35.50013830458847
  0
LINE
  5
C9
100
AcDbEntity
  8
LC-003-002-----0
  6
CONTINUOUS
 62
             7
100
AcDbLine
 10
72.4999874134472
 20
32.00013830458847
 11
72.4999874134472
 21
31.00013830458846
  0
LINE
  5
C8
100
AcDbEntity
  8
LC-003-002-----0
  6
CONTINUOUS
 62
             7
100
AcDbLine
 10
72.4999874134472
 20
27.50013830458846
 11
72.4999874134472
 21
26.50013830458846
  0
LINE
  5
C7
100
AcDbEntity
  8
LC-003-002-----0
  6
CONTINUOUS
 62
             7
100
AcDbLine
 10
72.4999874134472
 20
23.00013830458846
 11
72.4999874134472
 21
22.00013830458846
  0
LINE
  5
C6
100
AcDbEntity
  8
LC-003-002-----0
  6
CONTINUOUS
 62
             7
100
AcDbLine
 10
72.4999874134472
 20
18.50013830458846
 11
72.4999874134472
 21
17.50013830458846
  0
LINE
  5
C5
100
AcDbEntity
  8
LC-003-002-----0
  6
CONTINUOUS
 62
             7
100
AcDbLine
 10
72.4999874134472
 20
14.00013830458846
 11
72.4999874134472
 21
13.00013830458846
  0
LINE
  5
C4
100
AcDbEntity
  8
LC-003-002-----0
  6
CONTINUOUS
 62
             7
100
AcDbLine
 10
72.4999874134472
 20
9.50013830458846
 11
72.4999874134472
 21
8.50013830458846
  0
LINE
  5
C3
100
AcDbEntity
  8
LC-003-002-----0
  6
CONTINUOUS
 62
             7
100
AcDbLine
 10
71.9999874134472
 20
41.50013830458847
 11
71.9999874134472
 21
41.50013830458847
  0
LINE
  5
C2
100
AcDbEntity
  8
LC-003-002-----0
  6
CONTINUOUS
 62
             7
100
AcDbLine
 10
71.9999874134472
 20
37.00013830458847
 11
71.9999874134472
 21
37.00013830458847
  0
LINE
  5
C1
100
AcDbEntity
  8
LC-003-002-----0
  6
CONTINUOUS
 62
             7
100
AcDbLine
 10
71.9999874134472
 20
32.50013830458847
 11
71.9999874134472
 21
32.50013830458847
  0
LINE
  5
C0
100
AcDbEntity
  8
LC-003-002-----0
  6
CONTINUOUS
 62
             7
100
AcDbLine
 10
71.9999874134472
 20
28.00013830458846
 11
71.9999874134472
 21
28.00013830458846
  0
LINE
  5
BF
100
AcDbEntity
  8
LC-003-002-----0
  6
CONTINUOUS
 62
             7
100
AcDbLine
 10
71.9999874134472
 20
23.50013830458846
 11
71.9999874134472
 21
23.50013830458846
  0
LINE
  5
BE
100
AcDbEntity
  8
LC-003-002-----0
  6
CONTINUOUS
 62
             7
100
AcDbLine
 10
71.9999874134472
 20
19.00013830458846
 11
71.9999874134472
 21
19.00013830458846
  0
LINE
  5
BD
100
AcDbEntity
  8
LC-003-002-----0
  6
CONTINUOUS
 62
             7
100
AcDbLine
 10
71.9999874134472
 20
14.50013830458846
 11
71.9999874134472
 21
14.50013830458846
  0
LINE
  5
BC
100
AcDbEntity
  8
LC-003-002-----0
  6
CONTINUOUS
 62
             7
100
AcDbLine
 10
71.9999874134472
 20
10.00013830458846
 11
71.9999874134472
 21
10.00013830458846
  0
LINE
  5
BB
100
AcDbEntity
  8
LC-003-002-----0
  6
CONTINUOUS
 62
             7
100
AcDbLine
 10
71.9999874134472
 20
44.00013830458847
 11
71.9999874134472
 21
44.00013830458847
  0
LINE
  5
BA
100
AcDbEntity
  8
LC-003-002-----0
  6
CONTINUOUS
 62
             7
100
AcDbLine
 10
71.9999874134472
 20
39.50013830458847
 11
71.9999874134472
 21
39.50013830458847
  0
LINE
  5
B9
100
AcDbEntity
  8
LC-003-002-----0
  6
CONTINUOUS
 62
             7
100
AcDbLine
 10
71.9999874134472
 20
35.00013830458847
 11
71.9999874134472
 21
35.00013830458847
  0
LINE
  5
B8
100
AcDbEntity
  8
LC-003-002-----0
  6
CONTINUOUS
 62
             7
100
AcDbLine
 10
71.9999874134472
 20
30.50013830458846
 11
71.9999874134472
 21
30.50013830458846
  0
LINE
  5
B7
100
AcDbEntity
  8
LC-003-002-----0
  6
CONTINUOUS
 62
             7
100
AcDbLine
 10
71.9999874134472
 20
26.00013830458846
 11
71.9999874134472
 21
26.00013830458846
  0
LINE
  5
B6
100
AcDbEntity
  8
LC-003-002-----0
  6
CONTINUOUS
 62
             7
100
AcDbLine
 10
71.9999874134472
 20
21.50013830458846
 11
71.9999874134472
 21
21.50013830458846
  0
LINE
  5
B5
100
AcDbEntity
  8
LC-003-002-----0
  6
CONTINUOUS
 62
             7
100
AcDbLine
 10
71.9999874134472
 20
17.00013830458846
 11
71.9999874134472
 21
17.00013830458846
  0
LINE
  5
B4
100
AcDbEntity
  8
LC-003-002-----0
  6
CONTINUOUS
 62
             7
100
AcDbLine
 10
71.9999874134472
 20
12.50013830458846
 11
71.9999874134472
 21
12.50013830458846
  0
LINE
  5
B3
100
AcDbEntity
  8
LC-003-002-----0
  6
CONTINUOUS
 62
             7
100
AcDbLine
 10
71.9999874134472
 20
8.00013830458846
 11
71.9999874134472
 21
8.00013830458846
  0
LINE
  5
B2
100
AcDbEntity
  8
LC-003-002-----0
  6
CONTINUOUS
 62
             7
100
AcDbLine
 10
72.4999874134472
 20
47.00013830458847
 11
72.4999874134472
 21
44.50013830458847
  0
LINE
  5
B1
100
AcDbEntity
  8
LC-003-002-----0
  6
CONTINUOUS
 62
             7
100
AcDbLine
 10
72.9999874134472
 20
49.00013830458847
 11
72.9999874134472
 21
47.00013830458847
  0
LINE
  5
B0
100
AcDbEntity
  8
LC-003-002-----0
  6
CONTINUOUS
 62
             7
100
AcDbLine
 10
72.9999874134472
 20
47.00013830458847
 11
72.4999874134472
 21
47.00013830458847
  0
LINE
  5
AF
100
AcDbEntity
  8
LC-003-002-----0
  6
CONTINUOUS
 62
             7
100
AcDbLine
 10
72.4999874134472
 20
51.50013830458847
 11
73.4999874134472
 21
51.50013830458847
  0
LINE
  5
AE
100
AcDbEntity
  8
LC-003-002-----0
  6
CONTINUOUS
 62
             7
100
AcDbLine
 10
72.9999874134472
 20
49.00013830458847
 11
72.4999874134472
 21
49.00013830458847
  0
LINE
  5
AD
100
AcDbEntity
  8
LC-003-002-----0
  6
CONTINUOUS
 62
             7
100
AcDbLine
 10
73.4999874134472
 20
65.00013830458846
 11
73.4999874134472
 21
51.50013830458847
  0
LINE
  5
AC
100
AcDbEntity
  8
LC-003-002-----0
  6
CONTINUOUS
 62
             7
100
AcDbLine
 10
73.4999874134472
 20
65.00013830458846
 11
-73.5000125865528
 21
65.00013830458846
  0
LINE
  5
AB
100
AcDbEntity
  8
LC-003-002-----0
  6
CONTINUOUS
 62
             7
100
AcDbLine
 10
-72.5000125865528
 20
51.50013830458847
 11
-72.5000125865528
 21
49.00013830458847
  0
LINE
  5
AA
100
AcDbEntity
  8
LC-003-002-----0
  6
CONTINUOUS
 62
             7
100
AcDbLine
 10
-72.5000125865528
 20
41.00013830458847
 11
-72.5000125865528
 21
40.00013830458847
  0
LINE
  5
A9
100
AcDbEntity
  8
LC-003-002-----0
  6
CONTINUOUS
 62
             7
100
AcDbLine
 10
-72.5000125865528
 20
36.50013830458847
 11
-72.5000125865528
 21
35.50013830458847
  0
LINE
  5
A8
100
AcDbEntity
  8
LC-003-002-----0
  6
CONTINUOUS
 62
             7
100
AcDbLine
 10
-72.5000125865528
 20
32.00013830458847
 11
-72.5000125865528
 21
31.00013830458846
  0
LINE
  5
A7
100
AcDbEntity
  8
LC-003-002-----0
  6
CONTINUOUS
 62
             7
100
AcDbLine
 10
-72.5000125865528
 20
27.50013830458846
 11
-72.5000125865528
 21
26.50013830458846
  0
LINE
  5
A6
100
AcDbEntity
  8
LC-003-002-----0
  6
CONTINUOUS
 62
             7
100
AcDbLine
 10
-72.5000125865528
 20
23.00013830458846
 11
-72.5000125865528
 21
22.00013830458846
  0
LINE
  5
A5
100
AcDbEntity
  8
LC-003-002-----0
  6
CONTINUOUS
 62
             7
100
AcDbLine
 10
-72.5000125865528
 20
18.50013830458846
 11
-72.5000125865528
 21
17.50013830458846
  0
LINE
  5
A4
100
AcDbEntity
  8
LC-003-002-----0
  6
CONTINUOUS
 62
             7
100
AcDbLine
 10
-72.5000125865528
 20
14.00013830458846
 11
-72.5000125865528
 21
13.00013830458846
  0
LINE
  5
A3
100
AcDbEntity
  8
LC-003-002-----0
  6
CONTINUOUS
 62
             7
100
AcDbLine
 10
-72.5000125865528
 20
9.50013830458846
 11
-72.5000125865528
 21
8.50013830458846
  0
LINE
  5
A2
100
AcDbEntity
  8
LC-003-002-----0
  6
CONTINUOUS
 62
             7
100
AcDbLine
 10
-72.0000125865528
 20
41.50013830458847
 11
-72.0000125865528
 21
41.50013830458847
  0
LINE
  5
A1
100
AcDbEntity
  8
LC-003-002-----0
  6
CONTINUOUS
 62
             7
100
AcDbLine
 10
-72.0000125865528
 20
37.00013830458847
 11
-72.0000125865528
 21
37.00013830458847
  0
LINE
  5
A0
100
AcDbEntity
  8
LC-003-002-----0
  6
CONTINUOUS
 62
             7
100
AcDbLine
 10
-72.0000125865528
 20
32.50013830458847
 11
-72.0000125865528
 21
32.50013830458847
  0
LINE
  5
9F
100
AcDbEntity
  8
LC-003-002-----0
  6
CONTINUOUS
 62
             7
100
AcDbLine
 10
-72.0000125865528
 20
28.00013830458846
 11
-72.0000125865528
 21
28.00013830458846
  0
LINE
  5
9E
100
AcDbEntity
  8
LC-003-002-----0
  6
CONTINUOUS
 62
             7
100
AcDbLine
 10
-72.0000125865528
 20
23.50013830458846
 11
-72.0000125865528
 21
23.50013830458846
  0
LINE
  5
9D
100
AcDbEntity
  8
LC-003-002-----0
  6
CONTINUOUS
 62
             7
100
AcDbLine
 10
-72.0000125865528
 20
19.00013830458846
 11
-72.0000125865528
 21
19.00013830458846
  0
LINE
  5
9C
100
AcDbEntity
  8
LC-003-002-----0
  6
CONTINUOUS
 62
             7
100
AcDbLine
 10
-72.0000125865528
 20
14.50013830458846
 11
-72.0000125865528
 21
14.50013830458846
  0
LINE
  5
9B
100
AcDbEntity
  8
LC-003-002-----0
  6
CONTINUOUS
 62
             7
100
AcDbLine
 10
-72.0000125865528
 20
10.00013830458846
 11
-72.0000125865528
 21
10.00013830458846
  0
LINE
  5
9A
100
AcDbEntity
  8
LC-003-002-----0
  6
CONTINUOUS
 62
             7
100
AcDbLine
 10
-72.0000125865528
 20
44.00013830458847
 11
-72.0000125865528
 21
44.00013830458847
  0
LINE
  5
99
100
AcDbEntity
  8
LC-003-002-----0
  6
CONTINUOUS
 62
             7
100
AcDbLine
 10
-72.0000125865528
 20
39.50013830458847
 11
-72.0000125865528
 21
39.50013830458847
  0
LINE
  5
98
100
AcDbEntity
  8
LC-003-002-----0
  6
CONTINUOUS
 62
             7
100
AcDbLine
 10
-72.0000125865528
 20
35.00013830458847
 11
-72.0000125865528
 21
35.00013830458847
  0
LINE
  5
97
100
AcDbEntity
  8
LC-003-002-----0
  6
CONTINUOUS
 62
             7
100
AcDbLine
 10
-72.0000125865528
 20
30.50013830458846
 11
-72.0000125865528
 21
30.50013830458846
  0
LINE
  5
96
100
AcDbEntity
  8
LC-003-002-----0
  6
CONTINUOUS
 62
             7
100
AcDbLine
 10
-72.0000125865528
 20
26.00013830458846
 11
-72.0000125865528
 21
26.00013830458846
  0
LINE
  5
95
100
AcDbEntity
  8
LC-003-002-----0
  6
CONTINUOUS
 62
             7
100
AcDbLine
 10
-72.0000125865528
 20
21.50013830458846
 11
-72.0000125865528
 21
21.50013830458846
  0
LINE
  5
94
100
AcDbEntity
  8
LC-003-002-----0
  6
CONTINUOUS
 62
             7
100
AcDbLine
 10
-72.0000125865528
 20
17.00013830458846
 11
-72.0000125865528
 21
17.00013830458846
  0
LINE
  5
93
100
AcDbEntity
  8
LC-003-002-----0
  6
CONTINUOUS
 62
             7
100
AcDbLine
 10
-72.0000125865528
 20
12.50013830458846
 11
-72.0000125865528
 21
12.50013830458846
  0
LINE
  5
92
100
AcDbEntity
  8
LC-003-002-----0
  6
CONTINUOUS
 62
             7
100
AcDbLine
 10
-72.0000125865528
 20
8.00013830458846
 11
-72.0000125865528
 21
8.00013830458846
  0
LINE
  5
91
100
AcDbEntity
  8
LC-003-002-----0
  6
CONTINUOUS
 62
             7
100
AcDbLine
 10
-72.5000125865528
 20
47.00013830458847
 11
-72.5000125865528
 21
44.50013830458847
  0
LINE
  5
90
100
AcDbEntity
  8
LC-003-002-----0
  6
CONTINUOUS
 62
             7
100
AcDbLine
 10
-73.0000125865528
 20
49.00013830458847
 11
-73.0000125865528
 21
47.00013830458847
  0
LINE
  5
8F
100
AcDbEntity
  8
LC-003-002-----0
  6
CONTINUOUS
 62
             7
100
AcDbLine
 10
-73.0000125865528
 20
47.00013830458847
 11
-72.5000125865528
 21
47.00013830458847
  0
LINE
  5
8E
100
AcDbEntity
  8
LC-003-002-----0
  6
CONTINUOUS
 62
             7
100
AcDbLine
 10
-72.5000125865528
 20
51.50013830458847
 11
-73.5000125865528
 21
51.50013830458847
  0
LINE
  5
8D
100
AcDbEntity
  8
LC-003-002-----0
  6
CONTINUOUS
 62
             7
100
AcDbLine
 10
-73.0000125865528
 20
49.00013830458847
 11
-72.5000125865528
 21
49.00013830458847
  0
LINE
  5
8C
100
AcDbEntity
  8
LC-003-002-----0
  6
CONTINUOUS
 62
             7
100
AcDbLine
 10
-73.5000125865528
 20
65.00013830458846
 11
-73.5000125865528
 21
51.50013830458847
  0
LINE
  5
8B
100
AcDbEntity
  8
1
  6
CONTINUOUS
 62
             7
100
AcDbLine
 10
-72.5000125865528
 20
51.50013830458847
 11
72.4999874134472
 21
51.50013830458847
  0
LINE
  5
8A
100
AcDbEntity
  8
1
  6
CONTINUOUS
 62
             7
100
AcDbLine
 10
-72.5000125865528
 20
49.00013830458847
 11
72.4999874134472
 21
49.00013830458847
  0
LINE
  5
89
100
AcDbEntity
  8
1
  6
CONTINUOUS
 62
             7
100
AcDbLine
 10
-72.5000125865528
 20
47.00013830458847
 11
72.4999874134472
 21
47.00013830458847
  0
LINE
  5
88
100
AcDbEntity
  8
1
  6
CONTINUOUS
 62
             7
100
AcDbLine
 10
71.9999874134472
 20
44.00013830458847
 11
-72.0000125865528
 21
44.00013830458847
  0
LINE
  5
87
100
AcDbEntity
  8
1
  6
CONTINUOUS
 62
             7
100
AcDbLine
 10
-72.0000125865528
 20
41.50013830458847
 11
71.9999874134472
 21
41.50013830458847
  0
LINE
  5
86
100
AcDbEntity
  8
1
  6
CONTINUOUS
 62
             7
100
AcDbLine
 10
-72.0000125865528
 20
39.50013830458847
 11
71.9999874134472
 21
39.50013830458847
  0
LINE
  5
85
100
AcDbEntity
  8
1
  6
CONTINUOUS
 62
             7
100
AcDbLine
 10
-72.0000125865528
 20
37.00013830458847
 11
71.9999874134472
 21
37.00013830458847
  0
LINE
  5
84
100
AcDbEntity
  8
1
  6
CONTINUOUS
 62
             7
100
AcDbLine
 10
-72.0000125865528
 20
35.00013830458847
 11
71.9999874134472
 21
35.00013830458847
  0
LINE
  5
83
100
AcDbEntity
  8
1
  6
CONTINUOUS
 62
             7
100
AcDbLine
 10
-72.0000125865528
 20
32.50013830458847
 11
71.9999874134472
 21
32.50013830458847
  0
LINE
  5
82
100
AcDbEntity
  8
1
  6
CONTINUOUS
 62
             7
100
AcDbLine
 10
-72.0000125865528
 20
30.50013830458846
 11
71.9999874134472
 21
30.50013830458846
  0
LINE
  5
81
100
AcDbEntity
  8
1
  6
CONTINUOUS
 62
             7
100
AcDbLine
 10
-72.0000125865528
 20
28.00013830458846
 11
71.9999874134472
 21
28.00013830458846
  0
LINE
  5
80
100
AcDbEntity
  8
1
  6
CONTINUOUS
 62
             7
100
AcDbLine
 10
-72.0000125865528
 20
26.00013830458846
 11
71.9999874134472
 21
26.00013830458846
  0
LINE
  5
7F
100
AcDbEntity
  8
1
  6
CONTINUOUS
 62
             7
100
AcDbLine
 10
-72.0000125865528
 20
23.50013830458846
 11
71.9999874134472
 21
23.50013830458846
  0
LINE
  5
7E
100
AcDbEntity
  8
1
  6
CONTINUOUS
 62
             7
100
AcDbLine
 10
-72.0000125865528
 20
21.50013830458846
 11
71.9999874134472
 21
21.50013830458846
  0
LINE
  5
7D
100
AcDbEntity
  8
1
  6
CONTINUOUS
 62
             7
100
AcDbLine
 10
-72.0000125865528
 20
19.00013830458846
 11
71.9999874134472
 21
19.00013830458846
  0
LINE
  5
7C
100
AcDbEntity
  8
1
  6
CONTINUOUS
 62
             7
100
AcDbLine
 10
-72.0000125865528
 20
17.00013830458846
 11
71.9999874134472
 21
17.00013830458846
  0
LINE
  5
7B
100
AcDbEntity
  8
1
  6
CONTINUOUS
 62
             7
100
AcDbLine
 10
-72.0000125865528
 20
14.50013830458846
 11
-59.92481954092015
 21
14.50013830458846
  0
LINE
  5
7A
100
AcDbEntity
  8
1
  6
CONTINUOUS
 62
             7
100
AcDbLine
 10
-72.0000125865528
 20
12.50013830458846
 11
-61.98272264566246
 21
12.50013830458846
  0
LINE
  5
79
100
AcDbEntity
  8
1
  6
CONTINUOUS
 62
             7
100
AcDbLine
 10
-72.0000125865528
 20
10.00013830458846
 11
-62.37456872508111
 21
10.00013830458846
  0
LINE
  5
78
100
AcDbEntity
  8
LC-003-002-----0
  6
CONTINUOUS
 62
             7
100
AcDbLine
 10
-72.5000125865528
 20
5.00013830458846
 11
-72.5000125865528
 21
4.00013830458846
  0
LINE
  5
77
100
AcDbEntity
  8
LC-003-002-----0
  6
CONTINUOUS
 62
             7
100
AcDbLine
 10
-72.0000125865528
 20
5.50013830458846
 11
-72.0000125865528
 21
5.50013830458846
  0
LINE
  5
76
100
AcDbEntity
  8
LC-003-002-----0
  6
CONTINUOUS
 62
             7
100
AcDbLine
 10
72.4999874134472
 20
5.00013830458846
 11
72.4999874134472
 21
4.00013830458846
  0
LINE
  5
75
100
AcDbEntity
  8
LC-003-002-----0
  6
CONTINUOUS
 62
             7
100
AcDbLine
 10
71.9999874134472
 20
5.50013830458846
 11
71.9999874134472
 21
5.50013830458846
  0
LINE
  5
74
100
AcDbEntity
  8
1
  6
CONTINUOUS
 62
             7
100
AcDbLine
 10
-72.0000125865528
 20
3.50013830458846
 11
-57.5256826034212
 21
3.50013830458846
  0
LINE
  5
73
100
AcDbEntity
  8
1
  6
CONTINUOUS
 62
             7
100
AcDbLine
 10
-72.0000125865528
 20
5.50013830458846
 11
-59.2408861642538
 21
5.50013830458846
  0
LINE
  5
72
100
AcDbEntity
  8
1
  6
CONTINUOUS
 62
             7
100
AcDbLine
 10
-72.0000125865528
 20
1.00013830458846
 11
-55.3816781523805
 21
1.00013830458846
  0
LINE
  5
71
100
AcDbEntity
  8
LC-003-002-----0
  6
CONTINUOUS
 62
             7
100
AcDbLine
 10
71.9999874134472
 20
1.00013830458846
 11
71.9999874134472
 21
1.00013830458846
  0
LINE
  5
70
100
AcDbEntity
  8
LC-003-002-----0
  6
CONTINUOUS
 62
             7
100
AcDbLine
 10
71.9999874134472
 20
3.50013830458846
 11
71.9999874134472
 21
3.50013830458846
  0
LINE
  5
6F
100
AcDbEntity
  8
LC-003-002-----0
  6
CONTINUOUS
 62
             7
100
AcDbLine
 10
-72.0000125865528
 20
1.00013830458846
 11
-72.0000125865528
 21
1.00013830458846
  0
LINE
  5
6E
100
AcDbEntity
  8
LC-003-002-----0
  6
CONTINUOUS
 62
             7
100
AcDbLine
 10
-72.0000125865528
 20
3.50013830458846
 11
-72.0000125865528
 21
3.50013830458846
  0
LINE
  5
6D
100
AcDbEntity
  8
1
  6
PHANTOM
 62
             2
100
AcDbLine
 10
-0.0000125865528
 20
68.15876523427062
 11
-0.0000125865528
 21
-27.73468614885206
  0
LINE
  5
6C
100
AcDbEntity
  8
1
  6
CONTINUOUS
 62
             7
100
AcDbLine
 10
-72.5000125865528
 20
0.50013830458846
 11
-72.5000125865528
 21
-0.00024404309857
  0
LINE
  5
6B
100
AcDbEntity
  8
1
  6
CONTINUOUS
 62
             7
100
AcDbLine
 10
72.4999874134472
 20
0.50013830458846
 11
72.4999874134472
 21
-0.00024404310227
  0
LINE
  5
6A
100
AcDbEntity
  8
1
  6
CONTINUOUS
 62
             7
100
AcDbLine
 10
-38.48116016550833
 20
1.00013830458846
 11
38.48113399240484
 21
1.00013830458846
  0
LINE
  5
69
100
AcDbEntity
  8
1
  6
CONTINUOUS
 62
             7
100
AcDbLine
 10
-36.3393366636266
 20
3.50013830458846
 11
36.33712949052315
 21
3.50013830458846
  0
LINE
  5
68
100
AcDbEntity
  8
1
  6
CONTINUOUS
 62
             7
100
AcDbLine
 10
-34.62195206212127
 20
5.50013830458846
 11
34.62192588901782
 21
5.50013830458846
  0
LINE
  5
67
100
AcDbEntity
  8
1
  6
CONTINUOUS
 62
             7
100
AcDbLine
 10
-72.0000125865528
 20
8.00013830458846
 11
-61.3805791824257
 21
8.00013830458846
  0
LINE
  5
66
100
AcDbEntity
  8
1
  6
CONTINUOUS
 62
             7
100
AcDbLine
 10
-31.49045044802219
 20
10.00013830458846
 11
31.49042427491892
 21
10.00013830458846
  0
LINE
  5
65
100
AcDbEntity
  8
1
  6
CONTINUOUS
 62
             7
100
AcDbLine
 10
-31.88229652744084
 20
12.50013830458846
 11
31.88227035433758
 21
12.50013830458846
  0
LINE
  5
64
100
AcDbEntity
  8
1
  6
CONTINUOUS
 62
             7
100
AcDbLine
 10
-33.93575263218335
 20
14.50013830458846
 11
33.93572645907985
 21
14.50013830458846
  0
LINE
  5
63
100
AcDbEntity
  8
1
  6
CONTINUOUS
 62
             7
100
AcDbLine
 10
-52.18648404638763
 20
8.00013830458846
 11
-49.93028558655173
 21
8.00013830458846
  0
LINE
  5
62
100
AcDbEntity
  8
1
  6
CONTINUOUS
 62
             7
100
AcDbLine
 10
-52.7799972797391
 20
10.00013830458846
 11
-49.93028558655173
 21
10.00013830458846
  0
LINE
  5
61
100
AcDbEntity
  8
1
  6
CONTINUOUS
 62
             7
100
AcDbLine
 10
-53.52188882142824
 20
12.50013830458846
 11
-49.52774739258829
 21
12.50013830458846
  0
LINE
  5
60
100
AcDbEntity
  8
1
  6
CONTINUOUS
 62
             7
100
AcDbLine
 10
-55.0814878032709
 20
14.50013830458846
 11
-38.78353136983222
 21
14.50013830458846
  0
LINE
  5
5F
100
AcDbEntity
  8
1
  6
CONTINUOUS
 62
             7
100
AcDbLine
 10
-40.34095029330641
 20
12.50013830458846
 11
-44.33282378051516
 21
12.50013830458846
  0
LINE
  5
5E
100
AcDbEntity
  8
1
  6
CONTINUOUS
 62
             7
100
AcDbLine
 10
-43.93028558655173
 20
10.00013830458846
 11
-41.08284139546029
 21
10.00013830458846
  0
LINE
  5
5D
100
AcDbEntity
  8
1
  6
CONTINUOUS
 62
             7
100
AcDbLine
 10
-43.93028558655173
 20
8.00013830458846
 11
-41.67635427718349
 21
8.00013830458846
  0
LINE
  5
5C
100
AcDbEntity
  8
1
  6
CONTINUOUS
 62
             7
100
AcDbLine
 10
55.37947097927698
 20
1.00013830458846
 11
71.9999874134472
 21
1.00013830458846
  0
LINE
  5
5B
100
AcDbEntity
  8
1
  6
CONTINUOUS
 62
             7
100
AcDbLine
 10
57.52347543031768
 20
3.50013830458846
 11
71.9999874134472
 21
3.50013830458846
  0
LINE
  5
5A
100
AcDbEntity
  8
1
  6
CONTINUOUS
 62
             7
100
AcDbLine
 10
59.23867899115029
 20
5.50013830458846
 11
71.9999874134472
 21
5.50013830458846
  0
LINE
  5
59
100
AcDbEntity
  8
1
  6
CONTINUOUS
 62
             7
100
AcDbLine
 10
-32.48443999067755
 20
8.00013830458846
 11
32.48441381757433
 21
8.00013830458846
  0
LINE
  5
58
100
AcDbEntity
  8
1
  6
CONTINUOUS
 62
             7
100
AcDbLine
 10
71.9999874134472
 20
8.00013830458846
 11
61.38055300932253
 21
8.00013830458846
  0
LINE
  5
57
100
AcDbEntity
  8
1
  6
CONTINUOUS
 62
             7
100
AcDbLine
 10
62.3745425519779
 20
10.00013830458846
 11
71.9999874134472
 21
10.00013830458846
  0
LINE
  5
56
100
AcDbEntity
  8
1
  6
CONTINUOUS
 62
             7
100
AcDbLine
 10
61.98269647255923
 20
12.50013830458846
 11
71.9999874134472
 21
12.50013830458846
  0
LINE
  5
55
100
AcDbEntity
  8
1
  6
CONTINUOUS
 62
             7
100
AcDbLine
 10
59.92479336781664
 20
14.50013830458846
 11
71.9999874134472
 21
14.50013830458846
  0
LINE
  5
54
100
AcDbEntity
  8
1
  6
CONTINUOUS
 62
             7
100
AcDbLine
 10
38.78350519672907
 20
14.50013830458846
 11
55.0814616301678
 21
14.50013830458846
  0
LINE
  5
53
100
AcDbEntity
  8
1
  6
CONTINUOUS
 62
             7
100
AcDbLine
 10
40.34092412020291
 20
12.50013830458846
 11
44.33279760741178
 21
12.50013830458846
  0
LINE
  5
52
100
AcDbEntity
  8
1
  6
CONTINUOUS
 62
             7
100
AcDbLine
 10
49.52772121948478
 20
12.50013830458846
 11
53.52186264832486
 21
12.50013830458846
  0
LINE
  5
51
100
AcDbEntity
  8
1
  6
CONTINUOUS
 62
             7
100
AcDbLine
 10
52.77997110663566
 20
10.00013830458846
 11
49.93025941344828
 21
10.00013830458846
  0
LINE
  5
50
100
AcDbEntity
  8
1
  6
CONTINUOUS
 62
             7
100
AcDbLine
 10
49.93025941344828
 20
8.00013830458846
 11
52.1864578732843
 21
8.00013830458846
  0
LINE
  5
4F
100
AcDbEntity
  8
1
  6
CONTINUOUS
 62
             7
100
AcDbLine
 10
41.67632810408006
 20
8.00013830458846
 11
43.93025941344828
 21
8.00013830458846
  0
LINE
  5
4E
100
AcDbEntity
  8
1
  6
CONTINUOUS
 62
             7
100
AcDbLine
 10
43.93025941344828
 20
10.00013830458846
 11
41.08281522235686
 21
10.00013830458846
  0
POINT
  5
4D
100
AcDbEntity
  8
0
 62
             7
100
AcDbPoint
 10
73.4999874134472
 20
65.00013830458846
  0
POINT
  5
4C
100
AcDbEntity
  8
0
 62
             7
100
AcDbPoint
 10
73.4999874134472
 20
65.00013830458846
  0
POINT
  5
4B
100
AcDbEntity
  8
0
 62
             7
100
AcDbPoint
 10
-73.5000125865528
 20
65.00013830458846
  0
ENDBLK
  5
109
100
AcDbEntity
  8
0
100
AcDbBlockEnd
  0
BLOCK
  5
31
100
AcDbEntity
  8
0
100
AcDbBlockBegin
  2
062B_2E_AUFSATZRAHMEN__2
 70
             0
 10
-145.5815597586363
 20
-245.06386488344759
 30
0.0
  3
062B_2E_AUFSATZRAHMEN__2
  1

  0
INSERT
  5
32
100
AcDbEntity
  8
1
100
AcDbBlockReference
  2
062B_2E_AUFSATZRAHMEN__1
 10
-145.5815597586367
 20
-343.8951779635106
  0
ENDBLK
  5
10A
100
AcDbEntity
  8
0
100
AcDbBlockEnd
  0
BLOCK
  5
34
100
AcDbEntity
  8
0
100
AcDbBlockBegin
  2
HL_62_1_7_DACHABLAUF
 70
             0
 10
-50.00769592725339
 20
67.62645532602301
 30
0.0
  3
HL_62_1_7_DACHABLAUF
  1

  0
ARC
  5
192
100
AcDbEntity
  8
LC-001-002-----0
  6
CONTINUOUS
 62
             7
100
AcDbCircle
 10
57.24250741344829
 20
9.61154611062489
 40
5.57610900000024
100
AcDbArc
 50
40.08825100000215
 51
90.09138399999954
  0
ARC
  5
191
100
AcDbEntity
  8
LC-002-002-RND-0
  6
CONTINUOUS
 62
             7
100
AcDbCircle
 10
57.2359494134483
 20
11.21931411062497
 40
3.9250000000003
100
AcDbArc
 50
89.87259000000063
 51
155.89410499999735
  0
ARC
  5
190
100
AcDbEntity
  8
LC-002-002-RND-0
  6
CONTINUOUS
 62
             7
100
AcDbCircle
 10
58.50796141344826
 20
10.67480511062485
 40
3.92499999999984
100
AcDbArc
 50
-44.49581399999662
 51
40.0882509999994
  0
ARC
  5
18F
100
AcDbEntity
  8
LC-002-002-RND-0
  6
CONTINUOUS
 62
             7
100
AcDbCircle
 10
35.35700541344826
 20
10.67480511062485
 40
3.925
100
AcDbArc
 50
139.91174899999999
 51
-135.50418600000273
  0
ARC
  5
18E
100
AcDbEntity
  8
LC-001-002-----0
  6
CONTINUOUS
 62
             7
100
AcDbCircle
 10
36.62019241344827
 20
9.61154611062489
 40
5.57610900000018
100
AcDbArc
 50
89.90861599999981
 51
139.91174899999774
  0
ARC
  5
18D
100
AcDbEntity
  8
LC-002-002-RND-0
  6
CONTINUOUS
 62
             7
100
AcDbCircle
 10
36.62901741344827
 20
11.21931411062497
 40
3.92500000000015
100
AcDbArc
 50
24.10589500000256
 51
90.12740999999916
  0
ARC
  5
18C
100
AcDbEntity
  8
LC-001-002-----0
  6
CONTINUOUS
 62
             7
100
AcDbCircle
 10
36.61801241344826
 20
9.61154611062489
 40
5.57610900000018
100
AcDbArc
 50
89.90861599999981
 51
139.91174899999774
  0
ARC
  5
18B
100
AcDbEntity
  8
LC-002-002-RND-0
  6
CONTINUOUS
 62
             7
100
AcDbCircle
 10
36.62683641344827
 20
11.21931411062497
 40
3.92500000000014
100
AcDbArc
 50
24.10589500000265
 51
90.12740999999916
  0
ARC
  5
18A
100
AcDbEntity
  8
LC-001-002-----0
  6
CONTINUOUS
 62
             7
100
AcDbCircle
 10
-57.24253358655179
 20
9.61154611062489
 40
5.57610900000018
100
AcDbArc
 50
89.9086159999993
 51
139.91174899999703
  0
ARC
  5
189
100
AcDbEntity
  8
LC-002-002-RND-0
  6
CONTINUOUS
 62
             7
100
AcDbCircle
 10
-57.23597558655175
 20
11.21931411062497
 40
3.92500000000014
100
AcDbArc
 50
24.10589500000265
 51
90.12740999999939
  0
ARC
  5
188
100
AcDbEntity
  8
LC-002-002-RND-0
  6
CONTINUOUS
 62
             7
100
AcDbCircle
 10
-58.50798758655166
 20
10.67480511062485
 40
3.92500000000013
100
AcDbArc
 50
139.91174900000161
 51
-135.50418600000273
  0
ARC
  5
187
100
AcDbEntity
  8
LC-002-002-RND-0
  6
CONTINUOUS
 62
             7
100
AcDbCircle
 10
-35.3570315865517
 20
10.67480511062485
 40
3.92499999999979
100
AcDbArc
 50
-44.49581399999727
 51
40.0882510000006
  0
ARC
  5
186
100
AcDbEntity
  8
LC-001-002-----0
  6
CONTINUOUS
 62
             7
100
AcDbCircle
 10
-36.62021858655172
 20
9.61154611062489
 40
5.57610900000023
100
AcDbArc
 50
40.08825100000225
 51
90.09138399999954
  0
ARC
  5
185
100
AcDbEntity
  8
LC-002-002-RND-0
  6
CONTINUOUS
 62
             7
100
AcDbCircle
 10
-36.62904358655172
 20
11.21931411062497
 40
3.9250000000003
100
AcDbArc
 50
89.8725899999998
 51
155.89410499999735
  0
ARC
  5
184
100
AcDbEntity
  8
LC-001-002-----0
  6
CONTINUOUS
 62
             7
100
AcDbCircle
 10
-36.61803858655171
 20
9.61154611062489
 40
5.57610900000023
100
AcDbArc
 50
40.08825100000225
 51
90.09138399999954
  0
ARC
  5
183
100
AcDbEntity
  8
LC-002-002-RND-0
  6
CONTINUOUS
 62
             7
100
AcDbCircle
 10
-36.62686258655171
 20
11.21931411062497
 40
3.9250000000003
100
AcDbArc
 50
89.87259000000063
 51
155.89410499999769
  0
ARC
  5
182
100
AcDbEntity
  8
LC-001-002-----0
  6
CONTINUOUS
 62
             7
100
AcDbCircle
 10
-175.00000558655171
 20
-2.00062288937516
 40
1.99999999999988
100
AcDbArc
 50
90.0002119999987
 51
-179.99975200000532
  0
ARC
  5
181
100
AcDbEntity
  8
LC-001-002-----0
  6
CONTINUOUS
 62
             7
100
AcDbCircle
 10
174.99998541344829
 20
-1.99991888937506
 40
2.0
100
AcDbArc
 50
0.0
 51
90.0
  0
ARC
  5
180
100
AcDbEntity
  8
LC-001-002-----0
  6
CONTINUOUS
 62
             7
100
AcDbCircle
 10
-104.31572558655169
 20
9.75746611062505
 40
5.57610900000012
100
AcDbArc
 50
89.90861600000025
 51
139.91174899999834
  0
ARC
  5
17F
100
AcDbEntity
  8
LC-002-002-RND-0
  6
CONTINUOUS
 62
             7
100
AcDbCircle
 10
104.3117374134483
 20
11.36340511062497
 40
3.92499999999947
100
AcDbArc
 50
89.86242599999731
 51
155.88394099999414
  0
ARC
  5
17E
100
AcDbEntity
  8
LC-002-002-RND-0
  6
CONTINUOUS
 62
             7
100
AcDbCircle
 10
82.43019841344827
 20
10.82072511062495
 40
3.92499999999993
100
AcDbArc
 50
139.91174900000124
 51
-135.50418600000279
  0
ARC
  5
17D
100
AcDbEntity
  8
LC-001-002-----0
  6
CONTINUOUS
 62
             7
100
AcDbCircle
 10
83.69338541344828
 20
9.75746611062505
 40
5.57610900000012
100
AcDbArc
 50
89.90861600000039
 51
139.91174899999825
  0
ARC
  5
17C
100
AcDbEntity
  8
LC-002-002-RND-0
  6
CONTINUOUS
 62
             7
100
AcDbCircle
 10
83.70220941344829
 20
11.36523311062496
 40
3.92500000000045
100
AcDbArc
 50
24.10589500000256
 51
90.12740999999937
  0
ARC
  5
17B
100
AcDbEntity
  8
LC-001-002-----0
  6
CONTINUOUS
 62
             7
100
AcDbCircle
 10
104.3179664134483
 20
9.75746611062505
 40
5.57610900000004
100
AcDbArc
 50
40.08825100000309
 51
90.09138399999991
  0
ARC
  5
17A
100
AcDbEntity
  8
LC-002-002-RND-0
  6
CONTINUOUS
 62
             7
100
AcDbCircle
 10
105.58115341344831
 20
10.82072511062495
 40
3.92499999999986
100
AcDbArc
 50
-44.49581399999622
 51
40.08825100000305
  0
ARC
  5
179
100
AcDbEntity
  8
LC-002-002-RND-0
  6
CONTINUOUS
 62
             7
100
AcDbCircle
 10
-104.30916858655171
 20
11.36523311062496
 40
3.92500000000018
100
AcDbArc
 50
24.10589500000434
 51
90.12740999999959
  0
ARC
  5
178
100
AcDbEntity
  8
LC-002-002-RND-0
  6
CONTINUOUS
 62
             7
100
AcDbCircle
 10
-102.00001758655171
 20
-15.16361588937502
 40
0.5
100
AcDbArc
 50
0.0
 51
70.00000000000443
  0
ARC
  5
177
100
AcDbEntity
  8
LC-002-002-RND-0
  6
CONTINUOUS
 62
             7
100
AcDbCircle
 10
-105.5811795865517
 20
10.82072511062495
 40
3.9249999999999
100
AcDbArc
 50
139.91174900000084
 51
-135.5041860000029
  0
ARC
  5
176
100
AcDbEntity
  8
LC-002-002-RND-0
  6
CONTINUOUS
 62
             7
100
AcDbCircle
 10
-82.43022458655165
 20
10.82072511062495
 40
3.92499999999979
100
AcDbArc
 50
-44.49581399999724
 51
40.0882509999993
  0
ARC
  5
175
100
AcDbEntity
  8
LC-001-002-----0
  6
CONTINUOUS
 62
             7
100
AcDbCircle
 10
-83.69341158655166
 20
9.75746611062505
 40
5.5761090000001
100
AcDbArc
 50
40.08825100000252
 51
90.09138400000079
  0
ARC
  5
174
100
AcDbEntity
  8
LC-002-002-RND-0
  6
CONTINUOUS
 62
             7
100
AcDbCircle
 10
-83.70223558655167
 20
11.36523311062496
 40
3.92500000000036
100
AcDbArc
 50
89.87259000000063
 51
155.89410499999573
  0
ARC
  5
173
100
AcDbEntity
  8
LC-002-002-RND-0
  6
CONTINUOUS
 62
             7
100
AcDbCircle
 10
101.99991541344831
 20
-15.16297688937504
 40
0.49999999999973
100
AcDbArc
 50
110.0003590000666
 51
-179.99964099999733
  0
ARC
  5
172
100
AcDbEntity
  8
LC-001-002-----0
  6
CONTINUOUS
 62
             7
100
AcDbCircle
 10
-83.69123058655171
 20
9.75746611062505
 40
5.57610900000019
100
AcDbArc
 50
40.08825100000178
 51
90.09138399999961
  0
ARC
  5
171
100
AcDbEntity
  8
LC-002-002-RND-0
  6
CONTINUOUS
 62
             7
100
AcDbCircle
 10
-83.70005558655171
 20
11.36523311062496
 40
3.92500000000036
100
AcDbArc
 50
89.87259000000063
 51
155.89410499999573
  0
ARC
  5
170
100
AcDbEntity
  8
LC-002-002-RND-0
  6
CONTINUOUS
 62
             7
100
AcDbCircle
 10
-82.4280435865517
 20
10.82072511062495
 40
3.92499999999979
100
AcDbArc
 50
-44.49581399999724
 51
40.08825099999824
  0
ARC
  5
16F
100
AcDbEntity
  8
LC-002-002-RND-0
  6
CONTINUOUS
 62
             7
100
AcDbCircle
 10
-104.3069875865517
 20
11.36523311062496
 40
3.92500000000016
100
AcDbArc
 50
24.10589500000442
 51
90.12740999999978
  0
LINE
  5
16E
100
AcDbEntity
  8
LC-004-003-----0
  6
CONTINUOUS
 62
             2
100
AcDbLine
 10
49.43025941344828
 20
7.14430411062495
 11
49.43025941344828
 21
12.59760011062497
  0
LINE
  5
16D
100
AcDbEntity
  8
LC-004-003-----0
  6
CONTINUOUS
 62
             2
100
AcDbLine
 10
44.43025941344828
 20
7.14430411062495
 11
44.43025941344828
 21
12.59760011062497
  0
LINE
  5
16C
100
AcDbEntity
  8
LC-001-002-----0
  6
CONTINUOUS
 62
             7
100
AcDbLine
 10
43.93025941344828
 20
7.14430411062495
 11
43.93025941344828
 21
12.09760011062497
  0
LINE
  5
16B
100
AcDbEntity
  8
LC-001-002-----0
  6
CONTINUOUS
 62
             7
100
AcDbLine
 10
49.93025941344828
 20
7.14430411062495
 11
49.93025941344828
 21
12.09760011062497
  0
LINE
  5
16A
100
AcDbEntity
  8
LC-001-002-----0
  6
CONTINUOUS
 62
             7
100
AcDbLine
 10
49.93025941344828
 20
12.09760011062497
 11
43.93025941344828
 21
12.09760011062497
  0
LINE
  5
169
100
AcDbEntity
  8
LC-001-002-----0
  6
CONTINUOUS
 62
             7
100
AcDbLine
 10
44.43025941344828
 20
12.59760011062497
 11
43.93025941344828
 21
12.09760011062497
  0
LINE
  5
168
100
AcDbEntity
  8
LC-001-002-----0
  6
CONTINUOUS
 62
             7
100
AcDbLine
 10
49.43025941344828
 20
12.59760011062497
 11
49.93025941344828
 21
12.09760011062497
  0
LINE
  5
167
100
AcDbEntity
  8
LC-001-002-----0
  6
CONTINUOUS
 62
             7
100
AcDbLine
 10
49.43025941344828
 20
12.59760011062497
 11
44.43025941344828
 21
12.59760011062497
  0
LINE
  5
166
100
AcDbEntity
  8
LC-001-002-----0
  6
CONTINUOUS
 62
             7
100
AcDbLine
 10
32.37759941344827
 20
8.11966111062498
 11
39.4664304134483
 21
-0.14621588937507
  0
LINE
  5
165
100
AcDbEntity
  8
LC-001-002-----0
  6
CONTINUOUS
 62
             7
100
AcDbLine
 10
61.4873674134483
 20
8.11966111062498
 11
54.39848941344828
 21
-0.14627088937504
  0
LINE
  5
164
100
AcDbEntity
  8
LC-001-002-----0
  6
CONTINUOUS
 62
             7
100
AcDbLine
 10
53.6203834134483
 20
12.83213011062503
 11
51.9324834134483
 21
7.14430411062495
  0
LINE
  5
163
100
AcDbEntity
  8
LC-001-002-----0
  6
CONTINUOUS
 62
             7
100
AcDbLine
 10
41.9324834134483
 20
7.14430411062495
 11
41.12242541344826
 21
-0.14622188937505
  0
LINE
  5
162
100
AcDbEntity
  8
LC-001-002-----0
  6
CONTINUOUS
 62
             7
100
AcDbLine
 10
52.7425464134483
 20
-0.14626488937506
 11
51.9324834134483
 21
7.14430411062495
  0
LINE
  5
161
100
AcDbEntity
  8
LC-001-002-----0
  6
CONTINUOUS
 62
             7
100
AcDbLine
 10
40.24458341344828
 20
12.83213011062503
 11
41.9324834134483
 21
7.14430411062495
  0
LINE
  5
160
100
AcDbEntity
  8
LC-001-002-----0
  6
CONTINUOUS
 62
             7
100
AcDbLine
 10
51.9324834134483
 20
7.14430411062495
 11
41.9324834134483
 21
7.14430411062495
  0
LINE
  5
15F
100
AcDbEntity
  8
LC-001-002-----0
  6
CONTINUOUS
 62
             7
100
AcDbLine
 10
61.4851864134483
 20
8.11966111062498
 11
54.39630841344827
 21
-0.14627088937504
  0
LINE
  5
15E
100
AcDbEntity
  8
LC-001-002-----0
  6
CONTINUOUS
 62
             7
100
AcDbLine
 10
32.37541841344827
 20
8.11966111062498
 11
39.46424941344829
 21
-0.14621588937507
  0
LINE
  5
15D
100
AcDbEntity
  8
LC-001-002-----0
  6
CONTINUOUS
 62
             7
100
AcDbLine
 10
40.24240341344827
 20
12.83213011062503
 11
41.93030241344828
 21
7.14430411062495
  0
LINE
  5
15C
100
AcDbEntity
  8
LC-001-002-----0
  6
CONTINUOUS
 62
             7
100
AcDbLine
 10
41.12024441344826
 20
-0.14622188937505
 11
41.93030241344828
 21
7.14430411062495
  0
LINE
  5
15B
100
AcDbEntity
  8
LC-001-002-----0
  6
CONTINUOUS
 62
             7
100
AcDbLine
 10
41.93030241344828
 20
7.14430411062495
 11
51.93030241344828
 21
7.14430411062495
  0
LINE
  5
15A
100
AcDbEntity
  8
LC-001-002-----0
  6
CONTINUOUS
 62
             7
100
AcDbLine
 10
86.5374424134483
 20
-0.00029588937502
 11
-84.30674058655168
 21
0.00033511062498
  0
LINE
  5
159
100
AcDbEntity
  8
LC-004-003-----0
  6
CONTINUOUS
 62
             2
100
AcDbLine
 10
-49.43028558655173
 20
7.14430411062495
 11
-49.43028558655173
 21
12.59760011062497
  0
LINE
  5
158
100
AcDbEntity
  8
LC-004-003-----0
  6
CONTINUOUS
 62
             2
100
AcDbLine
 10
-44.43028558655173
 20
7.14430411062495
 11
-44.43028558655173
 21
12.59760011062497
  0
LINE
  5
157
100
AcDbEntity
  8
LC-001-002-----0
  6
CONTINUOUS
 62
             7
100
AcDbLine
 10
-43.93028558655173
 20
7.14430411062495
 11
-43.93028558655173
 21
12.09760011062497
  0
LINE
  5
156
100
AcDbEntity
  8
LC-001-002-----0
  6
CONTINUOUS
 62
             7
100
AcDbLine
 10
-49.93028558655173
 20
7.14430411062495
 11
-49.93028558655173
 21
12.09760011062497
  0
LINE
  5
155
100
AcDbEntity
  8
LC-001-002-----0
  6
CONTINUOUS
 62
             7
100
AcDbLine
 10
-49.93028558655173
 20
12.09760011062497
 11
-43.93028558655173
 21
12.09760011062497
  0
LINE
  5
154
100
AcDbEntity
  8
LC-001-002-----0
  6
CONTINUOUS
 62
             7
100
AcDbLine
 10
-44.43028558655173
 20
12.59760011062497
 11
-43.93028558655173
 21
12.09760011062497
  0
LINE
  5
153
100
AcDbEntity
  8
LC-001-002-----0
  6
CONTINUOUS
 62
             7
100
AcDbLine
 10
-49.43028558655173
 20
12.59760011062497
 11
-49.93028558655173
 21
12.09760011062497
  0
LINE
  5
152
100
AcDbEntity
  8
LC-001-002-----0
  6
CONTINUOUS
 62
             7
100
AcDbLine
 10
-49.43028558655173
 20
12.59760011062497
 11
-44.43028558655173
 21
12.59760011062497
  0
LINE
  5
151
100
AcDbEntity
  8
LC-001-002-----0
  6
CONTINUOUS
 62
             7
100
AcDbLine
 10
-32.37762558655172
 20
8.11966111062498
 11
-39.46645658655169
 21
-0.14621588937507
  0
LINE
  5
150
100
AcDbEntity
  8
LC-001-002-----0
  6
CONTINUOUS
 62
             7
100
AcDbLine
 10
-61.4873935865517
 20
8.11966111062498
 11
-54.39851558655179
 21
-0.14627088937504
  0
LINE
  5
14F
100
AcDbEntity
  8
LC-001-002-----0
  6
CONTINUOUS
 62
             7
100
AcDbLine
 10
-53.6204095865517
 20
12.83213011062503
 11
-51.93250958655168
 21
7.14430411062495
  0
LINE
  5
14E
100
AcDbEntity
  8
LC-001-002-----0
  6
CONTINUOUS
 62
             7
100
AcDbLine
 10
-41.93250958655179
 20
7.14430411062495
 11
-41.12245158655176
 21
-0.14622188937505
  0
LINE
  5
14D
100
AcDbEntity
  8
LC-001-002-----0
  6
CONTINUOUS
 62
             7
100
AcDbLine
 10
-52.7425725865517
 20
-0.14626488937506
 11
-51.93250958655168
 21
7.14430411062495
  0
LINE
  5
14C
100
AcDbEntity
  8
LC-001-002-----0
  6
CONTINUOUS
 62
             7
100
AcDbLine
 10
-40.24460958655166
 20
12.83213011062503
 11
-41.93250958655179
 21
7.14430411062495
  0
LINE
  5
14B
100
AcDbEntity
  8
LC-001-002-----0
  6
CONTINUOUS
 62
             7
100
AcDbLine
 10
-51.93250958655168
 20
7.14430411062495
 11
-41.93250958655179
 21
7.14430411062495
  0
LINE
  5
14A
100
AcDbEntity
  8
LC-001-002-----0
  6
CONTINUOUS
 62
             7
100
AcDbLine
 10
-61.48521258655175
 20
8.11966111062498
 11
-54.39633458655172
 21
-0.14627088937504
  0
LINE
  5
149
100
AcDbEntity
  8
LC-001-002-----0
  6
CONTINUOUS
 62
             7
100
AcDbLine
 10
-32.37544458655171
 20
8.11966111062498
 11
-39.46427558655174
 21
-0.14621588937507
  0
LINE
  5
148
100
AcDbEntity
  8
LC-001-002-----0
  6
CONTINUOUS
 62
             7
100
AcDbLine
 10
-40.24242958655171
 20
12.83213011062503
 11
-41.93032858655173
 21
7.14430411062495
  0
LINE
  5
147
100
AcDbEntity
  8
LC-001-002-----0
  6
CONTINUOUS
 62
             7
100
AcDbLine
 10
-41.1202705865517
 20
-0.14622188937505
 11
-41.93032858655173
 21
7.14430411062495
  0
LINE
  5
146
100
AcDbEntity
  8
LC-001-002-----0
  6
CONTINUOUS
 62
             7
100
AcDbLine
 10
-41.93032858655173
 20
7.14430411062495
 11
-51.93032858655173
 21
7.14430411062495
  0
LINE
  5
145
100
AcDbEntity
  8
LC-001-002-----0
  6
CONTINUOUS
 62
             7
100
AcDbLine
 10
97.00345241344829
 20
7.29022411062494
 11
97.00345241344829
 21
12.24351911062485
  0
LINE
  5
144
100
AcDbEntity
  8
LC-004-003-----0
  6
CONTINUOUS
 62
             2
100
AcDbLine
 10
96.50345241344829
 20
7.29022411062494
 11
96.50345241344829
 21
12.74351911062485
  0
LINE
  5
143
100
AcDbEntity
  8
LC-004-003-----0
  6
CONTINUOUS
 62
             2
100
AcDbLine
 10
91.50345241344829
 20
7.29022411062494
 11
91.50345241344829
 21
12.74351911062485
  0
LINE
  5
142
100
AcDbEntity
  8
LC-001-002-----0
  6
CONTINUOUS
 62
             7
100
AcDbLine
 10
91.00345241344829
 20
7.29022411062494
 11
91.00345241344829
 21
12.24351911062485
  0
LINE
  5
141
100
AcDbEntity
  8
LC-001-002-----0
  6
CONTINUOUS
 62
             7
100
AcDbLine
 10
-101.8290075865517
 20
-14.69376988937506
 11
101.99991541344831
 21
-14.69376988937506
  0
LINE
  5
140
100
AcDbEntity
  8
LC-001-002-----0
  6
CONTINUOUS
 62
             7
100
AcDbLine
 10
124.9999194134483
 20
-6.25940688937504
 11
-125.0000775865517
 21
-6.25940688937504
  0
LINE
  5
13F
100
AcDbEntity
  8
LC-001-002-----0
  6
CONTINUOUS
 62
             7
100
AcDbLine
 10
-124.65805658655169
 20
-5.32049788937502
 11
124.65789341344831
 21
-5.32049788937502
  0
LINE
  5
13E
100
AcDbEntity
  8
LC-001-002-----0
  6
CONTINUOUS
 62
             7
100
AcDbLine
 10
86.53929941344828
 20
0.00008111062494
 11
174.99998541344829
 21
0.00008111062494
  0
LINE
  5
13D
100
AcDbEntity
  8
LC-001-002-----0
  6
CONTINUOUS
 62
             7
100
AcDbLine
 10
-86.53746858655168
 20
-0.00029588937502
 11
84.3067144134483
 21
0.00033511062498
  0
LINE
  5
13C
100
AcDbEntity
  8
LC-001-002-----0
  6
CONTINUOUS
 62
             7
100
AcDbLine
 10
84.3067144134483
 20
0.00008111062494
 11
86.53929941344828
 21
0.00008111062494
  0
LINE
  5
13B
100
AcDbEntity
  8
LC-001-002-----0
  6
CONTINUOUS
 62
             7
100
AcDbLine
 10
176.99980241344841
 20
-2.99902088937506
 11
-0.00001258655172
 21
-2.99927188937505
  0
LINE
  5
13A
100
AcDbEntity
  8
LC-001-002-----0
  6
CONTINUOUS
 62
             7
100
AcDbLine
 10
-176.9999995865517
 20
-3.00063088937514
 11
-0.00001258655172
 21
-2.99997688937503
  0
LINE
  5
139
100
AcDbEntity
  8
LC-001-002-----0
  6
CONTINUOUS
 62
             7
100
AcDbLine
 10
128.0129484134483
 20
-2.99908988937505
 11
121.6329504134483
 21
-5.32049788937502
  0
LINE
  5
138
100
AcDbEntity
  8
LC-001-002-----0
  6
CONTINUOUS
 62
             7
100
AcDbLine
 10
176.99998541344829
 20
-1.99991888937506
 11
176.99998541344829
 21
-2.99902088937506
  0
LINE
  5
137
100
AcDbEntity
  8
LC-001-002-----0
  6
CONTINUOUS
 62
             7
100
AcDbLine
 10
-175.00001258655161
 20
-0.00062288937516
 11
-86.53746858655168
 21
-0.00029588937502
  0
LINE
  5
136
100
AcDbEntity
  8
LC-001-002-----0
  6
CONTINUOUS
 62
             7
100
AcDbLine
 10
-128.01483758655169
 20
-3.00044988937497
 11
-121.6404725865517
 21
-5.32049788937502
  0
LINE
  5
135
100
AcDbEntity
  8
LC-001-002-----0
  6
CONTINUOUS
 62
             7
100
AcDbLine
 10
-177.00000558655171
 20
-2.00063188937497
 11
-177.00000158655169
 21
-3.00852088937495
  0
LINE
  5
134
100
AcDbEntity
  8
LC-001-002-----0
  6
CONTINUOUS
 62
             7
100
AcDbLine
 10
97.00345241344829
 20
12.24351911062485
 11
91.00345241344829
 21
12.24351911062485
  0
LINE
  5
133
100
AcDbEntity
  8
LC-001-002-----0
  6
CONTINUOUS
 62
             7
100
AcDbLine
 10
91.50345241344829
 20
12.74351911062485
 11
91.00345241344829
 21
12.24351911062485
  0
LINE
  5
132
100
AcDbEntity
  8
LC-001-002-----0
  6
CONTINUOUS
 62
             7
100
AcDbLine
 10
96.50345241344829
 20
12.74351911062485
 11
97.00345241344829
 21
12.24351911062485
  0
LINE
  5
131
100
AcDbEntity
  8
LC-001-002-----0
  6
CONTINUOUS
 62
             7
100
AcDbLine
 10
96.50345241344829
 20
12.74351911062485
 11
91.50345241344829
 21
12.74351911062485
  0
LINE
  5
130
100
AcDbEntity
  8
LC-004-003-----0
  6
CONTINUOUS
 62
             2
100
AcDbLine
 10
-96.50347858655178
 20
7.29022411062494
 11
-96.50347858655178
 21
12.74351911062485
  0
LINE
  5
12F
100
AcDbEntity
  8
LC-004-003-----0
  6
CONTINUOUS
 62
             2
100
AcDbLine
 10
-91.50347858655178
 20
7.29022411062494
 11
-91.50347858655178
 21
12.74351911062485
  0
LINE
  5
12E
100
AcDbEntity
  8
LC-001-002-----0
  6
CONTINUOUS
 62
             7
100
AcDbLine
 10
-91.00347858655178
 20
7.29022411062494
 11
-91.00347858655178
 21
12.24351911062485
  0
LINE
  5
12D
100
AcDbEntity
  8
LC-001-002-----0
  6
CONTINUOUS
 62
             7
100
AcDbLine
 10
-97.00347858655178
 20
7.29022411062494
 11
-97.00347858655178
 21
12.24351911062485
  0
LINE
  5
12C
100
AcDbEntity
  8
LC-001-002-----0
  6
CONTINUOUS
 62
             7
100
AcDbLine
 10
-97.00347858655178
 20
12.24351911062485
 11
-91.00347858655178
 21
12.24351911062485
  0
LINE
  5
12B
100
AcDbEntity
  8
LC-001-002-----0
  6
CONTINUOUS
 62
             7
100
AcDbLine
 10
-91.50347858655178
 20
12.74351911062485
 11
-91.00347858655178
 21
12.24351911062485
  0
LINE
  5
12A
100
AcDbEntity
  8
LC-001-002-----0
  6
CONTINUOUS
 62
             7
100
AcDbLine
 10
-96.50347858655178
 20
12.74351911062485
 11
-97.00347858655178
 21
12.24351911062485
  0
LINE
  5
129
100
AcDbEntity
  8
LC-001-002-----0
  6
CONTINUOUS
 62
             7
100
AcDbLine
 10
-96.50347858655178
 20
12.74351911062485
 11
-91.50347858655178
 21
12.74351911062485
  0
LINE
  5
128
100
AcDbEntity
  8
LC-001-002-----0
  6
CONTINUOUS
 62
             7
100
AcDbLine
 10
89.0056764134483
 20
7.29022411062494
 11
88.19566041344828
 21
0.00008111062494
  0
LINE
  5
127
100
AcDbEntity
  8
LC-001-002-----0
  6
CONTINUOUS
 62
             7
100
AcDbLine
 10
79.45079241344828
 20
8.26558111062485
 11
86.53929941344828
 21
0.00008111062494
  0
LINE
  5
126
100
AcDbEntity
  8
LC-001-002-----0
  6
CONTINUOUS
 62
             7
100
AcDbLine
 10
87.31777641344829
 20
12.97805011062497
 11
89.0056764134483
 21
7.29022411062494
  0
LINE
  5
125
100
AcDbEntity
  8
LC-001-002-----0
  6
CONTINUOUS
 62
             7
100
AcDbLine
 10
99.0056764134483
 20
7.29022411062494
 11
89.0056764134483
 21
7.29022411062494
  0
LINE
  5
124
100
AcDbEntity
  8
LC-001-002-----0
  6
CONTINUOUS
 62
             7
100
AcDbLine
 10
100.6935754134483
 20
12.97805011062497
 11
99.0056764134483
 21
7.29022411062494
  0
LINE
  5
123
100
AcDbEntity
  8
LC-001-002-----0
  6
CONTINUOUS
 62
             7
100
AcDbLine
 10
108.5605604134483
 20
8.26558111062485
 11
101.4720524134483
 21
0.00008111062494
  0
LINE
  5
122
100
AcDbEntity
  8
LC-001-002-----0
  6
CONTINUOUS
 62
             7
100
AcDbLine
 10
99.81569241344832
 20
0.00008111062494
 11
99.0056764134483
 21
7.29022411062494
  0
LINE
  5
121
100
AcDbEntity
  8
LC-001-002-----0
  6
CONTINUOUS
 62
             7
100
AcDbLine
 10
-125.0000775865517
 20
-6.26018988937505
 11
-101.8290075865517
 21
-14.69376988937506
  0
LINE
  5
120
100
AcDbEntity
  8
LC-001-002-----0
  6
CONTINUOUS
 62
             7
100
AcDbLine
 10
-79.45081858655172
 20
8.26558111062485
 11
-86.53964958655175
 21
-0.00029588937502
  0
LINE
  5
11F
100
AcDbEntity
  8
LC-001-002-----0
  6
CONTINUOUS
 62
             7
100
AcDbLine
 10
-108.56058658655169
 20
8.26558111062485
 11
-101.4717075865517
 21
-0.00035188937505
  0
LINE
  5
11E
100
AcDbEntity
  8
LC-001-002-----0
  6
CONTINUOUS
 62
             7
100
AcDbLine
 10
-100.69360158655169
 20
12.97805011062497
 11
-99.00570258655174
 21
7.29022411062494
  0
LINE
  5
11D
100
AcDbEntity
  8
LC-001-002-----0
  6
CONTINUOUS
 62
             7
100
AcDbLine
 10
-89.00570258655174
 20
7.29022411062494
 11
-88.19564358655171
 21
-0.00030188937506
  0
LINE
  5
11C
100
AcDbEntity
  8
LC-001-002-----0
  6
CONTINUOUS
 62
             7
100
AcDbLine
 10
-99.81576558655175
 20
-0.00034488937501
 11
-99.00570258655174
 21
7.29022411062494
  0
LINE
  5
11B
100
AcDbEntity
  8
LC-001-002-----0
  6
CONTINUOUS
 62
             7
100
AcDbLine
 10
-125.0000775865517
 20
-6.26018988937505
 11
-124.65805658655169
 21
-5.32049788937502
  0
LINE
  5
11A
100
AcDbEntity
  8
LC-001-002-----0
  6
CONTINUOUS
 62
             7
100
AcDbLine
 10
-87.31780258655172
 20
12.97805011062497
 11
-89.00570258655174
 21
7.29022411062494
  0
LINE
  5
119
100
AcDbEntity
  8
LC-001-002-----0
  6
CONTINUOUS
 62
             7
100
AcDbLine
 10
124.9999194134483
 20
-6.25940688937504
 11
124.65789341344831
 21
-5.31971688937506
  0
LINE
  5
118
100
AcDbEntity
  8
LC-001-002-----0
  6
CONTINUOUS
 62
             7
100
AcDbLine
 10
-99.00570258655174
 20
7.29022411062494
 11
-89.00570258655174
 21
7.29022411062494
  0
LINE
  5
117
100
AcDbEntity
  8
LC-001-002-----0
  6
CONTINUOUS
 62
             7
100
AcDbLine
 10
124.9999194134483
 20
-6.25940688937504
 11
101.8289024134483
 21
-14.69313188937508
  0
LINE
  5
116
100
AcDbEntity
  8
LC-001-002-----0
  6
CONTINUOUS
 62
             7
100
AcDbLine
 10
-84.30680558655163
 20
-0.00028788937504
 11
-82.66046358655163
 21
4.52299811062494
  0
LINE
  5
115
100
AcDbEntity
  8
LC-001-002-----0
  6
CONTINUOUS
 62
             7
100
AcDbLine
 10
84.3067144134483
 20
0.00008111062494
 11
82.66053441344829
 21
4.52288511062494
  0
LINE
  5
114
100
AcDbEntity
  8
LC-001-002-----0
  6
CONTINUOUS
 62
             7
100
AcDbLine
 10
-108.5584055865517
 20
8.26558111062485
 11
-101.46952758655161
 21
-0.00035188937505
  0
LINE
  5
113
100
AcDbEntity
  8
LC-001-002-----0
  6
CONTINUOUS
 62
             7
100
AcDbLine
 10
-79.44863758655166
 20
8.26558111062485
 11
-86.53746858655168
 21
-0.00029588937502
  0
LINE
  5
112
100
AcDbEntity
  8
LC-001-002-----0
  6
CONTINUOUS
 62
             7
100
AcDbLine
 10
-87.31562158655166
 20
12.97805011062497
 11
-89.00352158655178
 21
7.29022411062494
  0
LINE
  5
111
100
AcDbEntity
  8
LC-001-002-----0
  6
CONTINUOUS
 62
             7
100
AcDbLine
 10
-99.00352158655178
 20
7.29022411062494
 11
-99.81358458655168
 21
-0.00034488937501
  0
LINE
  5
110
100
AcDbEntity
  8
LC-001-002-----0
  6
CONTINUOUS
 62
             7
100
AcDbLine
 10
-88.19346358655176
 20
-0.00030188937506
 11
-89.00352158655178
 21
7.29022411062494
  0
LINE
  5
10F
100
AcDbEntity
  8
LC-001-002-----0
  6
CONTINUOUS
 62
             7
100
AcDbLine
 10
-100.6914215865517
 20
12.97805011062497
 11
-99.00352158655178
 21
7.29022411062494
  0
LINE
  5
10E
100
AcDbEntity
  8
LC-001-002-----0
  6
CONTINUOUS
 62
             7
100
AcDbLine
 10
-89.00352158655178
 20
7.29022411062494
 11
-99.00352158655178
 21
7.29022411062494
  0
POINT
  5
10D
100
AcDbEntity
  8
LC-004-003-----0
 62
             7
100
AcDbPoint
 10
-177.00000158655169
 20
-3.00852088937495
  0
POINT
  5
10C
100
AcDbEntity
  8
LC-004-003-----0
 62
             7
100
AcDbPoint
 10
176.99980241344841
 20
-2.99902088937506
  0
POINT
  5
10B
100
AcDbEntity
  8
LC-004-003-----0
 62
             7
100
AcDbPoint
 10
-177.00000158655169
 20
-3.00852088937495
  0
INSERT
  5
35
100
AcDbEntity
  8
1
100
AcDbBlockReference
  2
062B_2E_AUFSATZRAHMEN__2
 10
-145.5815597586363
 20
-245.06386488344759
  0
ENDBLK
  5
193
100
AcDbEntity
  8
0
100
AcDbBlockEnd
  0
BLOCK
  5
37
100
AcDbEntity
  8
0
100
AcDbBlockBegin
  2
062_1E_LAUBFANGKORB
 70
             0
 10
-159.32349793005719
 20
-489.2774105164961
 30
0.0
  3
062_1E_LAUBFANGKORB
  1

  0
LINE
  5
194
100
AcDbEntity
  8
LC-001-002-----0
  6
DASHDOT
 62
             2
100
AcDbLine
 10
-0.00001258655172
 20
43.20896412400851
 11
-0.00001258655172
 21
-165.25673144629249
  0
ENDBLK
  5
195
100
AcDbEntity
  8
0
100
AcDbBlockEnd
  0
BLOCK
  5
39
100
AcDbEntity
  8
0
100
AcDbBlockBegin
  2
HL62_1_1
 70
             0
 10
-79.87763993005723
 20
-332.27528651649601
 30
0.0
  3
HL62_1_1
  1

  0
INSERT
  5
3A
100
AcDbEntity
  8
0
100
AcDbBlockReference
  2
HL_62_1_7_DACHABLAUF
 10
-50.00769592725339
 20
67.62645532602301
  0
INSERT
  5
3B
100
AcDbEntity
  8
1
100
AcDbBlockReference
  2
062_1E_LAUBFANGKORB
 10
-159.32349793005719
 20
-489.2774105164961
  0
ENDBLK
  5
196
100
AcDbEntity
  8
0
100
AcDbBlockEnd
  0
BLOCK
  5
3D
100
AcDbEntity
  8
0
100
AcDbBlockBegin
  2
HL_62_1B_1_FLACHDACHAB0__3
 70
             0
 10
-483.2448482006431
 20
-472.74498640261402
 30
0.0
  3
HL_62_1B_1_FLACHDACHAB0__3
  1

  0
INSERT
  5
3E
100
AcDbEntity
  8
0
100
AcDbBlockReference
  2
HL62_1_1
 10
-79.87763993005723
 20
-332.27528651649601
  0
ENDBLK
  5
197
100
AcDbEntity
  8
0
100
AcDbBlockEnd
  0
BLOCK
  5
40
100
AcDbEntity
  8
0
100
AcDbBlockBegin
  2
HL_62_1B_1_FLACHDACHAB0__4
 70
             0
 10
-474.8003916494996
 20
8.72931614628698
 30
0.0
  3
HL_62_1B_1_FLACHDACHAB0__4
  1

  0
INSERT
  5
41
100
AcDbEntity
  8
0
100
AcDbBlockReference
  2
HL_62_1B_1_FLACHDACHAB0__3
 10
-483.2448482006431
 20
-472.74498640261402
  0
ENDBLK
  5
198
100
AcDbEntity
  8
0
100
AcDbBlockEnd
  0
BLOCK
  5
43
100
AcDbEntity
  8
0
100
AcDbBlockBegin
  2
HL_62_1B_2_FLACHDACHABN125
 70
             0
 10
-0.00000763159658
 20
1.92006800000002
 30
0.0
  3
HL_62_1B_2_FLACHDACHABN125
  1

  0
INSERT
  5
44
100
AcDbEntity
  8
0
100
AcDbBlockReference
  2
HL_62_1B_1_FLACHDACHAB0__4
 10
-474.8003916494996
 20
8.72931614628698
  0
ENDBLK
  5
199
100
AcDbEntity
  8
0
100
AcDbBlockEnd
  0
BLOCK
  5
46
100
AcDbEntity
  8
0
100
AcDbBlockBegin
  2
K_RPER
 70
             0
 10
281.42027148779101
 20
-157.0006941141105
 30
0.0
  3
K_RPER
  1

  0
ARC
  5
2AD
100
AcDbEntity
  8
LC-002-002-RND-0
  6
CONTINUOUS
 62
             7
100
AcDbCircle
 10
100.0034535997665
 20
-28.69376988937507
 40
1.5
100
AcDbArc
 50
-90.0
 51
0.0
  0
ARC
  5
2AC
100
AcDbEntity
  8
LC-002-002-RND-0
  6
CONTINUOUS
 62
             7
100
AcDbCircle
 10
-100.0035234002336
 20
-28.69376988937507
 40
1.5
100
AcDbArc
 50
180.0
 51
-90.0
  0
ARC
  5
2AB
100
AcDbEntity
  8
LC-001-002-----0
  6
CONTINUOUS
 62
             7
100
AcDbCircle
 10
-97.2638274002336
 20
-30.87335388937506
 40
0.37354699999999
100
AcDbArc
 50
0.65755899996019
 51
42.03020200000475
  0
ARC
  5
2AA
100
AcDbEntity
  8
LC-001-002-----0
  6
CONTINUOUS
 62
             7
100
AcDbCircle
 10
-97.64610440023364
 20
-31.20924488937508
 40
0.88240999999985
100
AcDbArc
 50
41.6116579999884
 51
64.78609899999793
  0
ARC
  5
2A9
100
AcDbEntity
  8
LC-001-002-----0
  6
CONTINUOUS
 62
             7
100
AcDbCircle
 10
-98.09774040023359
 20
-32.10607988937505
 40
1.88638100000017
100
AcDbArc
 50
63.97949900000451
 51
77.89818299999753
  0
ARC
  5
2A8
100
AcDbEntity
  8
LC-001-002-----0
  6
CONTINUOUS
 62
             7
100
AcDbCircle
 10
-98.31588540023358
 20
-33.03989988937507
 40
2.84523599999987
100
AcDbArc
 50
77.5453310000012
 51
88.11559499999991
  0
ARC
  5
2A7
100
AcDbEntity
  8
LC-001-002-----0
  6
CONTINUOUS
 62
             7
100
AcDbCircle
 10
-88.61494940023363
 20
-30.87690788937507
 40
0.38519100000006
100
AcDbArc
 50
2.01890900003882
 51
44.42719699997105
  0
ARC
  5
2A6
100
AcDbEntity
  8
LC-001-002-----0
  6
CONTINUOUS
 62
             7
100
AcDbCircle
 10
-89.03104340023361
 20
-31.26945888937508
 40
0.95719000000017
100
AcDbArc
 50
43.77289900000797
 51
66.72101100001055
  0
ARC
  5
2A5
100
AcDbEntity
  8
LC-001-002-----0
  6
CONTINUOUS
 62
             7
100
AcDbCircle
 10
-89.48510440023358
 20
-32.24891388937508
 40
2.03657800000015
100
AcDbArc
 50
65.87678400000306
 51
79.70170400000082
  0
ARC
  5
2A4
100
AcDbEntity
  8
LC-001-002-----0
  6
CONTINUOUS
 62
             7
100
AcDbCircle
 10
-89.66708340023359
 20
-33.14646588937506
 40
2.95226200000022
100
AcDbArc
 50
79.3409280000002
 51
90.12210500000046
  0
ARC
  5
2A3
100
AcDbEntity
  8
LC-001-002-----0
  6
CONTINUOUS
 62
             7
100
AcDbCircle
 10
-90.73089840023363
 20
-34.71061188937505
 40
0.3863259999999
100
AcDbArc
 50
-177.00404000000441
 51
-136.02385800003708
  0
ARC
  5
2A2
100
AcDbEntity
  8
LC-001-002-----0
  6
CONTINUOUS
 62
             7
100
AcDbCircle
 10
-90.32900940023359
 20
-34.33624788937507
 40
0.93552900000033
100
AcDbArc
 50
-136.61497399998427
 51
-114.04075600001279
  0
ARC
  5
2A1
100
AcDbEntity
  8
LC-001-002-----0
  6
CONTINUOUS
 62
             7
100
AcDbCircle
 10
-89.88156540023363
 20
-33.40025888937506
 40
1.97279800000017
100
AcDbArc
 50
-114.83429699999509
 51
-101.15082800000137
  0
ARC
  5
2A0
100
AcDbEntity
  8
LC-001-002-----0
  6
CONTINUOUS
 62
             7
100
AcDbCircle
 10
-89.6845764002336
 20
-32.49128188937507
 40
2.90276399999978
100
AcDbArc
 50
-101.49586600000058
 51
-90.93044799999967
  0
ARC
  5
29F
100
AcDbEntity
  8
LC-001-002-----0
  6
CONTINUOUS
 62
             7
100
AcDbCircle
 10
-99.39205240023364
 20
-34.71151288937505
 40
0.38518899999999
100
AcDbArc
 50
-177.98132500007281
 51
-135.57295500001555
  0
ARC
  5
29E
100
AcDbEntity
  8
LC-001-002-----0
  6
CONTINUOUS
 62
             7
100
AcDbCircle
 10
-98.97595940023359
 20
-34.31896388937505
 40
0.95718599999981
100
AcDbArc
 50
-136.22724000001111
 51
-113.27906499999982
  0
ARC
  5
29D
100
AcDbEntity
  8
LC-001-002-----0
  6
CONTINUOUS
 62
             7
100
AcDbCircle
 10
-98.52189740023363
 20
-33.33951088937507
 40
2.03657299999999
100
AcDbArc
 50
-114.12329499999851
 51
-100.29835199999984
  0
ARC
  5
29C
100
AcDbEntity
  8
LC-001-002-----0
  6
CONTINUOUS
 62
             7
100
AcDbCircle
 10
-98.33991740023362
 20
-32.44195688937506
 40
2.95225999999982
100
AcDbArc
 50
-100.65912900000112
 51
-89.8779469999987
  0
ARC
  5
29B
100
AcDbEntity
  8
LC-001-002-----0
  6
CONTINUOUS
 62
             7
100
AcDbCircle
 10
-91.41697340023359
 20
-30.90795588937508
 40
0.30262800000005
100
AcDbArc
 50
7.38371100003387
 51
67.14240800003199
  0
ARC
  5
29A
100
AcDbEntity
  8
LC-001-002-----0
  6
CONTINUOUS
 62
             7
100
AcDbCircle
 10
-92.30179140023358
 20
-32.42032888937506
 40
2.05262700000009
100
AcDbArc
 50
60.76873700000127
 51
77.01552200000192
  0
ARC
  5
299
100
AcDbEntity
  8
LC-001-002-----0
  6
CONTINUOUS
 62
             7
100
AcDbCircle
 10
-93.37863140023359
 20
-36.54421088937505
 40
6.31421000000043
100
AcDbArc
 50
75.90184800000104
 51
83.54348500000027
  0
ARC
  5
298
100
AcDbEntity
  8
LC-001-002-----0
  6
CONTINUOUS
 62
             7
100
AcDbCircle
 10
-93.94131140023359
 20
-41.06708088937506
 40
10.87178399999958
100
AcDbArc
 50
83.2772429999999
 51
88.58922300000037
  0
ARC
  5
297
100
AcDbEntity
  8
LC-001-002-----0
  6
CONTINUOUS
 62
             7
100
AcDbCircle
 10
-96.5624554002336
 20
-34.66373488937506
 40
0.33348700000007
100
AcDbArc
 50
-169.39993499994597
 51
-110.59143000000688
  0
ARC
  5
296
100
AcDbEntity
  8
LC-001-002-----0
  6
CONTINUOUS
 62
             7
100
AcDbCircle
 10
-95.59248140023362
 20
-32.87649988937505
 40
2.36425200000014
100
AcDbArc
 50
-117.37907199999763
 51
-101.87322700000034
  0
ARC
  5
295
100
AcDbEntity
  8
LC-001-002-----0
  6
CONTINUOUS
 62
             7
100
AcDbCircle
 10
-94.50300340023364
 20
-28.32663988937506
 40
7.04212699999957
100
AcDbArc
 50
-102.93139100000079
 51
-95.4791240000003
  0
ARC
  5
294
100
AcDbEntity
  8
LC-001-002-----0
  6
CONTINUOUS
 62
             7
100
AcDbCircle
 10
-94.02856740023361
 20
-23.92151488937506
 40
11.47254199999948
100
AcDbArc
 50
-95.73709000000034
 51
-90.36163599999999
  0
ARC
  5
293
100
AcDbEntity
  8
LC-001-002-----0
  6
CONTINUOUS
 62
             7
100
AcDbCircle
 10
-98.33991740023362
 20
-33.14646388937506
 40
2.95226099999965
100
AcDbArc
 50
89.87792499999949
 51
100.65910499999896
  0
ARC
  5
292
100
AcDbEntity
  8
LC-001-002-----0
  6
CONTINUOUS
 62
             7
100
AcDbCircle
 10
-98.52189740023363
 20
-32.24891088937505
 40
2.03657500000046
100
AcDbArc
 50
100.29832799999609
 51
114.12326199999883
  0
ARC
  5
291
100
AcDbEntity
  8
LC-001-002-----0
  6
CONTINUOUS
 62
             7
100
AcDbCircle
 10
-98.97595840023359
 20
-31.26945688937508
 40
0.95718699999993
100
AcDbArc
 50
113.27903400000137
 51
136.22718300001128
  0
ARC
  5
290
100
AcDbEntity
  8
LC-001-002-----0
  6
CONTINUOUS
 62
             7
100
AcDbCircle
 10
-99.39205140023364
 20
-30.87690688937508
 40
0.38518999999983
100
AcDbArc
 50
135.57289300002466
 51
177.98123099998119
  0
ARC
  5
28F
100
AcDbEntity
  8
LC-001-002-----0
  6
CONTINUOUS
 62
             7
100
AcDbCircle
 10
-94.03462340023361
 20
-41.55279188937507
 40
11.35831099999978
100
AcDbArc
 50
90.5650959999999
 51
95.95115599999971
  0
ARC
  5
28E
100
AcDbEntity
  8
LC-001-002-----0
  6
CONTINUOUS
 62
             7
100
AcDbCircle
 10
-94.53217240023361
 20
-37.08513288937507
 40
6.86321699999956
100
AcDbArc
 50
95.6868630000005
 51
103.23288200000087
  0
ARC
  5
28D
100
AcDbEntity
  8
LC-001-002-----0
  6
CONTINUOUS
 62
             7
100
AcDbCircle
 10
-95.62789940023362
 20
-32.61552288937505
 40
2.26188200000038
100
AcDbArc
 50
102.1310099999984
 51
118.02968499999757
  0
ARC
  5
28C
100
AcDbEntity
  8
LC-001-002-----0
  6
CONTINUOUS
 62
             7
100
AcDbCircle
 10
-96.57658840023362
 20
-30.91446788937506
 40
0.31682899999958
100
AcDbArc
 50
111.13452400002083
 51
171.76010299991574
  0
ARC
  5
28B
100
AcDbEntity
  8
LC-001-002-----0
  6
CONTINUOUS
 62
             7
100
AcDbCircle
 10
-89.6927494002336
 20
-33.02810388937508
 40
2.83334599999967
100
AcDbArc
 50
92.16196500000019
 51
102.56848400000143
  0
ARC
  5
28A
100
AcDbEntity
  8
LC-001-002-----0
  6
CONTINUOUS
 62
             7
100
AcDbCircle
 10
-89.90955240023362
 20
-32.10647888937506
 40
1.88666099999963
100
AcDbArc
 50
102.23272400000315
 51
115.89549300000138
  0
ARC
  5
289
100
AcDbEntity
  8
LC-001-002-----0
  6
CONTINUOUS
 62
             7
100
AcDbCircle
 10
-90.35242740023364
 20
-31.22140088937507
 40
0.89711300000024
100
AcDbArc
 50
115.13766899999202
 51
137.63430800002018
  0
ARC
  5
288
100
AcDbEntity
  8
LC-001-002-----0
  6
CONTINUOUS
 62
             7
100
AcDbCircle
 10
-90.73524340023357
 20
-30.87658888937505
 40
0.38192400000019
100
AcDbArc
 50
137.15458699998345
 51
177.15170800003492
  0
ARC
  5
287
100
AcDbEntity
  8
LC-001-002-----0
  6
CONTINUOUS
 62
             7
100
AcDbCircle
 10
-98.31901440023364
 20
-32.52217488937506
 40
2.87172799999964
100
AcDbArc
 50
-88.53676799999842
 51
-77.97851600000089
  0
ARC
  5
286
100
AcDbEntity
  8
LC-001-002-----0
  6
CONTINUOUS
 62
             7
100
AcDbCircle
 10
-98.11051840023362
 20
-33.44504788937507
 40
1.92570499999989
100
AcDbArc
 50
-78.32691199999756
 51
-64.52943100000327
  0
ARC
  5
285
100
AcDbEntity
  8
LC-001-002-----0
  6
CONTINUOUS
 62
             7
100
AcDbCircle
 10
-97.66095340023361
 20
-34.35943088937506
 40
0.90694700000022
100
AcDbArc
 50
-65.32808400000866
 51
-42.46043400000755
  0
ARC
  5
284
100
AcDbEntity
  8
LC-001-002-----0
  6
CONTINUOUS
 62
             7
100
AcDbCircle
 10
-97.26963040023361
 20
-34.71301088937505
 40
0.37957099999975
100
AcDbArc
 50
-42.96205899996043
 51
-1.82232999997966
  0
ARC
  5
283
100
AcDbEntity
  8
LC-001-002-----0
  6
CONTINUOUS
 62
             7
100
AcDbCircle
 10
-93.99568540023358
 20
-23.53381888937505
 40
11.86047600000003
100
AcDbArc
 50
-90.50710500000042
 51
-85.04972800000031
  0
ARC
  5
282
100
AcDbEntity
  8
LC-001-002-----0
  6
CONTINUOUS
 62
             7
100
AcDbCircle
 10
-93.59911840023358
 20
-27.72106688937506
 40
7.65470200000026
100
AcDbArc
 50
-85.30246800000046
 51
-77.98609900000116
  0
ARC
  5
281
100
AcDbEntity
  8
LC-001-002-----0
  6
CONTINUOUS
 62
             7
100
AcDbCircle
 10
-92.51214240023359
 20
-32.60440988937506
 40
2.65247499999976
100
AcDbArc
 50
-78.99501999999873
 51
-64.09116999999814
  0
ARC
  5
280
100
AcDbEntity
  8
LC-001-002-----0
  6
CONTINUOUS
 62
             7
100
AcDbCircle
 10
-91.47127740023359
 20
-34.64537388937506
 40
0.36457400000001
100
AcDbArc
 50
-71.09714100001092
 51
-13.55235300001563
  0
ARC
  5
27F
100
AcDbEntity
  8
LC-001-002-----0
  6
CONTINUOUS
 62
             7
100
AcDbCircle
 10
-89.66708340023359
 20
-32.44195588937506
 40
2.95226099999965
100
AcDbArc
 50
-90.1220750000016
 51
-79.34089000000195
  0
ARC
  5
27E
100
AcDbEntity
  8
LC-001-002-----0
  6
CONTINUOUS
 62
             7
100
AcDbCircle
 10
-89.48510240023359
 20
-33.33950988937505
 40
2.03657400000022
100
AcDbArc
 50
-79.70166700000181
 51
-65.87672399999883
  0
ARC
  5
27D
100
AcDbEntity
  8
LC-001-002-----0
  6
CONTINUOUS
 62
             7
100
AcDbCircle
 10
-89.03104140023362
 20
-34.31896388937505
 40
0.95718599999965
100
AcDbArc
 50
-66.72095399999272
 51
-43.77277800000753
  0
ARC
  5
27C
100
AcDbEntity
  8
LC-001-002-----0
  6
CONTINUOUS
 62
             7
100
AcDbCircle
 10
-88.61494740023363
 20
-34.71151288937505
 40
0.38519000000016
100
AcDbArc
 50
-44.42706500000993
 51
-2.01867800004451
  0
ARC
  5
27B
100
AcDbEntity
  8
LC-001-002-----0
  6
CONTINUOUS
 62
             7
100
AcDbCircle
 10
98.31581559976644
 20
-33.03989988937507
 40
2.84523600000042
100
AcDbArc
 50
91.88440500000468
 51
102.45466900001
  0
ARC
  5
27A
100
AcDbEntity
  8
LC-001-002-----0
  6
CONTINUOUS
 62
             7
100
AcDbCircle
 10
98.09767059976639
 20
-32.10607988937505
 40
1.88638099999971
100
AcDbArc
 50
102.1018169999991
 51
116.0205009999893
  0
ARC
  5
279
100
AcDbEntity
  8
LC-001-002-----0
  6
CONTINUOUS
 62
             7
100
AcDbCircle
 10
97.64603459976638
 20
-31.20924488937508
 40
0.88240999999989
100
AcDbArc
 50
115.21390099997869
 51
138.38834200003123
  0
ARC
  5
278
100
AcDbEntity
  8
LC-001-002-----0
  6
CONTINUOUS
 62
             7
100
AcDbCircle
 10
97.26375759976634
 20
-30.87335388937506
 40
0.37354700000027
100
AcDbArc
 50
137.96979800003029
 51
179.3424410000392
  0
ARC
  5
277
100
AcDbEntity
  8
LC-001-002-----0
  6
CONTINUOUS
 62
             7
100
AcDbCircle
 10
89.66701359976639
 20
-33.14646588937506
 40
2.95226199999983
100
AcDbArc
 50
89.87789499998962
 51
100.65907200000305
  0
ARC
  5
276
100
AcDbEntity
  8
LC-001-002-----0
  6
CONTINUOUS
 62
             7
100
AcDbCircle
 10
89.48503459976644
 20
-32.24891388937508
 40
2.03657799999992
100
AcDbArc
 50
100.2982959999929
 51
114.12321599998528
  0
ARC
  5
275
100
AcDbEntity
  8
LC-001-002-----0
  6
CONTINUOUS
 62
             7
100
AcDbCircle
 10
89.03097359976641
 20
-31.26945888937508
 40
0.95719000000051
100
AcDbArc
 50
113.27898900001446
 51
136.22710099999438
  0
ARC
  5
274
100
AcDbEntity
  8
LC-001-002-----0
  6
CONTINUOUS
 62
             7
100
AcDbCircle
 10
88.61487959976637
 20
-30.87690788937507
 40
0.38519099999987
100
AcDbArc
 50
135.57280300004078
 51
177.98109099996148
  0
ARC
  5
273
100
AcDbEntity
  8
LC-001-002-----0
  6
CONTINUOUS
 62
             7
100
AcDbCircle
 10
89.68450759976633
 20
-32.49128188937507
 40
2.90276399999977
100
AcDbArc
 50
-89.06955200000147
 51
-78.50413399999944
  0
ARC
  5
272
100
AcDbEntity
  8
LC-001-002-----0
  6
CONTINUOUS
 62
             7
100
AcDbCircle
 10
89.88149559976637
 20
-33.40025888937506
 40
1.97279799999993
100
AcDbArc
 50
-78.84917199998891
 51
-65.16570300000791
  0
ARC
  5
271
100
AcDbEntity
  8
LC-001-002-----0
  6
CONTINUOUS
 62
             7
100
AcDbCircle
 10
90.32893959976639
 20
-34.33624788937507
 40
0.93552899999953
100
AcDbArc
 50
-65.95924399999039
 51
-43.38502600003725
  0
ARC
  5
270
100
AcDbEntity
  8
LC-001-002-----0
  6
CONTINUOUS
 62
             7
100
AcDbCircle
 10
90.73082859976637
 20
-34.71061188937505
 40
0.38632599999949
100
AcDbArc
 50
-43.97614199999221
 51
-2.99595999999649
  0
ARC
  5
26F
100
AcDbEntity
  8
LC-001-002-----0
  6
CONTINUOUS
 62
             7
100
AcDbCircle
 10
98.33984759976636
 20
-32.44195688937506
 40
2.95226000000038
100
AcDbArc
 50
-90.12205299999688
 51
-79.34087099999562
  0
ARC
  5
26E
100
AcDbEntity
  8
LC-001-002-----0
  6
CONTINUOUS
 62
             7
100
AcDbCircle
 10
98.52182859976642
 20
-33.33951088937507
 40
2.03657299999993
100
AcDbArc
 50
-79.70164799998757
 51
-65.87670500000149
  0
ARC
  5
26D
100
AcDbEntity
  8
LC-001-002-----0
  6
CONTINUOUS
 62
             7
100
AcDbCircle
 10
98.97588959976645
 20
-34.31896388937505
 40
0.95718600000009
100
AcDbArc
 50
-66.72093500000331
 51
-43.77275999997244
  0
ARC
  5
26C
100
AcDbEntity
  8
LC-001-002-----0
  6
CONTINUOUS
 62
             7
100
AcDbCircle
 10
99.39198259976638
 20
-34.71151288937505
 40
0.38518899999984
100
AcDbArc
 50
-44.42704499999036
 51
-2.01867499992601
  0
ARC
  5
26B
100
AcDbEntity
  8
LC-001-002-----0
  6
CONTINUOUS
 62
             7
100
AcDbCircle
 10
93.94124159976639
 20
-41.06708088937506
 40
10.87178399999989
100
AcDbArc
 50
91.41077699999904
 51
96.72275700000161
  0
ARC
  5
26A
100
AcDbEntity
  8
LC-001-002-----0
  6
CONTINUOUS
 62
             7
100
AcDbCircle
 10
93.37856159976639
 20
-36.54421088937505
 40
6.31420999999949
100
AcDbArc
 50
96.45651499999615
 51
104.09815200000197
  0
ARC
  5
269
100
AcDbEntity
  8
LC-001-002-----0
  6
CONTINUOUS
 62
             7
100
AcDbCircle
 10
92.30172159976644
 20
-32.42032888937506
 40
2.05262700000049
100
AcDbArc
 50
102.98447800000426
 51
119.23126300000982
  0
ARC
  5
268
100
AcDbEntity
  8
LC-001-002-----0
  6
CONTINUOUS
 62
             7
100
AcDbCircle
 10
91.41690359976644
 20
-30.90795588937508
 40
0.30262800000029
100
AcDbArc
 50
112.85759199991843
 51
172.61628899996614
  0
ARC
  5
267
100
AcDbEntity
  8
LC-001-002-----0
  6
CONTINUOUS
 62
             7
100
AcDbCircle
 10
94.02849759976641
 20
-23.92151488937506
 40
11.47254199999998
100
AcDbArc
 50
-89.63836400000199
 51
-84.26290999999713
  0
ARC
  5
266
100
AcDbEntity
  8
LC-001-002-----0
  6
CONTINUOUS
 62
             7
100
AcDbCircle
 10
94.50293359976638
 20
-28.32663988937506
 40
7.04212699999965
100
AcDbArc
 50
-84.52087600000202
 51
-77.06860900000191
  0
ARC
  5
265
100
AcDbEntity
  8
LC-001-002-----0
  6
CONTINUOUS
 62
             7
100
AcDbCircle
 10
95.59241159976637
 20
-32.87649988937505
 40
2.36425199999974
100
AcDbArc
 50
-78.12677300000371
 51
-62.62092799999993
  0
ARC
  5
264
100
AcDbEntity
  8
LC-001-002-----0
  6
CONTINUOUS
 62
             7
100
AcDbCircle
 10
96.56238559976634
 20
-34.66373488937506
 40
0.33348700000003
100
AcDbArc
 50
-69.4085700000297
 51
-10.60006500003785
  0
ARC
  5
263
100
AcDbEntity
  8
LC-001-002-----0
  6
CONTINUOUS
 62
             7
100
AcDbCircle
 10
99.39198259976638
 20
-30.87690688937508
 40
0.38518999999984
100
AcDbArc
 50
2.0187690000194
 51
44.42710699997534
  0
ARC
  5
262
100
AcDbEntity
  8
LC-001-002-----0
  6
CONTINUOUS
 62
             7
100
AcDbCircle
 10
98.97588859976634
 20
-31.26945688937508
 40
0.95718699999999
100
AcDbArc
 50
43.77281699998166
 51
66.72096599997363
  0
ARC
  5
261
100
AcDbEntity
  8
LC-001-002-----0
  6
CONTINUOUS
 62
             7
100
AcDbCircle
 10
98.52182759976643
 20
-32.24891088937505
 40
2.03657500000018
100
AcDbArc
 50
65.87673799999972
 51
79.70167199999604
  0
ARC
  5
260
100
AcDbEntity
  8
LC-001-002-----0
  6
CONTINUOUS
 62
             7
100
AcDbCircle
 10
98.33984759976636
 20
-33.14646388937506
 40
2.95226100000021
100
AcDbArc
 50
79.34089499999131
 51
90.12207500000491
  0
ARC
  5
25F
100
AcDbEntity
  8
LC-001-002-----0
  6
CONTINUOUS
 62
             7
100
AcDbCircle
 10
96.57651859976636
 20
-30.91446788937506
 40
0.31682900000055
100
AcDbArc
 50
8.239897000071
 51
68.86547599999834
  0
ARC
  5
25E
100
AcDbEntity
  8
LC-001-002-----0
  6
CONTINUOUS
 62
             7
100
AcDbCircle
 10
95.62782959976642
 20
-32.61552288937505
 40
2.26188200000016
100
AcDbArc
 50
61.9703150000037
 51
77.86899000001145
  0
ARC
  5
25D
100
AcDbEntity
  8
LC-001-002-----0
  6
CONTINUOUS
 62
             7
100
AcDbCircle
 10
94.5321035997664
 20
-37.08513288937507
 40
6.86321699999944
100
AcDbArc
 50
76.76711800000238
 51
84.31313700000281
  0
ARC
  5
25C
100
AcDbEntity
  8
LC-001-002-----0
  6
CONTINUOUS
 62
             7
100
AcDbCircle
 10
94.03455359976636
 20
-41.55279188937507
 40
11.35831100000039
100
AcDbArc
 50
84.04884399999887
 51
89.43490400000097
  0
ARC
  5
25B
100
AcDbEntity
  8
LC-001-002-----0
  6
CONTINUOUS
 62
             7
100
AcDbCircle
 10
90.73517459976642
 20
-30.87658888937505
 40
0.38192400000005
100
AcDbArc
 50
2.84829199996508
 51
42.84541299999336
  0
ARC
  5
25A
100
AcDbEntity
  8
LC-001-002-----0
  6
CONTINUOUS
 62
             7
100
AcDbCircle
 10
90.35235759976638
 20
-31.22140088937507
 40
0.89711299999938
100
AcDbArc
 50
42.36569200000184
 51
64.86233099998826
  0
ARC
  5
259
100
AcDbEntity
  8
LC-001-002-----0
  6
CONTINUOUS
 62
             7
100
AcDbCircle
 10
89.90948259976642
 20
-32.10647888937506
 40
1.88666100000006
100
AcDbArc
 50
64.10450699999242
 51
77.7672760000053
  0
ARC
  5
258
100
AcDbEntity
  8
LC-001-002-----0
  6
CONTINUOUS
 62
             7
100
AcDbCircle
 10
89.69268059976639
 20
-33.02810388937508
 40
2.8333459999998
100
AcDbArc
 50
77.43151600000306
 51
87.83803499999407
  0
ARC
  5
257
100
AcDbEntity
  8
LC-001-002-----0
  6
CONTINUOUS
 62
             7
100
AcDbCircle
 10
97.26956159976635
 20
-34.71301088937505
 40
0.37957099999988
100
AcDbArc
 50
-178.17767000002007
 51
-137.03794100004541
  0
ARC
  5
256
100
AcDbEntity
  8
LC-001-002-----0
  6
CONTINUOUS
 62
             7
100
AcDbCircle
 10
97.66088359976641
 20
-34.35943088937506
 40
0.90694700000047
100
AcDbArc
 50
-137.53956600001186
 51
-114.67191599999461
  0
ARC
  5
255
100
AcDbEntity
  8
LC-001-002-----0
  6
CONTINUOUS
 62
             7
100
AcDbCircle
 10
98.11044859976641
 20
-33.44504788937507
 40
1.92570500000037
100
AcDbArc
 50
-115.47056900000133
 51
-101.67308799999913
  0
ARC
  5
254
100
AcDbEntity
  8
LC-001-002-----0
  6
CONTINUOUS
 62
             7
100
AcDbCircle
 10
98.31894459976638
 20
-32.52217488937506
 40
2.87172800000044
100
AcDbArc
 50
-102.02148399999356
 51
-91.46323200000384
  0
ARC
  5
253
100
AcDbEntity
  8
LC-001-002-----0
  6
CONTINUOUS
 62
             7
100
AcDbCircle
 10
91.47120759976644
 20
-34.64537388937506
 40
0.36457400000038
100
AcDbArc
 50
-166.44764699999902
 51
-108.90285900000598
  0
ARC
  5
252
100
AcDbEntity
  8
LC-001-002-----0
  6
CONTINUOUS
 62
             7
100
AcDbCircle
 10
92.51207259976638
 20
-32.60440988937506
 40
2.65247500000007
100
AcDbArc
 50
-115.90883000000959
 51
-101.00498000000368
  0
ARC
  5
251
100
AcDbEntity
  8
LC-001-002-----0
  6
CONTINUOUS
 62
             7
100
AcDbCircle
 10
93.59904859976643
 20
-27.72106688937506
 40
7.65470200000031
100
AcDbArc
 50
-102.01390099999884
 51
-94.6975320000021
  0
ARC
  5
250
100
AcDbEntity
  8
LC-001-002-----0
  6
CONTINUOUS
 62
             7
100
AcDbCircle
 10
93.99561559976644
 20
-23.53381888937505
 40
11.86047600000047
100
AcDbArc
 50
-94.95027200000024
 51
-89.49289499999847
  0
ARC
  5
24F
100
AcDbEntity
  8
LC-001-002-----0
  6
CONTINUOUS
 62
             7
100
AcDbCircle
 10
88.61487859976637
 20
-34.71151288937505
 40
0.38519000000024
100
AcDbArc
 50
-177.98132199995669
 51
-135.57293500001967
  0
ARC
  5
24E
100
AcDbEntity
  8
LC-001-002-----0
  6
CONTINUOUS
 62
             7
100
AcDbCircle
 10
89.03097159976642
 20
-34.31896388937505
 40
0.95718600000003
100
AcDbArc
 50
-136.22722199999012
 51
-113.27904600003855
  0
ARC
  5
24D
100
AcDbEntity
  8
LC-001-002-----0
  6
CONTINUOUS
 62
             7
100
AcDbCircle
 10
89.48503359976644
 20
-33.33950988937505
 40
2.03657400000005
100
AcDbArc
 50
-114.12327600000117
 51
-100.29833300000921
  0
ARC
  5
24C
100
AcDbEntity
  8
LC-001-002-----0
  6
CONTINUOUS
 62
             7
100
AcDbCircle
 10
89.66701359976639
 20
-32.44195588937506
 40
2.95226100000027
100
AcDbArc
 50
-100.65910999999156
 51
-89.87792499999289
  0
ARC
  5
24B
100
AcDbEntity
  8
LC-001-002-----0
  6
CONTINUOUS
 62
             7
100
AcDbCircle
 10
-50.09715440023358
 20
-30.87291388937507
 40
0.37354699999998
100
AcDbArc
 50
0.65755899996021
 51
42.03020200000475
  0
ARC
  5
24A
100
AcDbEntity
  8
LC-001-002-----0
  6
CONTINUOUS
 62
             7
100
AcDbCircle
 10
-50.47943240023357
 20
-31.20880488937508
 40
0.88240999999981
100
AcDbArc
 50
41.6116579999902
 51
64.78609900000167
  0
ARC
  5
249
100
AcDbEntity
  8
LC-001-002-----0
  6
CONTINUOUS
 62
             7
100
AcDbCircle
 10
-50.93106840023357
 20
-32.10563988937505
 40
1.88638100000016
100
AcDbArc
 50
63.97949900000461
 51
77.89818299999743
  0
ARC
  5
248
100
AcDbEntity
  8
LC-001-002-----0
  6
CONTINUOUS
 62
             7
100
AcDbCircle
 10
-51.14921340023362
 20
-33.03945988937505
 40
2.84523599999987
100
AcDbArc
 50
77.5453309999977
 51
88.11559499999875
  0
ARC
  5
247
100
AcDbEntity
  8
LC-001-002-----0
  6
CONTINUOUS
 62
             7
100
AcDbCircle
 10
-41.44827640023361
 20
-30.87646788937508
 40
0.38519100000006
100
AcDbArc
 50
2.01890900004199
 51
44.42719699997481
  0
ARC
  5
246
100
AcDbEntity
  8
LC-001-002-----0
  6
CONTINUOUS
 62
             7
100
AcDbCircle
 10
-41.8643714002336
 20
-31.26901888937507
 40
0.95719000000016
100
AcDbArc
 50
43.77289900000706
 51
66.72101100001015
  0
ARC
  5
245
100
AcDbEntity
  8
LC-001-002-----0
  6
CONTINUOUS
 62
             7
100
AcDbCircle
 10
-42.31843140023362
 20
-32.24847388937507
 40
2.0365780000002
100
AcDbArc
 50
65.87678400000013
 51
79.70170399999917
  0
ARC
  5
244
100
AcDbEntity
  8
LC-001-002-----0
  6
CONTINUOUS
 62
             7
100
AcDbCircle
 10
-42.50041040023358
 20
-33.14602588937506
 40
2.95226200000021
100
AcDbArc
 50
79.34092800000032
 51
90.12210499999949
  0
ARC
  5
243
100
AcDbEntity
  8
LC-001-002-----0
  6
CONTINUOUS
 62
             7
100
AcDbCircle
 10
-43.56422640023361
 20
-34.71017188937506
 40
0.38632600000002
100
AcDbArc
 50
-177.0040400000064
 51
-136.02385800003859
  0
ARC
  5
242
100
AcDbEntity
  8
LC-001-002-----0
  6
CONTINUOUS
 62
             7
100
AcDbCircle
 10
-43.16233740023357
 20
-34.33580788937507
 40
0.93552900000034
100
AcDbArc
 50
-136.61497399998365
 51
-114.04075600001038
  0
ARC
  5
241
100
AcDbEntity
  8
LC-001-002-----0
  6
CONTINUOUS
 62
             7
100
AcDbCircle
 10
-42.71489340023361
 20
-33.39981888937506
 40
1.9727980000002
100
AcDbArc
 50
-114.83429699999631
 51
-101.15082800000137
  0
ARC
  5
240
100
AcDbEntity
  8
LC-001-002-----0
  6
CONTINUOUS
 62
             7
100
AcDbCircle
 10
-42.51790440023358
 20
-32.49084188937507
 40
2.90276399999981
100
AcDbArc
 50
-101.49586600000147
 51
-90.93044799999953
  0
ARC
  5
23F
100
AcDbEntity
  8
LC-001-002-----0
  6
CONTINUOUS
 62
             7
100
AcDbCircle
 10
-52.22538040023355
 20
-34.71107288937505
 40
0.38518900000005
100
AcDbArc
 50
-177.98132500007208
 51
-135.5729550000222
  0
ARC
  5
23E
100
AcDbEntity
  8
LC-001-002-----0
  6
CONTINUOUS
 62
             7
100
AcDbCircle
 10
-51.80928640023357
 20
-34.31852388937505
 40
0.95718599999981
100
AcDbArc
 50
-136.2272400000117
 51
-113.27906500000022
  0
ARC
  5
23D
100
AcDbEntity
  8
LC-001-002-----0
  6
CONTINUOUS
 62
             7
100
AcDbCircle
 10
-51.35522540023361
 20
-33.33907188937507
 40
2.03657299999999
100
AcDbArc
 50
-114.12329499999851
 51
-100.29835199999984
  0
ARC
  5
23C
100
AcDbEntity
  8
LC-001-002-----0
  6
CONTINUOUS
 62
             7
100
AcDbCircle
 10
-51.1732454002336
 20
-32.44151688937506
 40
2.95225999999982
100
AcDbArc
 50
-100.65912900000112
 51
-89.87794699999884
  0
ARC
  5
23B
100
AcDbEntity
  8
LC-001-002-----0
  6
CONTINUOUS
 62
             7
100
AcDbCircle
 10
-44.25030040023357
 20
-30.90751588937507
 40
0.30262800000004
100
AcDbArc
 50
7.38371100003337
 51
67.14240800003043
  0
ARC
  5
23A
100
AcDbEntity
  8
LC-001-002-----0
  6
CONTINUOUS
 62
             7
100
AcDbCircle
 10
-45.13511940023362
 20
-32.41988988937506
 40
2.05262700000011
100
AcDbArc
 50
60.76873700000006
 51
77.01552200000192
  0
ARC
  5
239
100
AcDbEntity
  8
LC-001-002-----0
  6
CONTINUOUS
 62
             7
100
AcDbCircle
 10
-46.21195940023357
 20
-36.54377088937505
 40
6.31421000000041
100
AcDbArc
 50
75.901848000001
 51
83.54348500000026
  0
ARC
  5
238
100
AcDbEntity
  8
LC-001-002-----0
  6
CONTINUOUS
 62
             7
100
AcDbCircle
 10
-46.77463940023357
 20
-41.06664088937506
 40
10.87178399999957
100
AcDbArc
 50
83.27724299999989
 51
88.58922300000037
  0
ARC
  5
237
100
AcDbEntity
  8
LC-001-002-----0
  6
CONTINUOUS
 62
             7
100
AcDbCircle
 10
-49.39578240023359
 20
-34.66329488937506
 40
0.33348700000007
100
AcDbArc
 50
-169.39993499994478
 51
-110.59142999999659
  0
ARC
  5
236
100
AcDbEntity
  8
LC-001-002-----0
  6
CONTINUOUS
 62
             7
100
AcDbCircle
 10
-48.42580940023361
 20
-32.87606088937505
 40
2.36425200000014
100
AcDbArc
 50
-117.37907199999763
 51
-101.87322700000017
  0
ARC
  5
235
100
AcDbEntity
  8
LC-001-002-----0
  6
CONTINUOUS
 62
             7
100
AcDbCircle
 10
-47.33633040023357
 20
-28.32619988937507
 40
7.04212699999959
100
AcDbArc
 50
-102.93139100000124
 51
-95.47912400000072
  0
ARC
  5
234
100
AcDbEntity
  8
LC-001-002-----0
  6
CONTINUOUS
 62
             7
100
AcDbCircle
 10
-46.8618954002336
 20
-23.92107488937507
 40
11.47254199999948
100
AcDbArc
 50
-95.73709000000028
 51
-90.36163599999998
  0
ARC
  5
233
100
AcDbEntity
  8
LC-001-002-----0
  6
CONTINUOUS
 62
             7
100
AcDbCircle
 10
-51.1732454002336
 20
-33.14602388937507
 40
2.95226099999968
100
AcDbArc
 50
89.8779249999984
 51
100.65910499999896
  0
ARC
  5
232
100
AcDbEntity
  8
LC-001-002-----0
  6
CONTINUOUS
 62
             7
100
AcDbCircle
 10
-51.35522540023361
 20
-32.24847088937505
 40
2.03657500000049
100
AcDbArc
 50
100.29832799999778
 51
114.12326199999876
  0
ARC
  5
231
100
AcDbEntity
  8
LC-001-002-----0
  6
CONTINUOUS
 62
             7
100
AcDbCircle
 10
-51.80928540023358
 20
-31.26901688937506
 40
0.95718699999992
100
AcDbArc
 50
113.27903400000227
 51
136.22718300001253
  0
ARC
  5
230
100
AcDbEntity
  8
LC-001-002-----0
  6
CONTINUOUS
 62
             7
100
AcDbCircle
 10
-52.22537940023357
 20
-30.87646788937508
 40
0.38518999999986
100
AcDbArc
 50
135.57289300002984
 51
177.98123099998145
  0
ARC
  5
22F
100
AcDbEntity
  8
LC-001-002-----0
  6
CONTINUOUS
 62
             7
100
AcDbCircle
 10
-46.8679514002336
 20
-41.55235188937507
 40
11.35831099999978
100
AcDbArc
 50
90.5650959999999
 51
95.95115599999971
  0
ARC
  5
22E
100
AcDbEntity
  8
LC-001-002-----0
  6
CONTINUOUS
 62
             7
100
AcDbCircle
 10
-47.36550040023359
 20
-37.08469388937507
 40
6.86321699999956
100
AcDbArc
 50
95.6868630000005
 51
103.23288200000087
  0
ARC
  5
22D
100
AcDbEntity
  8
LC-001-002-----0
  6
CONTINUOUS
 62
             7
100
AcDbCircle
 10
-48.4612274002336
 20
-32.61508288937505
 40
2.26188200000037
100
AcDbArc
 50
102.13100999999844
 51
118.02968499999895
  0
ARC
  5
22C
100
AcDbEntity
  8
LC-001-002-----0
  6
CONTINUOUS
 62
             7
100
AcDbCircle
 10
-49.4099154002336
 20
-30.91402888937506
 40
0.31682899999958
100
AcDbArc
 50
111.13452400002083
 51
171.76010299991574
  0
ARC
  5
22B
100
AcDbEntity
  8
LC-001-002-----0
  6
CONTINUOUS
 62
             7
100
AcDbCircle
 10
-42.52607740023358
 20
-33.02766388937507
 40
2.83334599999966
100
AcDbArc
 50
92.16196500000007
 51
102.56848400000132
  0
ARC
  5
22A
100
AcDbEntity
  8
LC-001-002-----0
  6
CONTINUOUS
 62
             7
100
AcDbCircle
 10
-42.7428804002336
 20
-32.10603888937506
 40
1.88666099999962
100
AcDbArc
 50
102.2327240000017
 51
115.89549300000148
  0
ARC
  5
229
100
AcDbEntity
  8
LC-001-002-----0
  6
CONTINUOUS
 62
             7
100
AcDbCircle
 10
-43.18575440023357
 20
-31.22096088937508
 40
0.89711300000026
100
AcDbArc
 50
115.13766899999489
 51
137.63430800002146
  0
ARC
  5
228
100
AcDbEntity
  8
LC-001-002-----0
  6
CONTINUOUS
 62
             7
100
AcDbCircle
 10
-43.56857140023361
 20
-30.87614888937506
 40
0.38192400000012
100
AcDbArc
 50
137.15458699997021
 51
177.15170800003452
  0
ARC
  5
227
100
AcDbEntity
  8
LC-001-002-----0
  6
CONTINUOUS
 62
             7
100
AcDbCircle
 10
-51.15234240023356
 20
-32.52173488937506
 40
2.87172799999964
100
AcDbArc
 50
-88.53676800000098
 51
-77.97851600000203
  0
ARC
  5
226
100
AcDbEntity
  8
LC-001-002-----0
  6
CONTINUOUS
 62
             7
100
AcDbCircle
 10
-50.9438454002336
 20
-33.44460788937507
 40
1.92570499999989
100
AcDbArc
 50
-78.32691199999756
 51
-64.52943100000319
  0
ARC
  5
225
100
AcDbEntity
  8
LC-001-002-----0
  6
CONTINUOUS
 62
             7
100
AcDbCircle
 10
-50.49428140023359
 20
-34.35899088937507
 40
0.90694700000025
100
AcDbArc
 50
-65.32808400000559
 51
-42.46043400000785
  0
ARC
  5
224
100
AcDbEntity
  8
LC-001-002-----0
  6
CONTINUOUS
 62
             7
100
AcDbCircle
 10
-50.10295840023359
 20
-34.71257088937505
 40
0.37957099999975
100
AcDbArc
 50
-42.96205899996043
 51
-1.82232999997966
  0
ARC
  5
223
100
AcDbEntity
  8
LC-001-002-----0
  6
CONTINUOUS
 62
             7
100
AcDbCircle
 10
-46.82901340023362
 20
-23.53337888937505
 40
11.86047600000002
100
AcDbArc
 50
-90.50710500000018
 51
-85.04972800000031
  0
ARC
  5
222
100
AcDbEntity
  8
LC-001-002-----0
  6
CONTINUOUS
 62
             7
100
AcDbCircle
 10
-46.43244540023362
 20
-27.72062688937507
 40
7.65470200000025
100
AcDbArc
 50
-85.30246800000002
 51
-77.98609900000031
  0
ARC
  5
221
100
AcDbEntity
  8
LC-001-002-----0
  6
CONTINUOUS
 62
             7
100
AcDbCircle
 10
-45.34546940023357
 20
-32.60396988937506
 40
2.65247499999976
100
AcDbArc
 50
-78.99501999999873
 51
-64.09116999999829
  0
ARC
  5
220
100
AcDbEntity
  8
LC-001-002-----0
  6
CONTINUOUS
 62
             7
100
AcDbCircle
 10
-44.30460540023357
 20
-34.64493388937506
 40
0.36457400000001
100
AcDbArc
 50
-71.09714100001092
 51
-13.55235300001481
  0
ARC
  5
21F
100
AcDbEntity
  8
LC-001-002-----0
  6
CONTINUOUS
 62
             7
100
AcDbCircle
 10
-42.50041040023358
 20
-32.44151588937506
 40
2.95226099999966
100
AcDbArc
 50
-90.12207500000174
 51
-79.34089000000208
  0
ARC
  5
21E
100
AcDbEntity
  8
LC-001-002-----0
  6
CONTINUOUS
 62
             7
100
AcDbCircle
 10
-42.31843040023357
 20
-33.33906988937505
 40
2.03657400000019
100
AcDbArc
 50
-79.70166700000128
 51
-65.87672400000156
  0
ARC
  5
21D
100
AcDbEntity
  8
LC-001-002-----0
  6
CONTINUOUS
 62
             7
100
AcDbCircle
 10
-41.8643694002336
 20
-34.31852388937505
 40
0.95718599999965
100
AcDbArc
 50
-66.72095399999311
 51
-43.77277800000813
  0
ARC
  5
21C
100
AcDbEntity
  8
LC-001-002-----0
  6
CONTINUOUS
 62
             7
100
AcDbCircle
 10
-41.44827540023361
 20
-34.71107288937505
 40
0.38519000000016
100
AcDbArc
 50
-44.42706500000993
 51
-2.01867800004349
  0
ARC
  5
21B
100
AcDbEntity
  8
LC-001-002-----0
  6
CONTINUOUS
 62
             7
100
AcDbCircle
 10
51.14919259976638
 20
-33.03947988937505
 40
2.84523600000005
100
AcDbArc
 50
91.88438299999957
 51
102.45464799999895
  0
ARC
  5
21A
100
AcDbEntity
  8
LC-001-002-----0
  6
CONTINUOUS
 62
             7
100
AcDbCircle
 10
50.93104759976639
 20
-32.10565888937506
 40
1.88638099999986
100
AcDbArc
 50
102.10179500000099
 51
116.02047899999745
  0
ARC
  5
219
100
AcDbEntity
  8
LC-001-002-----0
  6
CONTINUOUS
 62
             7
100
AcDbCircle
 10
50.47941259976643
 20
-31.20882488937506
 40
0.88240999999969
100
AcDbArc
 50
115.21387900000539
 51
138.38832000001102
  0
ARC
  5
218
100
AcDbEntity
  8
LC-001-002-----0
  6
CONTINUOUS
 62
             7
100
AcDbCircle
 10
50.09713459976639
 20
-30.87293288937505
 40
0.37354699999988
100
AcDbArc
 50
137.96977700002705
 51
179.34241899993361
  0
ARC
  5
217
100
AcDbEntity
  8
LC-001-002-----0
  6
CONTINUOUS
 62
             7
100
AcDbCircle
 10
42.50039059976639
 20
-33.14604188937505
 40
2.95226199999986
100
AcDbArc
 50
89.87787299999972
 51
100.65904999999943
  0
ARC
  5
216
100
AcDbEntity
  8
LC-001-002-----0
  6
CONTINUOUS
 62
             7
100
AcDbCircle
 10
42.31841159976639
 20
-32.24848988937506
 40
2.03657800000046
100
AcDbArc
 50
100.2982739999966
 51
114.12319400000061
  0
ARC
  5
215
100
AcDbEntity
  8
LC-001-002-----0
  6
CONTINUOUS
 62
             7
100
AcDbCircle
 10
41.86435159976642
 20
-31.26903488937507
 40
0.95718999999962
100
AcDbArc
 50
113.27896700000993
 51
136.22707899999412
  0
ARC
  5
214
100
AcDbEntity
  8
LC-001-002-----0
  6
CONTINUOUS
 62
             7
100
AcDbCircle
 10
41.44825659976642
 20
-30.87648388937506
 40
0.38519100000028
100
AcDbArc
 50
135.57278099995673
 51
177.98106899994812
  0
ARC
  5
213
100
AcDbEntity
  8
LC-001-002-----0
  6
CONTINUOUS
 62
             7
100
AcDbCircle
 10
42.51788459976639
 20
-32.49085788937506
 40
2.90276399999967
100
AcDbArc
 50
-89.06957399999993
 51
-78.50415599999967
  0
ARC
  5
212
100
AcDbEntity
  8
LC-001-002-----0
  6
CONTINUOUS
 62
             7
100
AcDbCircle
 10
42.71487259976642
 20
-33.39983488937505
 40
1.97279800000008
100
AcDbArc
 50
-78.84919300000151
 51
-65.1657249999988
  0
ARC
  5
211
100
AcDbEntity
  8
LC-001-002-----0
  6
CONTINUOUS
 62
             7
100
AcDbCircle
 10
43.16231659976639
 20
-34.33582388937506
 40
0.9355290000003
100
AcDbArc
 50
-65.95926600000828
 51
-43.38504700000993
  0
ARC
  5
210
100
AcDbEntity
  8
LC-001-002-----0
  6
CONTINUOUS
 62
             7
100
AcDbCircle
 10
43.56420459976643
 20
-34.71018788937507
 40
0.38632599999993
100
AcDbArc
 50
-43.97616399999195
 51
-2.995982000023
  0
ARC
  5
20F
100
AcDbEntity
  8
LC-001-002-----0
  6
CONTINUOUS
 62
             7
100
AcDbCircle
 10
51.17322459976641
 20
-32.44153588937508
 40
2.95226000000035
100
AcDbArc
 50
-90.12207499999917
 51
-79.34089300000137
  0
ARC
  5
20E
100
AcDbEntity
  8
LC-001-002-----0
  6
CONTINUOUS
 62
             7
100
AcDbCircle
 10
51.35520459976642
 20
-33.33909088937505
 40
2.03657299999999
100
AcDbArc
 50
-79.70166999999853
 51
-65.87672699999318
  0
ARC
  5
20D
100
AcDbEntity
  8
LC-001-002-----0
  6
CONTINUOUS
 62
             7
100
AcDbCircle
 10
51.80926559976639
 20
-34.31854388937506
 40
0.95718600000042
100
AcDbArc
 50
-66.72095700001125
 51
-43.77278200000782
  0
ARC
  5
20C
100
AcDbEntity
  8
LC-001-002-----0
  6
CONTINUOUS
 62
             7
100
AcDbCircle
 10
52.22535859976644
 20
-34.71109288937506
 40
0.38518899999985
100
AcDbArc
 50
-44.42706699998237
 51
-2.01869700005092
  0
ARC
  5
20B
100
AcDbEntity
  8
LC-001-002-----0
  6
CONTINUOUS
 62
             7
100
AcDbCircle
 10
46.77461559976639
 20
-41.06665888937507
 40
10.87178400000046
100
AcDbArc
 50
91.41075499999987
 51
96.72273499999993
  0
ARC
  5
20A
100
AcDbEntity
  8
LC-001-002-----0
  6
CONTINUOUS
 62
             7
100
AcDbCircle
 10
46.21193659976639
 20
-36.54378888937506
 40
6.31421000000011
100
AcDbArc
 50
96.45649299999973
 51
104.09813099999911
  0
ARC
  5
209
100
AcDbEntity
  8
LC-001-002-----0
  6
CONTINUOUS
 62
             7
100
AcDbCircle
 10
45.13509859976638
 20
-32.41990688937505
 40
2.05262699999995
100
AcDbArc
 50
102.98445599999758
 51
119.23124099999779
  0
ARC
  5
208
100
AcDbEntity
  8
LC-001-002-----0
  6
CONTINUOUS
 62
             7
100
AcDbCircle
 10
44.25028059976638
 20
-30.90753288937507
 40
0.30262799999983
100
AcDbArc
 50
112.85757100000161
 51
172.61626800000454
  0
ARC
  5
207
100
AcDbEntity
  8
LC-001-002-----0
  6
CONTINUOUS
 62
             7
100
AcDbCircle
 10
46.8618775997664
 20
-23.92109288937508
 40
11.47254199999993
100
AcDbArc
 50
-89.6383860000003
 51
-84.26293199999992
  0
ARC
  5
206
100
AcDbEntity
  8
LC-001-002-----0
  6
CONTINUOUS
 62
             7
100
AcDbCircle
 10
47.33631159976643
 20
-28.32621788937508
 40
7.0421270000002
100
AcDbArc
 50
-84.52089700000005
 51
-77.06863099999909
  0
ARC
  5
205
100
AcDbEntity
  8
LC-001-002-----0
  6
CONTINUOUS
 62
             7
100
AcDbCircle
 10
48.42578859976642
 20
-32.87607888937506
 40
2.36425200000023
100
AcDbArc
 50
-78.12679400000087
 51
-62.6209499999977
  0
ARC
  5
204
100
AcDbEntity
  8
LC-001-002-----0
  6
CONTINUOUS
 62
             7
100
AcDbCircle
 10
49.3957615997664
 20
-34.66331388937507
 40
0.33348699999981
100
AcDbArc
 50
-69.40859199997662
 51
-10.60008699993831
  0
ARC
  5
203
100
AcDbEntity
  8
LC-001-002-----0
  6
CONTINUOUS
 62
             7
100
AcDbCircle
 10
52.22535959976644
 20
-30.87648688937506
 40
0.38518999999997
100
AcDbArc
 50
2.01874699994689
 51
44.42708499999899
  0
ARC
  5
202
100
AcDbEntity
  8
LC-001-002-----0
  6
CONTINUOUS
 62
             7
100
AcDbCircle
 10
51.80926559976639
 20
-31.26903688937506
 40
0.95718700000035
100
AcDbArc
 50
43.77279500001929
 51
66.72094500000412
  0
ARC
  5
201
100
AcDbEntity
  8
LC-001-002-----0
  6
CONTINUOUS
 62
             7
100
AcDbCircle
 10
51.35520459976642
 20
-32.24848988937506
 40
2.03657499999991
100
AcDbArc
 50
65.87671599999899
 51
79.70165000000287
  0
ARC
  5
200
100
AcDbEntity
  8
LC-001-002-----0
  6
CONTINUOUS
 62
             7
100
AcDbCircle
 10
51.17322459976641
 20
-33.14604388937504
 40
2.95226100000045
100
AcDbArc
 50
79.34087300000037
 51
90.12205299999975
  0
ARC
  5
1FF
100
AcDbEntity
  8
LC-001-002-----0
  6
CONTINUOUS
 62
             7
100
AcDbCircle
 10
49.40989559976642
 20
-30.91404688937508
 40
0.31682900000004
100
AcDbArc
 50
8.23987500003775
 51
68.86545399999515
  0
ARC
  5
1FE
100
AcDbEntity
  8
LC-001-002-----0
  6
CONTINUOUS
 62
             7
100
AcDbCircle
 10
48.46120759976641
 20
-32.61510188937506
 40
2.26188199999985
100
AcDbArc
 50
61.97029299999839
 51
77.86896799999839
  0
ARC
  5
1FD
100
AcDbEntity
  8
LC-001-002-----0
  6
CONTINUOUS
 62
             7
100
AcDbCircle
 10
47.36547859976641
 20
-37.08471188937505
 40
6.86321700000019
100
AcDbArc
 50
76.76709600000061
 51
84.31311499999964
  0
ARC
  5
1FC
100
AcDbEntity
  8
LC-001-002-----0
  6
CONTINUOUS
 62
             7
100
AcDbCircle
 10
46.86792759976643
 20
-41.55236988937505
 40
11.35831100000016
100
AcDbArc
 50
84.04882199999996
 51
89.43488200000024
  0
ARC
  5
1FB
100
AcDbEntity
  8
LC-001-002-----0
  6
CONTINUOUS
 62
             7
100
AcDbCircle
 10
43.56855159976642
 20
-30.87616588937508
 40
0.38192399999995
100
AcDbArc
 50
2.84826999998599
 51
42.845391000059
  0
ARC
  5
1FA
100
AcDbEntity
  8
LC-001-002-----0
  6
CONTINUOUS
 62
             7
100
AcDbCircle
 10
43.18573459976643
 20
-31.22097688937506
 40
0.89711299999994
100
AcDbArc
 50
42.36566999999859
 51
64.86230999999212
  0
ARC
  5
1F9
100
AcDbEntity
  8
LC-001-002-----0
  6
CONTINUOUS
 62
             7
100
AcDbCircle
 10
42.74285959976642
 20
-32.10605588937505
 40
1.88666100000028
100
AcDbArc
 50
64.10448500000361
 51
77.76725400000257
  0
ARC
  5
1F8
100
AcDbEntity
  8
LC-001-002-----0
  6
CONTINUOUS
 62
             7
100
AcDbCircle
 10
42.52605659976639
 20
-33.02767988937506
 40
2.83334599999986
100
AcDbArc
 50
77.43149399999784
 51
87.83801299999928
  0
ARC
  5
1F7
100
AcDbEntity
  8
LC-001-002-----0
  6
CONTINUOUS
 62
             7
100
AcDbCircle
 10
50.1029375997664
 20
-34.71258988937506
 40
0.37957099999996
100
AcDbArc
 50
-178.17769200000819
 51
-137.0379629999527
  0
ARC
  5
1F6
100
AcDbEntity
  8
LC-001-002-----0
  6
CONTINUOUS
 62
             7
100
AcDbCircle
 10
50.49425959976642
 20
-34.35901088937506
 40
0.90694700000003
100
AcDbArc
 50
-137.53958799999637
 51
-114.67193700000284
  0
ARC
  5
1F5
100
AcDbEntity
  8
LC-001-002-----0
  6
CONTINUOUS
 62
             7
100
AcDbCircle
 10
50.94382559976641
 20
-33.44462688937505
 40
1.92570500000021
100
AcDbArc
 50
-115.47058999999771
 51
-101.67310999999593
  0
ARC
  5
1F4
100
AcDbEntity
  8
LC-001-002-----0
  6
CONTINUOUS
 62
             7
100
AcDbCircle
 10
51.15232159976645
 20
-32.52175388937507
 40
2.87172799999992
100
AcDbArc
 50
-102.02150600000085
 51
-91.46325399999991
  0
ARC
  5
1F3
100
AcDbEntity
  8
LC-001-002-----0
  6
CONTINUOUS
 62
             7
100
AcDbCircle
 10
44.30458459976638
 20
-34.64495088937505
 40
0.36457399999988
100
AcDbArc
 50
-166.44766900004245
 51
-108.90288100001067
  0
ARC
  5
1F2
100
AcDbEntity
  8
LC-001-002-----0
  6
CONTINUOUS
 62
             7
100
AcDbCircle
 10
45.34544959976644
 20
-32.60398788937507
 40
2.65247499999997
100
AcDbArc
 50
-115.90885200000176
 51
-101.00500199999875
  0
ARC
  5
1F1
100
AcDbEntity
  8
LC-001-002-----0
  6
CONTINUOUS
 62
             7
100
AcDbCircle
 10
46.43242759976643
 20
-27.72064388937506
 40
7.6547020000003
100
AcDbArc
 50
-102.01392299999974
 51
-94.69755400000057
  0
ARC
  5
1F0
100
AcDbEntity
  8
LC-001-002-----0
  6
CONTINUOUS
 62
             7
100
AcDbCircle
 10
46.82899659976643
 20
-23.53339688937507
 40
11.86047600000023
100
AcDbArc
 50
-94.95029399999999
 51
-89.49291699999989
  0
ARC
  5
1EF
100
AcDbEntity
  8
LC-001-002-----0
  6
CONTINUOUS
 62
             7
100
AcDbCircle
 10
41.44825459976643
 20
-34.71108788937504
 40
0.38518999999999
100
AcDbArc
 50
-177.98134400001967
 51
-135.57295599995837
  0
ARC
  5
1EE
100
AcDbEntity
  8
LC-001-002-----0
  6
CONTINUOUS
 62
             7
100
AcDbCircle
 10
41.86434859976642
 20
-34.31853988937507
 40
0.95718600000031
100
AcDbArc
 50
-136.22724299997822
 51
-113.27906799999275
  0
ARC
  5
1ED
100
AcDbEntity
  8
LC-001-002-----0
  6
CONTINUOUS
 62
             7
100
AcDbCircle
 10
42.31840959976638
 20
-33.33908588937506
 40
2.03657399999973
100
AcDbArc
 50
-114.12329800000097
 51
-100.29835499999717
  0
ARC
  5
1EC
100
AcDbEntity
  8
LC-001-002-----0
  6
CONTINUOUS
 62
             7
100
AcDbCircle
 10
42.50039059976639
 20
-32.44153188937505
 40
2.95226099999982
100
AcDbArc
 50
-100.65913200000065
 51
-89.87794699999901
  0
LINE
  5
1EB
100
AcDbEntity
  8
LC-001-002-----0
  6
CONTINUOUS
 62
             7
100
AcDbLine
 10
-101.5035234002336
 20
-28.69376988937507
 11
-101.5035234002336
 21
-14.69376988937506
  0
LINE
  5
1EA
100
AcDbEntity
  8
LC-001-002-----0
  6
CONTINUOUS
 62
             7
100
AcDbLine
 10
-100.0035234002336
 20
-30.19376988937507
 11
-97.50352340023358
 21
-30.19376988937507
  0
LINE
  5
1E9
100
AcDbEntity
  8
LC-001-002-----0
  6
CONTINUOUS
 62
             7
100
AcDbLine
 10
101.5034535997665
 20
-28.69376988937507
 11
101.5034535997665
 21
-14.69376988937506
  0
LINE
  5
1E8
100
AcDbEntity
  8
LC-001-002-----0
  6
CONTINUOUS
 62
             7
100
AcDbLine
 10
100.0034535997665
 20
-30.19376988937507
 11
86.95284859976641
 21
-30.19376988937507
  0
LINE
  5
1E7
100
AcDbEntity
  8
LC-001-002-----0
  6
CONTINUOUS
 62
             7
100
AcDbLine
 10
-97.00349940023364
 20
-36.67439088937507
 11
-97.00349940023364
 21
-35.39420988937507
  0
LINE
  5
1E6
100
AcDbEntity
  8
LC-001-002-----0
  6
CONTINUOUS
 62
             7
100
AcDbLine
 10
-91.50349940023364
 20
-37.17439088937507
 11
-96.50349940023364
 21
-37.17439088937507
  0
LINE
  5
1E5
100
AcDbEntity
  8
LC-001-002-----0
  6
CONTINUOUS
 62
             7
100
AcDbLine
 10
-91.00349940023364
 20
-36.67439088937507
 11
-91.00349940023364
 21
-35.39420988937507
  0
LINE
  5
1E4
100
AcDbEntity
  8
LC-001-002-----0
  6
CONTINUOUS
 62
             7
100
AcDbLine
 10
-91.50349940023364
 20
-37.17439088937507
 11
-91.00349940023364
 21
-36.67439088937507
  0
LINE
  5
1E3
100
AcDbEntity
  8
LC-001-002-----0
  6
CONTINUOUS
 62
             7
100
AcDbLine
 10
-96.50349940023364
 20
-37.17439088937507
 11
-97.00349940023364
 21
-36.67439088937507
  0
LINE
  5
1E2
100
AcDbEntity
  8
LC-001-002-----0
  6
CONTINUOUS
 62
             7
100
AcDbLine
 10
-91.00349940023364
 20
-36.67439088937507
 11
-97.00349940023364
 21
-36.67439088937507
  0
LINE
  5
1E1
100
AcDbEntity
  8
LC-006-003-----0
  6
CONTINUOUS
 62
             2
100
AcDbLine
 10
-96.50349940023364
 20
-37.17439088937507
 11
-96.50349940023364
 21
-35.39420988937507
  0
LINE
  5
1E0
100
AcDbEntity
  8
LC-006-003-----0
  6
CONTINUOUS
 62
             2
100
AcDbLine
 10
-91.50349940023364
 20
-37.17439088937507
 11
-91.50349940023364
 21
-35.39420988937507
  0
LINE
  5
1DF
100
AcDbEntity
  8
LC-001-002-----0
  6
CONTINUOUS
 62
             7
100
AcDbLine
 10
91.00343159976637
 20
-36.67442588937507
 11
91.00343159976637
 21
-35.39420988937507
  0
LINE
  5
1DE
100
AcDbEntity
  8
LC-006-003-----0
  6
CONTINUOUS
 62
             2
100
AcDbLine
 10
96.50343159976637
 20
-37.17442788937506
 11
96.50343159976637
 21
-35.39420988937507
  0
LINE
  5
1DD
100
AcDbEntity
  8
LC-006-003-----0
  6
CONTINUOUS
 62
             2
100
AcDbLine
 10
91.50343159976637
 20
-37.17442588937507
 11
91.50343159976637
 21
-35.39420988937507
  0
LINE
  5
1DC
100
AcDbEntity
  8
LC-001-002-----0
  6
CONTINUOUS
 62
             7
100
AcDbLine
 10
-98.33362840023358
 20
-35.39420988937507
 11
-89.67337340023357
 21
-35.39420988937507
  0
LINE
  5
1DB
100
AcDbEntity
  8
LC-001-002-----0
  6
CONTINUOUS
 62
             7
100
AcDbLine
 10
-98.33362840023358
 20
-30.19420988937506
 11
-89.67337440023363
 21
-30.19420988937506
  0
LINE
  5
1DA
100
AcDbEntity
  8
LC-001-002-----0
  6
CONTINUOUS
 62
             7
100
AcDbLine
 10
-99.77700240023364
 20
-30.86333788937506
 11
-99.77700240023364
 21
-34.72508088937507
  0
LINE
  5
1D9
100
AcDbEntity
  8
LC-001-002-----0
  6
CONTINUOUS
 62
             7
100
AcDbLine
 10
-88.22999740023363
 20
-30.86333788937506
 11
-88.22999740023363
 21
-34.72508088937507
  0
LINE
  5
1D8
100
AcDbEntity
  8
LC-001-002-----0
  6
CONTINUOUS
 62
             7
100
AcDbLine
 10
-96.89025140023364
 20
-34.72513288937505
 11
-96.89025140023364
 21
-30.85760988937505
  0
LINE
  5
1D7
100
AcDbEntity
  8
LC-001-002-----0
  6
CONTINUOUS
 62
             7
100
AcDbLine
 10
-91.11674840023363
 20
-34.72508188937507
 11
-91.11674840023363
 21
-30.86336488937507
  0
LINE
  5
1D6
100
AcDbEntity
  8
LC-001-002-----0
  6
CONTINUOUS
 62
             7
100
AcDbLine
 10
98.33355859976643
 20
-35.39420988937507
 11
89.67330359976643
 21
-35.39420988937507
  0
LINE
  5
1D5
100
AcDbEntity
  8
LC-001-002-----0
  6
CONTINUOUS
 62
             7
100
AcDbLine
 10
98.33355859976643
 20
-30.19420988937506
 11
89.67330559976642
 21
-30.19420988937506
  0
LINE
  5
1D4
100
AcDbEntity
  8
LC-001-002-----0
  6
CONTINUOUS
 62
             7
100
AcDbLine
 10
99.77693359976638
 20
-30.86333788937506
 11
99.77693359976638
 21
-34.72508088937507
  0
LINE
  5
1D3
100
AcDbEntity
  8
LC-001-002-----0
  6
CONTINUOUS
 62
             7
100
AcDbLine
 10
88.22992759976637
 20
-30.86333788937506
 11
88.22992759976637
 21
-34.72508088937507
  0
LINE
  5
1D2
100
AcDbEntity
  8
LC-001-002-----0
  6
CONTINUOUS
 62
             7
100
AcDbLine
 10
96.89018159976638
 20
-34.72513288937505
 11
96.89018159976638
 21
-30.85760988937505
  0
LINE
  5
1D1
100
AcDbEntity
  8
LC-001-002-----0
  6
CONTINUOUS
 62
             7
100
AcDbLine
 10
91.11667959976637
 20
-34.72508188937507
 11
91.11667959976637
 21
-30.86336488937507
  0
LINE
  5
1D0
100
AcDbEntity
  8
LC-001-002-----0
  6
DASHDOT
 62
             2
100
AcDbLine
 10
-0.00003440023362
 20
-161.9195288893751
 11
0.00000859976639
 21
67.35349811062491
  0
LINE
  5
1CF
100
AcDbEntity
  8
LC-001-002-----0
  6
CONTINUOUS
 62
             7
100
AcDbLine
 10
78.39226959976634
 20
-161.9195288893751
 11
80.06700759976638
 21
-155.6693248893751
  0
LINE
  5
1CE
100
AcDbEntity
  8
LC-001-002-----0
  6
CONTINUOUS
 62
             7
100
AcDbLine
 10
-78.3923394002336
 20
-161.9195288893751
 11
-80.00003440023363
 21
-155.9195288893751
  0
LINE
  5
1CD
100
AcDbEntity
  8
LC-001-002-----0
  6
CONTINUOUS
 62
             7
100
AcDbLine
 10
-76.50003440023363
 20
-161.9195288893751
 11
-78.3923394002336
 21
-161.9195288893751
  0
LINE
  5
1CC
100
AcDbEntity
  8
LC-001-002-----0
  6
CONTINUOUS
 62
             7
100
AcDbLine
 10
76.49996559976637
 20
-161.9195288893751
 11
78.39226959976634
 21
-161.9195288893751
  0
LINE
  5
1CB
100
AcDbEntity
  8
LC-001-002-----0
  6
CONTINUOUS
 62
             7
100
AcDbLine
 10
-76.50003440023363
 20
-161.9195288893751
 11
76.49996559976637
 21
-161.9195288893751
  0
LINE
  5
1CA
100
AcDbEntity
  8
LC-009-006-MLN-0
  6
DASHDOT
 62
             2
100
AcDbLine
 10
94.00826959976644
 20
23.82560911062496
 11
94.00215259976642
 21
-45.67439088937507
  0
LINE
  5
1C9
100
AcDbEntity
  8
LC-001-002-----0
  6
CONTINUOUS
 62
             7
100
AcDbLine
 10
79.99996559976637
 20
-155.9195288893751
 11
79.99966759976644
 21
-30.19376988937507
  0
LINE
  5
1C8
100
AcDbEntity
  8
LC-001-002-----0
  6
CONTINUOUS
 62
             7
100
AcDbLine
 10
-79.99971440023359
 20
-30.19376988937507
 11
-79.9998444002336
 21
-81.03137588937506
  0
LINE
  5
1C7
100
AcDbEntity
  8
LC-001-002-----0
  6
CONTINUOUS
 62
             7
100
AcDbLine
 10
-97.00349940023364
 20
-30.19376988937507
 11
-91.00349940023364
 21
-30.19376988937507
  0
LINE
  5
1C6
100
AcDbEntity
  8
LC-001-002-----0
  6
CONTINUOUS
 62
             7
100
AcDbLine
 10
-90.50352340023358
 20
-30.19376988937507
 11
86.95284859976641
 21
-30.19376988937507
  0
LINE
  5
1C5
100
AcDbEntity
  8
LC-004-005-----0
  6
CONTINUOUS
 62
             2
100
AcDbLine
 10
-78.2614854002336
 20
-161.9195288893751
 11
-76.50003440023363
 21
-160.1580788893751
  0
LINE
  5
1C4
100
AcDbEntity
  8
LC-001-002-----0
  6
CONTINUOUS
 62
             7
100
AcDbLine
 10
-79.9998444002336
 20
-81.03137488937506
 11
-80.00003440023363
 21
-155.9195288893751
  0
LINE
  5
1C3
100
AcDbEntity
  8
LC-001-002-----0
  6
CONTINUOUS
 62
             7
100
AcDbLine
 10
-80.00003440023363
 20
-155.9195288893751
 11
80.06700759976638
 21
-155.9195288893751
  0
LINE
  5
1C2
100
AcDbEntity
  8
LC-009-006-MLN-0
  6
DASHDOT
 62
             2
100
AcDbLine
 10
-94.00826840023359
 20
23.82564511062492
 11
-94.00217740023362
 21
-45.67435488937505
  0
LINE
  5
1C1
100
AcDbEntity
  8
LC-001-002-----0
  6
CONTINUOUS
 62
             7
100
AcDbLine
 10
91.50347659976637
 20
-37.17442588937507
 11
96.50347659976637
 21
-37.17442788937506
  0
LINE
  5
1C0
100
AcDbEntity
  8
LC-001-002-----0
  6
CONTINUOUS
 62
             7
100
AcDbLine
 10
91.50347659976637
 20
-37.17442588937507
 11
91.00347759976637
 21
-36.67442588937507
  0
LINE
  5
1BF
100
AcDbEntity
  8
LC-001-002-----0
  6
CONTINUOUS
 62
             7
100
AcDbLine
 10
96.50347659976637
 20
-37.17442788937506
 11
97.00347759976637
 21
-36.67442788937506
  0
LINE
  5
1BE
100
AcDbEntity
  8
LC-001-002-----0
  6
CONTINUOUS
 62
             7
100
AcDbLine
 10
91.00347759976637
 20
-36.67442588937507
 11
97.00347759976637
 21
-36.67442788937506
  0
LINE
  5
1BD
100
AcDbEntity
  8
LC-001-002-----0
  6
CONTINUOUS
 62
             7
100
AcDbLine
 10
97.00347759976637
 20
-36.67442788937506
 11
97.00347759976637
 21
-35.39420988937507
  0
LINE
  5
1BC
100
AcDbEntity
  8
LC-001-002-----0
  6
CONTINUOUS
 62
             7
100
AcDbLine
 10
-49.83682640023356
 20
-36.67395088937507
 11
-49.83682640023356
 21
-35.39376988937504
  0
LINE
  5
1BB
100
AcDbEntity
  8
LC-001-002-----0
  6
CONTINUOUS
 62
             7
100
AcDbLine
 10
-44.33682640023356
 20
-37.17395088937507
 11
-49.33682640023356
 21
-37.17395088937507
  0
LINE
  5
1BA
100
AcDbEntity
  8
LC-001-002-----0
  6
CONTINUOUS
 62
             7
100
AcDbLine
 10
-43.83682640023356
 20
-36.67395088937507
 11
-43.83682640023356
 21
-35.39376988937504
  0
LINE
  5
1B9
100
AcDbEntity
  8
LC-001-002-----0
  6
CONTINUOUS
 62
             7
100
AcDbLine
 10
-44.33682640023356
 20
-37.17395088937507
 11
-43.83682640023356
 21
-36.67395088937507
  0
LINE
  5
1B8
100
AcDbEntity
  8
LC-001-002-----0
  6
CONTINUOUS
 62
             7
100
AcDbLine
 10
-49.33682640023356
 20
-37.17395088937507
 11
-49.83682640023356
 21
-36.67395088937507
  0
LINE
  5
1B7
100
AcDbEntity
  8
LC-001-002-----0
  6
CONTINUOUS
 62
             7
100
AcDbLine
 10
-43.83682640023356
 20
-36.67395088937507
 11
-49.83682640023356
 21
-36.67395088937507
  0
LINE
  5
1B6
100
AcDbEntity
  8
LC-006-003-----0
  6
CONTINUOUS
 62
             2
100
AcDbLine
 10
-49.33682640023356
 20
-37.17395088937507
 11
-49.33682640023356
 21
-35.39376988937504
  0
LINE
  5
1B5
100
AcDbEntity
  8
LC-006-003-----0
  6
CONTINUOUS
 62
             2
100
AcDbLine
 10
-44.33682640023356
 20
-37.17395088937507
 11
-44.33682640023356
 21
-35.39376988937504
  0
LINE
  5
1B4
100
AcDbEntity
  8
LC-001-002-----0
  6
CONTINUOUS
 62
             7
100
AcDbLine
 10
-51.16695540023362
 20
-35.39376988937504
 11
-42.50670140023361
 21
-35.39376988937504
  0
LINE
  5
1B3
100
AcDbEntity
  8
LC-001-002-----0
  6
CONTINUOUS
 62
             7
100
AcDbLine
 10
-51.16695640023362
 20
-30.19376988937507
 11
-42.50670240023361
 21
-30.19376988937507
  0
LINE
  5
1B2
100
AcDbEntity
  8
LC-001-002-----0
  6
CONTINUOUS
 62
             7
100
AcDbLine
 10
-52.61033040023357
 20
-30.86289888937506
 11
-52.61033040023357
 21
-34.72464088937505
  0
LINE
  5
1B1
100
AcDbEntity
  8
LC-001-002-----0
  6
CONTINUOUS
 62
             7
100
AcDbLine
 10
-41.06332540023361
 20
-30.86289788937507
 11
-41.06332540023361
 21
-34.72464088937505
  0
LINE
  5
1B0
100
AcDbEntity
  8
LC-001-002-----0
  6
CONTINUOUS
 62
             7
100
AcDbLine
 10
-49.72357940023356
 20
-34.72469288937506
 11
-49.72357940023356
 21
-30.85716988937505
  0
LINE
  5
1AF
100
AcDbEntity
  8
LC-001-002-----0
  6
CONTINUOUS
 62
             7
100
AcDbLine
 10
-43.95007640023362
 20
-34.72464288937507
 11
-43.95007640023362
 21
-30.86292488937506
  0
LINE
  5
1AE
100
AcDbEntity
  8
LC-001-002-----0
  6
DASHDOT
 62
             2
100
AcDbLine
 10
-46.83911940023357
 20
14.32604911062493
 11
-46.83646840023362
 21
-37.17395088937507
  0
LINE
  5
1AD
100
AcDbEntity
  8
LC-001-002-----0
  6
CONTINUOUS
 62
             7
100
AcDbLine
 10
49.83680459976645
 20
-36.67396988937505
 11
49.83680559976644
 21
-35.39378888937505
  0
LINE
  5
1AC
100
AcDbEntity
  8
LC-001-002-----0
  6
CONTINUOUS
 62
             7
100
AcDbLine
 10
44.33680459976645
 20
-37.17396788937506
 11
49.33680459976645
 21
-37.17396988937505
  0
LINE
  5
1AB
100
AcDbEntity
  8
LC-001-002-----0
  6
CONTINUOUS
 62
             7
100
AcDbLine
 10
43.83680459976645
 20
-36.67396788937506
 11
43.83680559976644
 21
-35.39378688937506
  0
LINE
  5
1AA
100
AcDbEntity
  8
LC-001-002-----0
  6
CONTINUOUS
 62
             7
100
AcDbLine
 10
44.33680459976645
 20
-37.17396788937506
 11
43.83680459976645
 21
-36.67396788937506
  0
LINE
  5
1A9
100
AcDbEntity
  8
LC-001-002-----0
  6
CONTINUOUS
 62
             7
100
AcDbLine
 10
49.33680459976645
 20
-37.17396988937505
 11
49.83680459976645
 21
-36.67396988937505
  0
LINE
  5
1A8
100
AcDbEntity
  8
LC-001-002-----0
  6
CONTINUOUS
 62
             7
100
AcDbLine
 10
43.83680459976645
 20
-36.67396788937506
 11
49.83680459976645
 21
-36.67396988937505
  0
LINE
  5
1A7
100
AcDbEntity
  8
LC-006-003-----0
  6
CONTINUOUS
 62
             2
100
AcDbLine
 10
49.33680459976645
 20
-37.17396988937505
 11
49.33680559976644
 21
-35.39378888937505
  0
LINE
  5
1A6
100
AcDbEntity
  8
LC-006-003-----0
  6
CONTINUOUS
 62
             2
100
AcDbLine
 10
44.33680459976645
 20
-37.17396788937506
 11
44.33680559976644
 21
-35.39378688937506
  0
LINE
  5
1A5
100
AcDbEntity
  8
LC-001-002-----0
  6
CONTINUOUS
 62
             7
100
AcDbLine
 10
51.16693459976639
 20
-35.39378888937505
 11
42.50667959976644
 21
-35.39378588937506
  0
LINE
  5
1A4
100
AcDbEntity
  8
LC-001-002-----0
  6
CONTINUOUS
 62
             7
100
AcDbLine
 10
51.16693659976637
 20
-30.19378888937507
 11
42.50668259976642
 21
-30.19378588937508
  0
LINE
  5
1A3
100
AcDbEntity
  8
LC-001-002-----0
  6
CONTINUOUS
 62
             7
100
AcDbLine
 10
52.61031059976644
 20
-30.86291888937506
 11
52.61030959976645
 21
-34.72466088937505
  0
LINE
  5
1A2
100
AcDbEntity
  8
LC-001-002-----0
  6
CONTINUOUS
 62
             7
100
AcDbLine
 10
41.06330559976642
 20
-30.86291388937505
 11
41.06330359976644
 21
-34.72465688937506
  0
LINE
  5
1A1
100
AcDbEntity
  8
LC-001-002-----0
  6
CONTINUOUS
 62
             7
100
AcDbLine
 10
49.72355759976644
 20
-34.72471188937507
 11
49.72355959976643
 21
-30.85718888937506
  0
LINE
  5
1A0
100
AcDbEntity
  8
LC-001-002-----0
  6
CONTINUOUS
 62
             7
100
AcDbLine
 10
43.95005559976643
 20
-34.72465888937506
 11
43.95005659976643
 21
-30.86294188937506
  0
LINE
  5
19F
100
AcDbEntity
  8
LC-001-002-----0
  6
DASHDOT
 62
             2
100
AcDbLine
 10
46.83911759976639
 20
14.32603111062492
 11
46.83644659976643
 21
-37.17396888937505
  0
POINT
  5
19E
100
AcDbEntity
  8
LC-006-003-----0
 62
             7
100
AcDbPoint
 10
-80.00003440023363
 20
-155.9195288893751
  0
POINT
  5
19D
100
AcDbEntity
  8
LC-006-003-----0
 62
             7
100
AcDbPoint
 10
79.99996559976637
 20
-155.9195288893751
  0
POINT
  5
19C
100
AcDbEntity
  8
LC-006-003-----0
 62
             7
100
AcDbPoint
 10
-78.3923394002336
 20
-161.9195288893751
  0
POINT
  5
19B
100
AcDbEntity
  8
LC-006-003-----0
 62
             7
100
AcDbPoint
 10
-101.5035234002336
 20
-24.38422388937505
  0
POINT
  5
19A
100
AcDbEntity
  8
LC-006-003-----0
 62
             7
100
AcDbPoint
 10
101.5034535997665
 20
-23.74444788937506
  0
ENDBLK
  5
2AE
100
AcDbEntity
  8
0
100
AcDbBlockEnd
  0
BLOCK
  5
2B1
100
AcDbEntity
  8
0
100
AcDbBlockBegin
  2
*D9
 70
             1
 10
0.0
 20
0.0
 30
0.0
  3
*D9
  1

  0
LINE
  5
2B2
100
AcDbEntity
  8
0
  6
CONTINUOUS
 62
             4
100
AcDbLine
 10
-187.65991500848011
 20
-161.91952888937507
 11
-187.65991500848011
 21
-3.00063088937515
  0
LINE
  5
2B3
100
AcDbEntity
  8
0
  6
CONTINUOUS
 62
             4
100
AcDbLine
 10
-176.9999995865517
 20
-3.00063088937515
 11
-189.65991500848011
 21
-3.00063088937515
  0
LINE
  5
2B4
100
AcDbEntity
  8
0
  6
CONTINUOUS
 62
             4
100
AcDbLine
 10
-78.39233940023351
 20
-161.91952888937507
 11
-189.65991500848011
 21
-161.91952888937507
  0
SOLID
  5
2B5
100
AcDbEntity
  8
0
 62
             4
100
AcDbTrace
 10
-188.97643998435407
 20
-151.91952888937507
 11
-186.34339003260615
 21
-151.91952888937507
 12
-187.65991500848011
 22
-161.91952888937507
 13
-187.65991500848011
 23
-161.91952888937507
  0
SOLID
  5
2B6
100
AcDbEntity
  8
0
 62
             4
100
AcDbTrace
 10
-186.34339003260615
 20
-13.00063088937515
 11
-188.97643998435407
 21
-13.00063088937515
 12
-187.65991500848011
 22
-3.00063088937515
 13
-187.65991500848011
 23
-3.00063088937515
  0
MTEXT
  5
2B8
100
AcDbEntity
  8
0
 62
             1
100
AcDbMText
 10
-189.65991500848011
 20
-85.70897573655466
 30
0.0
 40
10.0
 41
0.0
 71
             7
 72
             1
  1
160
  7
CONVERTER_1
 11
0.0
 21
1.0
 31
0.0
  0
ENDBLK
  5
2B9
100
AcDbEntity
  8
0
100
AcDbBlockEnd
  0
BLOCK
  5
2BD
100
AcDbEntity
  8
0
100
AcDbBlockBegin
  2
*D10
 70
             1
 10
0.0
 20
0.0
 30
0.0
  3
*D10
  1

  0
LINE
  5
2BE
100
AcDbEntity
  8
0
  6
CONTINUOUS
 62
             4
100
AcDbLine
 10
-187.50045022660569
 20
-0.00062288937517
 11
-187.50045022660569
 21
65.00013830458846
  0
LINE
  5
2BF
100
AcDbEntity
  8
0
  6
CONTINUOUS
 62
             4
100
AcDbLine
 10
-73.5000125865528
 20
65.00013830458846
 11
-189.50045022660569
 21
65.00013830458846
  0
LINE
  5
2C0
100
AcDbEntity
  8
0
  6
CONTINUOUS
 62
             4
100
AcDbLine
 10
-175.00001258655161
 20
-0.00062288937517
 11
-189.50045022660569
 21
-0.00062288937517
  0
SOLID
  5
2C1
100
AcDbEntity
  8
0
 62
             4
100
AcDbTrace
 10
-188.81697520247965
 20
9.99937711062483
 11
-186.18392525073173
 21
9.99937711062483
 12
-187.50045022660569
 22
-0.00062288937517
 13
-187.50045022660569
 23
-0.00062288937517
  0
SOLID
  5
2C2
100
AcDbEntity
  8
0
 62
             4
100
AcDbTrace
 10
-186.18392525073173
 20
55.00013830458846
 11
-188.81697520247965
 21
55.00013830458846
 12
-187.50045022660569
 22
65.00013830458846
 13
-187.50045022660569
 23
65.00013830458846
  0
MTEXT
  5
2C3
100
AcDbEntity
  8
0
 62
             1
100
AcDbMText
 10
-189.50045022660569
 20
14.4593893462716
 30
0.0
 40
10.0
 41
0.0
 71
             7
 72
             1
  1
\C1;12-\C1;65
  7
CONVERTER_1
 11
0.0
 21
1.0
 31
0.0
  0
ENDBLK
  5
2C4
100
AcDbEntity
  8
0
100
AcDbBlockEnd
  0
BLOCK
  5
2C8
100
AcDbEntity
  8
0
100
AcDbBlockBegin
  2
*D11
 70
             1
 10
0.0
 20
0.0
 30
0.0
  3
*D11
  1

  0
LINE
  5
2C9
100
AcDbEntity
  8
0
  6
CONTINUOUS
 62
             4
100
AcDbLine
 10
-73.5000125865528
 20
82.77058297615798
 11
73.4999874134472
 21
82.77058297615798
  0
LINE
  5
2CA
100
AcDbEntity
  8
0
  6
CONTINUOUS
 62
             4
100
AcDbLine
 10
73.4999874134472
 20
65.00013830458846
 11
73.4999874134472
 21
84.77058297615798
  0
LINE
  5
2CB
100
AcDbEntity
  8
0
  6
CONTINUOUS
 62
             4
100
AcDbLine
 10
-73.5000125865528
 20
65.00013830458846
 11
-73.5000125865528
 21
84.77058297615798
  0
SOLID
  5
2CC
100
AcDbEntity
  8
0
 62
             4
100
AcDbTrace
 10
-63.5000125865528
 20
84.08710795203194
 11
-63.5000125865528
 21
81.45405800028402
 12
-73.5000125865528
 22
82.77058297615798
 13
-73.5000125865528
 23
82.77058297615798
  0
SOLID
  5
2CD
100
AcDbEntity
  8
0
 62
             4
100
AcDbTrace
 10
63.4999874134472
 20
81.45405800028402
 11
63.4999874134472
 21
84.08710795203194
 12
73.4999874134472
 22
82.77058297615798
 13
73.4999874134472
 23
82.77058297615798
  0
MTEXT
  5
2CE
100
AcDbEntity
  8
0
 62
             1
100
AcDbMText
 10
-28.60454544413372
 20
84.77058297615798
 30
0.0
 40
10.0
 41
0.0
 71
             7
 72
             1
  1
150x150
  7
CONVERTER_1
 11
0.99999999999706
 21
0.00000242406841
 31
0.0
  0
ENDBLK
  5
2CF
100
AcDbEntity
  8
0
100
AcDbBlockEnd
  0
BLOCK
  5
2D3
100
AcDbEntity
  8
0
100
AcDbBlockBegin
  2
*D12
 70
             1
 10
0.0
 20
0.0
 30
0.0
  3
*D12
  1

  0
LINE
  5
2D4
100
AcDbEntity
  8
0
  6
CONTINUOUS
 62
             4
100
AcDbLine
 10
-177.00000558653272
 20
105.080668599652
 11
176.99998541344829
 21
105.080668599652
  0
LINE
  5
2D5
100
AcDbEntity
  8
0
  6
CONTINUOUS
 62
             4
100
AcDbLine
 10
176.99998541344829
 20
-2.9990208893751
 11
176.99998541344829
 21
107.080668599652
  0
LINE
  5
2D6
100
AcDbEntity
  8
0
  6
CONTINUOUS
 62
             4
100
AcDbLine
 10
-177.00000558653272
 20
-2.0006315462081
 11
-177.00000558653272
 21
107.080668599652
  0
SOLID
  5
2D7
100
AcDbEntity
  8
0
 62
             4
100
AcDbTrace
 10
-167.00000558653272
 20
106.39719357552596
 11
-167.00000558653272
 21
103.76414362377804
 12
-177.00000558653272
 22
105.080668599652
 13
-177.00000558653272
 23
105.080668599652
  0
SOLID
  5
2D8
100
AcDbEntity
  8
0
 62
             4
100
AcDbTrace
 10
166.99998541344829
 20
103.76414362377804
 11
166.99998541344829
 21
106.39719357552596
 12
176.99998541344829
 22
105.080668599652
 13
176.99998541344829
 23
105.080668599652
  0
MTEXT
  5
2D9
100
AcDbEntity
  8
0
 62
             1
100
AcDbMText
 10
-15.39007959457623
 20
107.08064872229107
 30
0.0
 40
10.0
 41
0.0
 71
             7
 72
             1
  1
\C1;Ø\C1;354
  7
CONVERTER_1
 11
0.99999999999706
 21
0.00000242406841
 31
0.0
  0
ENDBLK
  5
2DA
100
AcDbEntity
  8
0
100
AcDbBlockEnd
  0
BLOCK
  5
2DE
100
AcDbEntity
  8
0
100
AcDbBlockBegin
  2
*D13
 70
             1
 10
0.0
 20
0.0
 30
0.0
  3
*D13
  1

  0
LINE
  5
2DF
100
AcDbEntity
  8
0
  6
CONTINUOUS
 62
             4
100
AcDbLine
 10
-101.50356082072373
 20
-228.21723623707393
 11
101.50341617926919
 21
-228.21727431089414
  0
LINE
  5
2E0
100
AcDbEntity
  8
0
  6
CONTINUOUS
 62
             4
100
AcDbLine
 10
101.50345359976649
 20
-28.69376988937509
 11
101.50341580417049
 21
-230.21727431089411
  0
LINE
  5
2E1
100
AcDbEntity
  8
0
  6
CONTINUOUS
 62
             4
100
AcDbLine
 10
-101.50352340023356
 20
-28.69376988937509
 11
-101.50356119582237
 21
-230.21723623707391
  0
SOLID
  5
2E2
100
AcDbEntity
  8
0
 62
             4
100
AcDbTrace
 10
-86.50356045035396
 20
-226.24245158650282
 11
-86.50356119109404
 21
-230.19202651412462
 12
-101.50356082072373
 22
-228.21723623707393
 13
-101.50356082072373
 23
-228.21723623707393
  0
SOLID
  5
2E3
100
AcDbEntity
  8
0
 62
             4
100
AcDbTrace
 10
86.50341580889942
 20
-230.19205896146528
 11
86.5034165496395
 21
-226.24248403384345
 12
101.50341617926919
 22
-228.21727431089414
 13
101.50341617926919
 23
-228.21727431089414
  0
MTEXT
  5
2E4
100
AcDbEntity
  8
0
 62
             1
100
AcDbMText
 10
-23.73503455107021
 20
-226.21728294540597
 30
0.0
 40
15.0
 41
0.0
 71
             7
 72
             1
  1
\C1;Ø\C1;203
  7
CONVERTER_1
 11
0.99999999999706
 21
0.00000242406841
 31
0.0
  0
ENDBLK
  5
2E5
100
AcDbEntity
  8
0
100
AcDbBlockEnd
  0
BLOCK
  5
2E9
100
AcDbEntity
  8
0
100
AcDbBlockBegin
  2
*D14
 70
             1
 10
0.0
 20
0.0
 30
0.0
  3
*D14
  1

  0
LINE
  5
2EA
100
AcDbEntity
  8
0
  6
CONTINUOUS
 62
             4
100
AcDbLine
 10
-80.0000417216451
 20
-194.95678876901744
 11
79.99995827834927
 21
-194.95681877690842
  0
LINE
  5
2EB
100
AcDbEntity
  8
0
  6
CONTINUOUS
 62
             4
100
AcDbLine
 10
79.99996559976638
 20
-155.91952888937507
 11
79.99995790325058
 21
-196.95681877690839
  0
LINE
  5
2EC
100
AcDbEntity
  8
0
  6
CONTINUOUS
 62
             4
100
AcDbLine
 10
-80.00003440023362
 20
-155.91952888937507
 11
-80.00004209674374
 21
-196.95678876901741
  0
SOLID
  5
2ED
100
AcDbEntity
  8
0
 62
             4
100
AcDbTrace
 10
-65.00004135127533
 20
-192.98200411844633
 11
-65.00004209201541
 21
-196.93157904606812
 12
-80.0000417216451
 22
-194.95678876901744
 13
-80.0000417216451
 23
-194.95678876901744
  0
SOLID
  5
2EE
100
AcDbEntity
  8
0
 62
             4
100
AcDbTrace
 10
64.99995790797949
 20
-196.93160342747956
 11
64.99995864871957
 21
-192.98202849985773
 12
79.99995827834927
 22
-194.95681877690842
 13
79.99995827834927
 23
-194.95681877690842
  0
MTEXT
  5
2EF
100
AcDbEntity
  8
0
 62
             1
100
AcDbMText
 10
-25.59210848080323
 20
-192.95686321898424
 30
0.0
 40
15.0
 41
0.0
 71
             7
 72
             1
  1
\C1;DN\C1;160
  7
CONVERTER_1
 11
0.99999999999706
 21
0.00000242406841
 31
0.0
  0
ENDBLK
  5
2F0
100
AcDbEntity
  8
0
100
AcDbBlockEnd
  0
ENDSEC
  0
SECTION
  2
ENTITIES
  0
DIMENSION
  5
2F2
100
AcDbEntity
  8
1
100
AcDbDimension
  2
*D14
 10
-80.0000417216451
 20
-194.95678876901744
 11
-1.7421070742556
 21
-185.4568034462396
 31
0.0
 53
179.99998925421559
  1
<>
  3
ME10_DIM_5
100
AcDbAlignedDimension
 13
79.99996559976637
 23
-155.9195288893751
 14
-80.00003440023363
 24
-155.9195288893751
 50
179.99998925421559
100
AcDbRotatedDimension
  0
DIMENSION
  5
2E7
100
AcDbEntity
  8
1
100
AcDbDimension
  2
*D13
 10
-101.50356082072373
 20
-228.21723623707393
 11
-2.43503314448661
 21
-218.7172548173086
 31
0.0
 53
179.99998925421559
  1
Ø203
  3
ME10_DIM_4
100
AcDbAlignedDimension
 13
101.5034535997665
 23
-28.69376988937507
 14
-101.5035234002336
 24
-28.69376988937507
 50
179.99998925421559
100
AcDbRotatedDimension
  0
DIMENSION
  5
2DC
100
AcDbEntity
  8
1
100
AcDbDimension
  2
*D12
 10
-177.00000558653272
 20
105.080668599652
 11
-1.19007959460032
 21
112.080668599652
 31
0.0
 53
180.0
  1
<>
  3
ME10_DIM_3
100
AcDbAlignedDimension
 13
176.99998541344829
 23
-2.99902088937506
 14
-177.00000558653269
 24
-2.00063154620807
 50
180.0
100
AcDbRotatedDimension
  0
DIMENSION
  5
2D1
100
AcDbEntity
  8
1
100
AcDbDimension
  2
*D11
 10
-73.5000125865528
 20
82.77058297615798
 11
-1.60454544413372
 21
89.77058297615798
 31
0.0
 53
180.0
  1
150x150
  3
ME10_DIM_2
100
AcDbAlignedDimension
 13
73.4999874134472
 23
65.00013830458846
 14
-73.5000125865528
 24
65.00013830458846
 50
180.0
100
AcDbRotatedDimension
  0
DIMENSION
  5
2C6
100
AcDbEntity
  8
1
100
AcDbDimension
  2
*D10
 10
-187.50045022660569
 20
-0.00062288937517
 11
-194.50045022660569
 21
34.0593893462716
 31
0.0
 53
90.0
  1
<>
  3
ME10_DIM_1
100
AcDbAlignedDimension
 13
-73.5000125865528
 23
65.00013830458846
 14
-175.00001258655161
 24
-0.00062288937516
 50
90.0
100
AcDbRotatedDimension
  0
DIMENSION
  5
2BB
100
AcDbEntity
  8
1
100
AcDbDimension
  2
*D9
 10
-187.65991500848011
 20
-161.91952888937507
 11
-194.65991500848011
 21
-75.20897573655466
 31
0.0
 53
90.0
  1
160
  3
ME10_DIM_0
100
AcDbAlignedDimension
 13
-176.9999995865517
 23
-3.00063088937514
 14
-78.3923394002336
 24
-161.9195288893751
 50
90.0
100
AcDbRotatedDimension
  0
INSERT
  5
49
100
AcDbEntity
  8
0
100
AcDbBlockReference
  2
HL_62_1B_2_FLACHDACHABN125
 10
-0.00000763159658
 20
1.92006800000002
  0
INSERT
  5
4A
100
AcDbEntity
  8
1
100
AcDbBlockReference
  2
K_RPER
 10
281.42027148779101
 20
-157.0006941141105
  0
ENDSEC
  0
SECTION
  2
OBJECTS
  0
DICTIONARY
  5
19
100
AcDbDictionary
  3
ACAD_GROUP
350
1A
  3
ACAD_MLINESTYLE
350
1B
  0
DICTIONARY
  5
1A
102
{ACAD_REACTORS
330
19
102
}
100
AcDbDictionary
  0
DICTIONARY
  5
1B
102
{ACAD_REACTORS
330
19
102
}
100
AcDbDictionary
  3
STANDARD
350
1C
  0
MLINESTYLE
  5
1C
102
{ACAD_REACTORS
330
1B
102
}
100
AcDbMlineStyle
  2
STANDARD
 70
             0
  3

 62
             0
 51
90.0
 52
90.0
 71
             2
 49
0.5
 62
           256
  6
BYLAYER
 49
-0.5
 62
           256
  6
BYLAYER
  0
ENDSEC
  0
EOF
