  0
SECTION
  2
HEADER
  9
$ACADVER
  1
AC1015
  9
$ACADMAINTVER
 70
     6
  9
$DWGCODEPAGE
  3
ANSI_1252
  9
$INSBASE
 10
0.0
 20
0.0
 30
0.0
  9
$EXTMIN
 10
-2.55916922277174
 20
213.699409420208
 30
0.0
  9
$EXTMAX
 10
401.7501479913
 20
505.020425214963
 30
0.0
  9
$LIMMIN
 10
0.0
 20
0.0
  9
$LIMMAX
 10
12.0
 20
9.0
  9
$ORTHOMODE
 70
     0
  9
$REGENMODE
 70
     1
  9
$FILLMODE
 70
     1
  9
$QTEXTMODE
 70
     0
  9
$MIRRTEXT
 70
     1
  9
$LTSCALE
 40
1.0
  9
$ATTMODE
 70
     1
  9
$TEXTSIZE
 40
0.2
  9
$TRACEWID
 40
0.05
  9
$TEXTSTYLE
  7
Standard
  9
$CLAYER
  8
0
  9
$CELTYPE
  6
ByLayer
  9
$CECOLOR
 62
   256
  9
$CELTSCALE
 40
1.0
  9
$DISPSILH
 70
     0
  9
$DIMSCALE
 40
1.0
  9
$DIMASZ
 40
0.18
  9
$DIMEXO
 40
0.0625
  9
$DIMDLI
 40
0.38
  9
$DIMRND
 40
0.0
  9
$DIMDLE
 40
0.0
  9
$DIMEXE
 40
0.18
  9
$DIMTP
 40
0.0
  9
$DIMTM
 40
0.0
  9
$DIMTXT
 40
0.18
  9
$DIMCEN
 40
0.09
  9
$DIMTSZ
 40
0.0
  9
$DIMTOL
 70
     0
  9
$DIMLIM
 70
     0
  9
$DIMTIH
 70
     1
  9
$DIMTOH
 70
     1
  9
$DIMSE1
 70
     0
  9
$DIMSE2
 70
     0
  9
$DIMTAD
 70
     0
  9
$DIMZIN
 70
     0
  9
$DIMBLK
  1

  9
$DIMASO
 70
     1
  9
$DIMSHO
 70
     1
  9
$DIMPOST
  1

  9
$DIMAPOST
  1

  9
$DIMALT
 70
     0
  9
$DIMALTD
 70
     2
  9
$DIMALTF
 40
25.4
  9
$DIMLFAC
 40
1.0
  9
$DIMTOFL
 70
     0
  9
$DIMTVP
 40
0.0
  9
$DIMTIX
 70
     0
  9
$DIMSOXD
 70
     0
  9
$DIMSAH
 70
     0
  9
$DIMBLK1
  1

  9
$DIMBLK2
  1

  9
$DIMSTYLE
  2
Standard
  9
$DIMCLRD
 70
     0
  9
$DIMCLRE
 70
     0
  9
$DIMCLRT
 70
     0
  9
$DIMTFAC
 40
1.0
  9
$DIMGAP
 40
0.09
  9
$DIMJUST
 70
     0
  9
$DIMSD1
 70
     0
  9
$DIMSD2
 70
     0
  9
$DIMTOLJ
 70
     1
  9
$DIMTZIN
 70
     0
  9
$DIMALTZ
 70
     0
  9
$DIMALTTZ
 70
     0
  9
$DIMUPT
 70
     0
  9
$DIMDEC
 70
     4
  9
$DIMTDEC
 70
     4
  9
$DIMALTU
 70
     2
  9
$DIMALTTD
 70
     2
  9
$DIMTXSTY
  7
Standard
  9
$DIMAUNIT
 70
     0
  9
$DIMADEC
 70
     0
  9
$DIMALTRND
 40
0.0
  9
$DIMAZIN
 70
     0
  9
$DIMDSEP
 70
    46
  9
$DIMATFIT
 70
     3
  9
$DIMFRAC
 70
     0
  9
$DIMLDRBLK
  1

  9
$DIMLUNIT
 70
     2
  9
$DIMLWD
 70
    -2
  9
$DIMLWE
 70
    -2
  9
$DIMTMOVE
 70
     0
  9
$LUNITS
 70
     2
  9
$LUPREC
 70
     4
  9
$SKETCHINC
 40
0.1
  9
$FILLETRAD
 40
0.5
  9
$AUNITS
 70
     0
  9
$AUPREC
 70
     0
  9
$MENU
  1
.
  9
$ELEVATION
 40
0.0
  9
$PELEVATION
 40
0.0
  9
$THICKNESS
 40
0.0
  9
$LIMCHECK
 70
     0
  9
$CHAMFERA
 40
0.5
  9
$CHAMFERB
 40
0.5
  9
$CHAMFERC
 40
1.0
  9
$CHAMFERD
 40
0.0
  9
$SKPOLY
 70
     0
  9
$TDCREATE
 40
2455386.30219309
  9
$TDUCREATE
 40
2455386.218859757
  9
$TDUPDATE
 40
2455386.302193102
  9
$TDUUPDATE
 40
2455386.218859768
  9
$TDINDWG
 40
0.0000000116
  9
$TDUSRTIMER
 40
0.0000000116
  9
$USRTIMER
 70
     1
  9
$ANGBASE
 50
0.0
  9
$ANGDIR
 70
     0
  9
$PDMODE
 70
     0
  9
$PDSIZE
 40
0.0
  9
$PLINEWID
 40
0.0
  9
$SPLFRAME
 70
     0
  9
$SPLINETYPE
 70
     6
  9
$SPLINESEGS
 70
     8
  9
$HANDSEED
  5
265
  9
$SURFTAB1
 70
     6
  9
$SURFTAB2
 70
     6
  9
$SURFTYPE
 70
     6
  9
$SURFU
 70
     6
  9
$SURFV
 70
     6
  9
$UCSBASE
  2

  9
$UCSNAME
  2

  9
$UCSORG
 10
0.0
 20
0.0
 30
0.0
  9
$UCSXDIR
 10
1.0
 20
0.0
 30
0.0
  9
$UCSYDIR
 10
0.0
 20
1.0
 30
0.0
  9
$UCSORTHOREF
  2

  9
$UCSORTHOVIEW
 70
     0
  9
$UCSORGTOP
 10
0.0
 20
0.0
 30
0.0
  9
$UCSORGBOTTOM
 10
0.0
 20
0.0
 30
0.0
  9
$UCSORGLEFT
 10
0.0
 20
0.0
 30
0.0
  9
$UCSORGRIGHT
 10
0.0
 20
0.0
 30
0.0
  9
$UCSORGFRONT
 10
0.0
 20
0.0
 30
0.0
  9
$UCSORGBACK
 10
0.0
 20
0.0
 30
0.0
  9
$PUCSBASE
  2

  9
$PUCSNAME
  2

  9
$PUCSORG
 10
0.0
 20
0.0
 30
0.0
  9
$PUCSXDIR
 10
1.0
 20
0.0
 30
0.0
  9
$PUCSYDIR
 10
0.0
 20
1.0
 30
0.0
  9
$PUCSORTHOREF
  2

  9
$PUCSORTHOVIEW
 70
     0
  9
$PUCSORGTOP
 10
0.0
 20
0.0
 30
0.0
  9
$PUCSORGBOTTOM
 10
0.0
 20
0.0
 30
0.0
  9
$PUCSORGLEFT
 10
0.0
 20
0.0
 30
0.0
  9
$PUCSORGRIGHT
 10
0.0
 20
0.0
 30
0.0
  9
$PUCSORGFRONT
 10
0.0
 20
0.0
 30
0.0
  9
$PUCSORGBACK
 10
0.0
 20
0.0
 30
0.0
  9
$USERI1
 70
     0
  9
$USERI2
 70
     0
  9
$USERI3
 70
     0
  9
$USERI4
 70
     0
  9
$USERI5
 70
     0
  9
$USERR1
 40
16.5
  9
$USERR2
 40
0.0
  9
$USERR3
 40
0.0
  9
$USERR4
 40
0.0
  9
$USERR5
 40
0.0
  9
$WORLDVIEW
 70
     1
  9
$SHADEDGE
 70
     3
  9
$SHADEDIF
 70
    70
  9
$TILEMODE
 70
     1
  9
$MAXACTVP
 70
    64
  9
$PINSBASE
 10
0.0
 20
0.0
 30
0.0
  9
$PLIMCHECK
 70
     0
  9
$PEXTMIN
 10
1.00000000000000E+20
 20
1.00000000000000E+20
 30
1.00000000000000E+20
  9
$PEXTMAX
 10
-1.00000000000000E+20
 20
-1.00000000000000E+20
 30
-1.00000000000000E+20
  9
$PLIMMIN
 10
0.0
 20
0.0
  9
$PLIMMAX
 10
12.0
 20
9.0
  9
$UNITMODE
 70
     0
  9
$VISRETAIN
 70
     1
  9
$PLINEGEN
 70
     0
  9
$PSLTSCALE
 70
     1
  9
$TREEDEPTH
 70
  3020
  9
$CMLSTYLE
  2
Standard
  9
$CMLJUST
 70
     0
  9
$CMLSCALE
 40
1.0
  9
$PROXYGRAPHICS
 70
     1
  9
$MEASUREMENT
 70
     1
  9
$CELWEIGHT
370
    -1
  9
$ENDCAPS
280
     0
  9
$JOINSTYLE
280
     0
  9
$LWDISPLAY
290
     0
  9
$INSUNITS
 70
     1
  9
$HYPERLINKBASE
  1

  9
$STYLESHEET
  1

  9
$XEDIT
290
     1
  9
$CEPSNTYPE
380
     0
  9
$PSTYLEMODE
290
     1
  9
$FINGERPRINTGUID
  2
{072FCD42-08C5-45C0-9E4B-AE7CD13FDB84}
  9
$VERSIONGUID
  2
{FAEB1C32-E019-11D5-929B-00C0DF256EC4}
  9
$EXTNAMES
290
     1
  9
$PSVPSCALE
 40
0.0
  9
$OLESTARTUP
290
     0
  0
ENDSEC
  0
SECTION
  2
CLASSES
  0
CLASS
  1
ACDBDICTIONARYWDFLT
  2
AcDbDictionaryWithDefault
  3
ObjectDBX Classes
 90
        0
280
     0
281
     0
  0
CLASS
  1
VISUALSTYLE
  2
AcDbVisualStyle
  3
ObjectDBX Classes
 90
     4095
280
     0
281
     0
  0
CLASS
  1
SCALE
  2
AcDbScale
  3
ObjectDBX Classes
 90
     1153
280
     0
281
     0
  0
CLASS
  1

  2
exOdDbSpline
  3

 90
        0
280
     0
281
     1
  0
CLASS
  1

  2
exOdDbPolyline
  3

 90
        0
280
     0
281
     1
  0
CLASS
  1
DICTIONARYVAR
  2
AcDbDictionaryVar
  3
ObjectDBX Classes
 90
        0
280
     0
281
     0
  0
CLASS
  1
ACDBPLACEHOLDER
  2
AcDbPlaceHolder
  3
ObjectDBX Classes
 90
        0
280
     0
281
     0
  0
CLASS
  1
LAYOUT
  2
AcDbLayout
  3
ObjectDBX Classes
 90
        0
280
     0
281
     0
  0
ENDSEC
  0
SECTION
  2
TABLES
  0
TABLE
  2
VPORT
  5
8
330
0
100
AcDbSymbolTable
 70
     1
  0
VPORT
  5
29
330
8
100
AcDbSymbolTableRecord
100
AcDbViewportTableRecord
  2
*Active
 70
     0
 10
0.0
 20
0.0
 11
1.0
 21
1.0
 12
199.5954893842641
 22
359.3599173175855
 13
0.0
 23
0.0
 14
0.5
 24
0.5
 15
0.5
 25
0.5
 16
0.0
 26
0.0
 36
1.0
 17
0.0
 27
0.0
 37
0.0
 40
320.4531173742305
 41
1.60267857142857
 42
50.0
 43
0.0
 44
0.0
 50
0.0
 51
0.0
 71
     0
 72
   100
 73
     1
 74
     3
 75
     0
 76
     0
 77
     0
 78
     0
281
     0
 65
     1
110
0.0
120
0.0
130
0.0
111
1.0
121
0.0
131
0.0
112
0.0
122
1.0
132
0.0
 79
     0
146
0.0
  0
ENDTAB
  0
TABLE
  2
LTYPE
  5
5
330
0
100
AcDbSymbolTable
 70
     9
  0
LTYPE
  5
14
330
5
100
AcDbSymbolTableRecord
100
AcDbLinetypeTableRecord
  2
ByBlock
 70
     0
  3

 72
    65
 73
     0
 40
0.0
  0
LTYPE
  5
15
330
5
100
AcDbSymbolTableRecord
100
AcDbLinetypeTableRecord
  2
ByLayer
 70
     0
  3

 72
    65
 73
     0
 40
0.0
  0
LTYPE
  5
16
330
5
100
AcDbSymbolTableRecord
100
AcDbLinetypeTableRecord
  2
Continuous
 70
     0
  3
Solid line
 72
    65
 73
     0
 40
0.0
  0
LTYPE
  5
3B
330
5
100
AcDbSymbolTableRecord
100
AcDbLinetypeTableRecord
  2
DASHED
 70
     0
  3
Dashed
 72
    65
 73
     2
 40
15.0
 49
7.0
 74
     0
 49
-8.0
 74
     0
  0
LTYPE
  5
3C
330
5
100
AcDbSymbolTableRecord
100
AcDbLinetypeTableRecord
  2
DOTTED
 70
     0
  3
Dotted
 72
    65
 73
     2
 40
1.0
 49
0.0
 74
     0
 49
-1.0
 74
     0
  0
LTYPE
  5
3D
330
5
100
AcDbSymbolTableRecord
100
AcDbLinetypeTableRecord
  2
DOT_CENTER
 70
     0
  3
Dot_Center
 72
    65
 73
     4
 40
14.0
 49
12.0
 74
     0
 49
-1.0
 74
     0
 49
0.0
 74
     0
 49
-1.0
 74
     0
  0
LTYPE
  5
3E
330
5
100
AcDbSymbolTableRecord
100
AcDbLinetypeTableRecord
  2
LONG_DASHED
 70
     0
  3
Long_Dashed
 72
    65
 73
     2
 40
15.0
 49
10.0
 74
     0
 49
-5.0
 74
     0
  0
LTYPE
  5
3F
330
5
100
AcDbSymbolTableRecord
100
AcDbLinetypeTableRecord
  2
DASH_CENTER
 70
     0
  3
Dash_Center
 72
    65
 73
     4
 40
14.0
 49
11.0
 74
     0
 49
-1.0
 74
     0
 49
1.0
 74
     0
 49
-1.0
 74
     0
  0
LTYPE
  5
40
330
5
100
AcDbSymbolTableRecord
100
AcDbLinetypeTableRecord
  2
PHANTOM
 70
     0
  3
Phantom
 72
    65
 73
     6
 40
13.0
 49
10.0
 74
     0
 49
-1.0
 74
     0
 49
0.0
 74
     0
 49
-1.0
 74
     0
 49
0.0
 74
     0
 49
-1.0
 74
     0
  0
LTYPE
  5
41
330
5
100
AcDbSymbolTableRecord
100
AcDbLinetypeTableRecord
  2
CENTER_DASH_DASH
 70
     0
  3
Center_Dash_Dash
 72
    65
 73
     6
 40
14.0
 49
9.0
 74
     0
 49
-1.0
 74
     0
 49
1.0
 74
     0
 49
-1.0
 74
     0
 49
1.0
 74
     0
 49
-1.0
 74
     0
  0
LTYPE
  5
42
330
5
100
AcDbSymbolTableRecord
100
AcDbLinetypeTableRecord
  2
CENTERX2
 70
     0
  3
CENTERX2
 72
    65
 73
     4
 40
22.0
 49
13.0
 74
     0
 49
-3.0
 74
     0
 49
3.0
 74
     0
 49
-3.0
 74
     0
  0
ENDTAB
  0
TABLE
  2
LAYER
  5
2
330
0
100
AcDbSymbolTable
 70
     3
  0
LAYER
  5
10
330
2
100
AcDbSymbolTableRecord
100
AcDbLayerTableRecord
  2
0
 70
     0
 62
     7
  6
Continuous
370
    -3
390
F
  0
LAYER
  5
43
330
2
100
AcDbSymbolTableRecord
100
AcDbLayerTableRecord
  2
1
 70
     0
 62
     7
  6
Continuous
370
    -3
390
F
  0
LAYER
  5
44
330
2
100
AcDbSymbolTableRecord
100
AcDbLayerTableRecord
  2
BEMAßUNG
 70
     0
 62
     7
  6
Continuous
370
    -3
390
F
  0
ENDTAB
  0
TABLE
  2
STYLE
  5
3
330
0
100
AcDbSymbolTable
 70
     2
  0
STYLE
  5
11
330
3
100
AcDbSymbolTableRecord
100
AcDbTextStyleTableRecord
  2
Standard
 70
     0
 40
0.0
 41
1.0
 50
0.0
 71
     0
 42
0.2
  3
txt
  4

  0
STYLE
  5
21B
330
3
100
AcDbSymbolTableRecord
100
AcDbTextStyleTableRecord
  2
CONVERTER_11
 70
     0
 40
0.0
 41
0.9
 50
0.0
 71
     0
 42
0.2
  3
txt.shx
  4

  0
ENDTAB
  0
TABLE
  2
VIEW
  5
6
330
0
100
AcDbSymbolTable
 70
     0
  0
ENDTAB
  0
TABLE
  2
UCS
  5
7
330
0
100
AcDbSymbolTable
 70
     0
  0
ENDTAB
  0
TABLE
  2
APPID
  5
9
330
0
100
AcDbSymbolTable
 70
     1
  0
APPID
  5
12
330
9
100
AcDbSymbolTableRecord
100
AcDbRegAppTableRecord
  2
ACAD
 70
     0
  0
ENDTAB
  0
TABLE
  2
DIMSTYLE
  5
A
330
0
100
AcDbSymbolTable
 70
     7
100
AcDbDimStyleTable
  0
DIMSTYLE
105
27
330
A
100
AcDbSymbolTableRecord
100
AcDbDimStyleTableRecord
  2
Standard
 70
     0
340
11
  0
DIMSTYLE
105
21F
102
{ACAD_REACTORS
330
220
102
}
330
A
100
AcDbSymbolTableRecord
100
AcDbDimStyleTableRecord
  2
ME10_DIM_10
 70
     0
 41
7.0
 42
0.0
 44
2.0
 73
     0
 74
     0
 77
     1
 78
     8
140
7.0
147
2.0
172
     1
173
     1
176
     4
177
     4
178
     1
271
     2
340
21B
  0
DIMSTYLE
105
22A
102
{ACAD_REACTORS
330
22B
102
}
330
A
100
AcDbSymbolTableRecord
100
AcDbDimStyleTableRecord
  2
ME10_DIM_11
 70
     0
 41
7.0
 42
0.0
 44
2.0
 73
     0
 74
     0
 77
     1
 78
     8
140
7.0
147
2.0
172
     1
173
     1
176
     4
177
     4
178
     1
271
     2
340
21B
  0
DIMSTYLE
105
235
102
{ACAD_REACTORS
330
236
102
}
330
A
100
AcDbSymbolTableRecord
100
AcDbDimStyleTableRecord
  2
ME10_DIM_12
 70
     0
 41
7.0
 42
0.0
 44
2.0
 73
     0
 74
     0
 77
     1
 78
     8
140
7.0
147
2.0
172
     1
173
     1
176
     4
177
     4
178
     1
271
     2
340
21B
  0
DIMSTYLE
105
240
102
{ACAD_REACTORS
330
241
102
}
330
A
100
AcDbSymbolTableRecord
100
AcDbDimStyleTableRecord
  2
ME10_DIM_13
 70
     0
  3
Ø<>
 41
7.0
 42
0.0
 44
2.0
 73
     0
 74
     0
 77
     1
 78
     8
140
7.0
147
2.0
172
     1
173
     1
176
     4
177
     4
178
     1
271
     0
340
21B
  0
DIMSTYLE
105
24B
102
{ACAD_REACTORS
330
24C
102
}
330
A
100
AcDbSymbolTableRecord
100
AcDbDimStyleTableRecord
  2
ME10_DIM_14
 70
     0
  3
DN<>
 41
7.0
 42
0.0
 44
2.0
 73
     0
 74
     0
 77
     1
 78
     8
140
7.0
147
2.0
172
     1
173
     1
176
     4
177
     4
178
     1
271
     2
340
21B
  0
DIMSTYLE
105
256
102
{ACAD_REACTORS
330
257
102
}
330
A
100
AcDbSymbolTableRecord
100
AcDbDimStyleTableRecord
  2
ME10_DIM_15
 70
     0
  3
Ø<>
 41
7.0
 42
0.0
 44
2.0
 73
     0
 74
     0
 77
     1
 78
     8
140
7.0
147
2.0
172
     1
173
     1
176
     4
177
     4
178
     1
271
     2
340
21B
  0
ENDTAB
  0
TABLE
  2
BLOCK_RECORD
  5
1
330
0
100
AcDbSymbolTable
 70
     8
  0
BLOCK_RECORD
  5
1F
330
1
100
AcDbSymbolTableRecord
100
AcDbBlockTableRecord
  2
*Model_Space
340
22
  0
BLOCK_RECORD
  5
1B
330
1
100
AcDbSymbolTableRecord
100
AcDbBlockTableRecord
  2
*Paper_Space
340
1E
  0
BLOCK_RECORD
  5
23
330
1
100
AcDbSymbolTableRecord
100
AcDbBlockTableRecord
  2
*Paper_Space0
340
26
  0
BLOCK_RECORD
  5
45
330
1
100
AcDbSymbolTableRecord
100
AcDbBlockTableRecord
  2
HL62P
340
0
102
{BLKREFS
331
6A
102
}
  0
BLOCK_RECORD
  5
215
330
1
100
AcDbSymbolTableRecord
100
AcDbBlockTableRecord
  2
*D2
340
0
  0
BLOCK_RECORD
  5
221
330
1
100
AcDbSymbolTableRecord
100
AcDbBlockTableRecord
  2
*D3
340
0
  0
BLOCK_RECORD
  5
22C
330
1
100
AcDbSymbolTableRecord
100
AcDbBlockTableRecord
  2
*D4
340
0
  0
BLOCK_RECORD
  5
237
330
1
100
AcDbSymbolTableRecord
100
AcDbBlockTableRecord
  2
*D5
340
0
  0
BLOCK_RECORD
  5
242
330
1
100
AcDbSymbolTableRecord
100
AcDbBlockTableRecord
  2
*D6
340
0
  0
BLOCK_RECORD
  5
24D
330
1
100
AcDbSymbolTableRecord
100
AcDbBlockTableRecord
  2
*D7
340
0
  0
ENDTAB
  0
ENDSEC
  0
SECTION
  2
BLOCKS
  0
BLOCK
  5
20
330
1F
100
AcDbEntity
  8
0
100
AcDbBlockBegin
  2
*Model_Space
 70
     0
 10
0.0
 20
0.0
 30
0.0
  3
*Model_Space
  1

  0
ENDBLK
  5
21
330
1F
100
AcDbEntity
  8
0
100
AcDbBlockEnd
  0
BLOCK
  5
1C
330
1B
100
AcDbEntity
 67
     1
  8
0
100
AcDbBlockBegin
  2
*Paper_Space
 70
     0
 10
0.0
 20
0.0
 30
0.0
  3
*Paper_Space
  1

  0
ENDBLK
  5
1D
330
1B
100
AcDbEntity
 67
     1
  8
0
100
AcDbBlockEnd
  0
BLOCK
  5
24
330
23
100
AcDbEntity
  8
0
100
AcDbBlockBegin
  2
*Paper_Space0
 70
     0
 10
0.0
 20
0.0
 30
0.0
  3
*Paper_Space0
  1

  0
ENDBLK
  5
25
330
23
100
AcDbEntity
  8
0
100
AcDbBlockEnd
  0
BLOCK
  5
46
330
45
100
AcDbEntity
  8
0
100
AcDbBlockBegin
  2
HL62P
 70
     0
 10
199.5954893842641
 20
359.3599173175855
 30
0.0
  3
HL62P
  1

  0
POINT
  5
6B
330
45
100
AcDbEntity
  8
BEMAßUNG
 62
     7
100
AcDbPoint
 10
142.0001509888
 20
408.3890079988
 30
0.0
  0
POINT
  5
6C
330
45
100
AcDbEntity
  8
BEMAßUNG
 62
     7
100
AcDbPoint
 10
173.3015660875
 20
483.3890139988
 30
0.0
  0
POINT
  5
6D
330
45
100
AcDbEntity
  8
BEMAßUNG
 62
     7
100
AcDbPoint
 10
401.7501479913
 20
404.8890778855
 30
0.0
  0
POINT
  5
6E
330
45
100
AcDbEntity
  8
BEMAßUNG
 62
     7
100
AcDbPoint
 10
41.7501479913
 20
404.8890778855
 30
0.0
  0
POINT
  5
6F
330
45
100
AcDbEntity
  8
BEMAßUNG
 62
     7
100
AcDbPoint
 10
301.8501479913
 20
322.3890898855
 30
0.0
  0
POINT
  5
70
330
45
100
AcDbEntity
  8
BEMAßUNG
 62
     7
100
AcDbPoint
 10
141.6501479913
 20
322.3890898855
 30
0.0
  0
POINT
  5
71
330
45
100
AcDbEntity
  8
BEMAßUNG
 62
     7
100
AcDbPoint
 10
168.0898939534
 20
248.3890878855
 30
0.0
  0
POINT
  5
72
330
45
100
AcDbEntity
  8
BEMAßUNG
 62
     7
100
AcDbPoint
 10
59.7501479913
 20
408.3890079988
 30
0.0
  0
POINT
  5
73
330
45
100
AcDbEntity
  8
BEMAßUNG
 62
     7
100
AcDbPoint
 10
276.7501479913
 20
253.3890878855
 30
0.0
  0
POINT
  5
74
330
45
100
AcDbEntity
  8
BEMAßUNG
 62
     7
100
AcDbPoint
 10
166.7501479913
 20
253.3890878855
 30
0.0
  0
LINE
  5
75
330
45
100
AcDbEntity
  8
BEMAßUNG
  6
CENTERX2
 62
     7
100
AcDbLine
 10
221.7501479913
 20
484.3798383941
 30
0.0
 11
221.7501479913
 21
247.8641373351
 31
0.0
  0
LINE
  5
76
330
45
100
AcDbEntity
  8
0
  6
Continuous
 62
     7
100
AcDbLine
 10
145.7320686656
 20
407.3890109965
 30
0.0
 11
143.0001509888
 21
407.3890109965
 31
0.0
  0
LINE
  5
77
330
45
100
AcDbEntity
  8
0
  6
Continuous
 62
     7
100
AcDbLine
 10
300.5001449937
 20
407.3890109965
 30
0.0
 11
297.7682273169
 21
407.3890109965
 31
0.0
  0
LINE
  5
78
330
45
100
AcDbEntity
  8
0
  6
Continuous
 62
     7
100
AcDbLine
 10
276.7501479913
 20
317.3890898855
 30
0.0
 11
296.7501479913
 21
317.3890898855
 31
0.0
  0
LINE
  5
79
330
45
100
AcDbEntity
  8
0
  6
Continuous
 62
     7
100
AcDbLine
 10
146.7501479913
 20
317.3890898855
 30
0.0
 11
166.7501479913
 21
317.3890898855
 31
0.0
  0
LINE
  5
7A
330
45
100
AcDbEntity
  8
0
  6
Continuous
 62
     7
100
AcDbLine
 10
291.7627212426
 20
399.6890079988
 30
0.0
 11
291.3961132967
 21
399.6890079988
 31
0.0
  0
LINE
  5
7B
330
45
100
AcDbEntity
  8
0
  6
Continuous
 62
     7
100
AcDbLine
 10
152.1042053638
 20
399.6890079988
 30
0.0
 11
151.7375940296
 21
399.6890079988
 31
0.0
  0
LINE
  5
7C
330
45
100
AcDbEntity
  8
0
  6
Continuous
 62
     7
100
AcDbLine
 10
51.7501479913
 20
408.3890079988
 30
0.0
 11
59.7501479913
 21
408.3890079988
 31
0.0
  0
LINE
  5
7D
330
45
100
AcDbEntity
  8
0
  6
Continuous
 62
     7
100
AcDbLine
 10
57.7501479913
 20
404.8890778855
 30
0.0
 11
139.5001479913
 21
404.8890778855
 31
0.0
  0
LINE
  5
7E
330
45
100
AcDbEntity
  8
0
  6
Continuous
 62
     7
100
AcDbLine
 10
154.7501479913
 20
321.3890898855
 30
0.0
 11
164.7501479913
 21
321.3890898855
 31
0.0
  0
LINE
  5
7F
330
45
100
AcDbEntity
  8
0
  6
Continuous
 62
     7
100
AcDbLine
 10
168.0898939534
 20
248.3890878855
 30
0.0
 11
170.2501479913
 21
248.3890878855
 31
0.0
  0
LINE
  5
80
330
45
100
AcDbEntity
  8
0
  6
Continuous
 62
     7
100
AcDbLine
 10
151.3501479913
 20
360.8890878855
 30
0.0
 11
154.7501479913
 21
360.8890878855
 31
0.0
  0
LINE
  5
81
330
45
100
AcDbEntity
  8
0
  6
Continuous
 62
     7
100
AcDbLine
 10
145.1501479913
 20
370.0910298855
 30
0.0
 11
148.8501479913
 21
370.0910298855
 31
0.0
  0
LINE
  5
82
330
45
100
AcDbEntity
  8
0
  6
Continuous
 62
     7
100
AcDbLine
 10
141.6501479913
 20
322.3890898855
 30
0.0
 11
144.5001479913
 21
322.3890898855
 31
0.0
  0
LINE
  5
83
330
45
100
AcDbEntity
  8
0
  6
Continuous
 62
     7
100
AcDbLine
 10
142.0001509888
 20
408.3890079988
 30
0.0
 11
59.7501479913
 21
408.3890079988
 31
0.0
  0
LINE
  5
84
330
45
100
AcDbEntity
  8
0
  6
Continuous
 62
     7
100
AcDbLine
 10
151.3501479913
 20
373.5905787572
 30
0.0
 11
144.7501479913
 21
373.5905787572
 31
0.0
  0
LINE
  5
85
330
45
100
AcDbEntity
  8
0
  6
Continuous
 62
     7
100
AcDbLine
 10
157.2501479913
 20
364.3890878855
 30
0.0
 11
153.3501479913
 21
364.3890878855
 31
0.0
  0
LINE
  5
86
330
45
100
AcDbEntity
  8
0
  6
Continuous
 62
     7
100
AcDbLine
 10
170.2501479913
 20
324.888638328
 30
0.0
 11
158.2501479913
 21
324.888638328
 31
0.0
  0
LINE
  5
87
330
45
100
AcDbEntity
  8
0
  6
Continuous
 62
     7
100
AcDbLine
 10
59.7501479913
 20
408.3890079988
 30
0.0
 11
57.7501479913
 21
406.3890079988
 31
0.0
  0
LINE
  5
88
330
45
100
AcDbEntity
  8
0
  6
Continuous
 62
     7
100
AcDbLine
 10
139.5001479913
 20
404.8890778855
 30
0.0
 11
139.5001669913
 21
390.7890878855
 31
0.0
  0
LINE
  5
89
330
45
100
AcDbEntity
  8
0
  6
Continuous
 62
     7
100
AcDbLine
 10
158.2501479913
 20
324.888638328
 30
0.0
 11
158.2501479913
 21
363.3890878855
 31
0.0
  0
LINE
  5
8A
330
45
100
AcDbEntity
  8
0
  6
Continuous
 62
     7
100
AcDbLine
 10
152.3501479913
 20
365.3890878855
 30
0.0
 11
152.3501479913
 21
372.5905787572
 31
0.0
  0
LINE
  5
8B
330
45
100
AcDbEntity
  8
0
  6
Continuous
 62
     7
100
AcDbLine
 10
41.7501479913
 20
404.8890778855
 30
0.0
 11
53.7501479913
 21
404.8890778855
 31
0.0
  0
LINE
  5
8C
330
45
100
AcDbEntity
  8
0
  6
Continuous
 62
     7
100
AcDbLine
 10
51.7501479913
 20
408.3890079988
 30
0.0
 11
43.7501479913
 21
408.3890079988
 31
0.0
  0
LINE
  5
8D
330
45
100
AcDbEntity
  8
0
  6
Continuous
 62
     7
100
AcDbLine
 10
53.7501479913
 20
406.3890079988
 30
0.0
 11
51.7501479913
 21
408.3890079988
 31
0.0
  0
LINE
  5
8E
330
45
100
AcDbEntity
  8
0
  6
Continuous
 62
     7
100
AcDbLine
 10
304.0001479913
 20
404.8890778855
 30
0.0
 11
385.7501479913
 21
404.8890778855
 31
0.0
  0
LINE
  5
8F
330
45
100
AcDbEntity
  8
0
  6
Continuous
 62
     7
100
AcDbLine
 10
278.7501479913
 20
321.3890898855
 30
0.0
 11
288.7501479913
 21
321.3890898855
 31
0.0
  0
LINE
  5
90
330
45
100
AcDbEntity
  8
0
  6
Continuous
 62
     7
100
AcDbLine
 10
273.2501479913
 20
248.3890878855
 30
0.0
 11
275.4104020291
 21
248.3890878855
 31
0.0
  0
LINE
  5
91
330
45
100
AcDbEntity
  8
0
  6
Continuous
 62
     7
100
AcDbLine
 10
288.7501479913
 20
360.8890878855
 30
0.0
 11
292.1501479913
 21
360.8890878855
 31
0.0
  0
LINE
  5
92
330
45
100
AcDbEntity
  8
0
  6
Continuous
 62
     7
100
AcDbLine
 10
294.6501479913
 20
370.0910298855
 30
0.0
 11
298.3501479913
 21
370.0910298855
 31
0.0
  0
LINE
  5
93
330
45
100
AcDbEntity
  8
0
  6
Continuous
 62
     7
100
AcDbLine
 10
299.0001479913
 20
322.3890898855
 30
0.0
 11
301.8501479913
 21
322.3890898855
 31
0.0
  0
LINE
  5
94
330
45
100
AcDbEntity
  8
0
  6
Continuous
 62
     7
100
AcDbLine
 10
383.7501479913
 20
408.3890079988
 30
0.0
 11
301.5001449937
 21
408.3890079988
 31
0.0
  0
LINE
  5
95
330
45
100
AcDbEntity
  8
0
  6
Continuous
 62
     7
100
AcDbLine
 10
298.7501479913
 20
373.5905787572
 30
0.0
 11
292.1501479913
 21
373.5905787572
 31
0.0
  0
LINE
  5
96
330
45
100
AcDbEntity
  8
0
  6
Continuous
 62
     7
100
AcDbLine
 10
290.1501479913
 20
364.3890878855
 30
0.0
 11
286.2501479913
 21
364.3890878855
 31
0.0
  0
LINE
  5
97
330
45
100
AcDbEntity
  8
0
  6
Continuous
 62
     7
100
AcDbLine
 10
285.2501479913
 20
324.888638328
 30
0.0
 11
273.2501479913
 21
324.888638328
 31
0.0
  0
LINE
  5
98
330
45
100
AcDbEntity
  8
0
  6
Continuous
 62
     7
100
AcDbLine
 10
291.1501479913
 20
372.5905787572
 30
0.0
 11
291.1501479913
 21
365.3890878855
 31
0.0
  0
LINE
  5
99
330
45
100
AcDbEntity
  8
0
  6
Continuous
 62
     7
100
AcDbLine
 10
285.2501479913
 20
363.3890878855
 30
0.0
 11
285.2501479913
 21
324.888638328
 31
0.0
  0
LINE
  5
9A
330
45
100
AcDbEntity
  8
0
  6
Continuous
 62
     7
100
AcDbLine
 10
304.0001289913
 20
390.7890878855
 30
0.0
 11
304.0001479913
 21
404.8890778855
 31
0.0
  0
LINE
  5
9B
330
45
100
AcDbEntity
  8
0
  6
Continuous
 62
     7
100
AcDbLine
 10
389.7501479913
 20
404.8890778855
 30
0.0
 11
401.7501479913
 21
404.8890778855
 31
0.0
  0
LINE
  5
9C
330
45
100
AcDbEntity
  8
0
  6
Continuous
 62
     7
100
AcDbLine
 10
399.7501479913
 20
408.3890079988
 30
0.0
 11
391.7501479913
 21
408.3890079988
 31
0.0
  0
LINE
  5
9D
330
45
100
AcDbEntity
  8
0
  6
Continuous
 62
     7
100
AcDbLine
 10
154.7501479913
 20
360.8890878855
 30
0.0
 11
154.7501479913
 21
321.3890898855
 31
0.0
  0
LINE
  5
9E
330
45
100
AcDbEntity
  8
0
  6
Continuous
 62
     7
100
AcDbLine
 10
288.7501479913
 20
321.3890898855
 30
0.0
 11
288.7501479913
 21
360.8890878855
 31
0.0
  0
LINE
  5
9F
330
45
100
AcDbEntity
  8
0
  6
Continuous
 62
     7
100
AcDbLine
 10
383.7501479913
 20
408.3890079988
 30
0.0
 11
391.7501479913
 21
408.3890079988
 31
0.0
  0
LINE
  5
A0
330
45
100
AcDbEntity
  8
0
  6
Continuous
 62
     7
100
AcDbLine
 10
385.7501479913
 20
406.3890079988
 30
0.0
 11
383.7501479913
 21
408.3890079988
 31
0.0
  0
LINE
  5
A1
330
45
100
AcDbEntity
  8
0
  6
Continuous
 62
     7
100
AcDbLine
 10
391.7501479913
 20
408.3890079988
 30
0.0
 11
389.7501479913
 21
406.3890079988
 31
0.0
  0
LINE
  5
A2
330
45
100
AcDbEntity
  8
0
  6
Continuous
 62
     7
100
AcDbLine
 10
273.2501479913
 20
248.3890878855
 30
0.0
 11
170.2501479913
 21
248.3890878855
 31
0.0
  0
LINE
  5
A3
330
45
100
AcDbEntity
  8
0
  6
Continuous
 62
     7
100
AcDbLine
 10
273.2501479913
 20
324.888638328
 30
0.0
 11
170.2501479913
 21
324.888638328
 31
0.0
  0
LINE
  5
A4
330
45
100
AcDbEntity
  8
0
  6
Continuous
 62
     7
100
AcDbLine
 10
170.2501479913
 20
248.3890878855
 30
0.0
 11
170.2501479913
 21
324.888638328
 31
0.0
  0
LINE
  5
A5
330
45
100
AcDbEntity
  8
0
  6
Continuous
 62
     7
100
AcDbLine
 10
273.2501479913
 20
324.888638328
 30
0.0
 11
273.2501479913
 21
248.3890878855
 31
0.0
  0
LINE
  5
A6
330
45
100
AcDbEntity
  8
0
  6
Continuous
 62
     7
100
AcDbLine
 10
166.7501479913
 20
253.3890878855
 30
0.0
 11
168.0898939534
 21
248.3890878855
 31
0.0
  0
LINE
  5
A7
330
45
100
AcDbEntity
  8
0
  6
Continuous
 62
     7
100
AcDbLine
 10
275.4104020291
 20
248.3890878855
 30
0.0
 11
276.7501479913
 21
253.3890878855
 31
0.0
  0
LINE
  5
A8
330
45
100
AcDbEntity
  8
0
  6
Continuous
 62
     7
100
AcDbLine
 10
157.2501479913
 20
364.3890878855
 30
0.0
 11
286.2501479913
 21
364.3890878855
 31
0.0
  0
LINE
  5
A9
330
45
100
AcDbEntity
  8
0
  6
Continuous
 62
     7
100
AcDbLine
 10
285.2501479913
 20
363.3890878855
 30
0.0
 11
158.2501479913
 21
363.3890878855
 31
0.0
  0
LINE
  5
AA
330
45
100
AcDbEntity
  8
0
  6
Continuous
 62
     7
100
AcDbLine
 10
291.1501479913
 20
372.5905787572
 30
0.0
 11
152.3501479913
 21
372.5905787572
 31
0.0
  0
LINE
  5
AB
330
45
100
AcDbEntity
  8
0
  6
Continuous
 62
     7
100
AcDbLine
 10
144.7501479913
 20
373.5905787572
 30
0.0
 11
144.7501479913
 21
378.1890878855
 31
0.0
  0
LINE
  5
AC
330
45
100
AcDbEntity
  8
0
  6
Continuous
 62
     7
100
AcDbLine
 10
298.7501479913
 20
378.1890878855
 30
0.0
 11
298.7501479913
 21
373.5905787572
 31
0.0
  0
LINE
  5
AD
330
45
100
AcDbEntity
  8
0
  6
Continuous
 62
     7
100
AcDbLine
 10
297.2501479913
 20
379.1890878855
 30
0.0
 11
298.7501479913
 21
378.1890878855
 31
0.0
  0
LINE
  5
AE
330
45
100
AcDbEntity
  8
0
  6
Continuous
 62
     7
100
AcDbLine
 10
144.7501479913
 20
378.1890878855
 30
0.0
 11
146.2501479913
 21
379.1890878855
 31
0.0
  0
LINE
  5
AF
330
45
100
AcDbEntity
  8
0
  6
Continuous
 62
     7
100
AcDbLine
 10
298.7501479913
 20
378.1890878855
 30
0.0
 11
144.7501479913
 21
378.1890878855
 31
0.0
  0
LINE
  5
B0
330
45
100
AcDbEntity
  8
0
  6
Continuous
 62
     7
100
AcDbLine
 10
146.2501479913
 20
379.1890878855
 30
0.0
 11
146.2501479913
 21
383.4460067572
 31
0.0
  0
LINE
  5
B1
330
45
100
AcDbEntity
  8
0
  6
Continuous
 62
     7
100
AcDbLine
 10
297.2501479913
 20
379.1890878855
 30
0.0
 11
146.2501479913
 21
379.1890878855
 31
0.0
  0
LINE
  5
B2
330
45
100
AcDbEntity
  8
0
  6
Continuous
 62
     7
100
AcDbLine
 10
297.2501479913
 20
383.4460067572
 30
0.0
 11
297.2501479913
 21
379.1890878855
 31
0.0
  0
LINE
  5
B3
330
45
100
AcDbEntity
  8
0
  6
Continuous
 62
     7
100
AcDbLine
 10
296.5002363551
 20
383.8890878855
 30
0.0
 11
297.2501479913
 21
383.4460067572
 31
0.0
  0
LINE
  5
B4
330
45
100
AcDbEntity
  8
0
  6
Continuous
 62
     7
100
AcDbLine
 10
146.2501479913
 20
383.4460067572
 30
0.0
 11
147.0000596274
 21
383.8890878855
 31
0.0
  0
LINE
  5
B5
330
45
100
AcDbEntity
  8
0
  6
Continuous
 62
     7
100
AcDbLine
 10
147.8501479913
 20
383.4460067572
 30
0.0
 11
146.2501479913
 21
383.4460067572
 31
0.0
  0
LINE
  5
B6
330
45
100
AcDbEntity
  8
0
  6
Continuous
 62
     7
100
AcDbLine
 10
209.9501655031
 20
383.4460067572
 30
0.0
 11
151.7375940296
 21
383.4460067572
 31
0.0
  0
LINE
  5
B7
330
45
100
AcDbEntity
  8
0
  6
Continuous
 62
     7
100
AcDbLine
 10
291.7627212426
 20
383.4460067572
 30
0.0
 11
233.5502449303
 21
383.4460067572
 31
0.0
  0
LINE
  5
B8
330
45
100
AcDbEntity
  8
0
  6
Continuous
 62
     7
100
AcDbLine
 10
297.2501479913
 20
383.4460067572
 30
0.0
 11
295.6501479913
 21
383.4460067572
 31
0.0
  0
LINE
  5
B9
330
45
100
AcDbEntity
  8
0
  6
Continuous
 62
     7
100
AcDbLine
 10
147.0000596274
 20
383.8890878855
 30
0.0
 11
147.0000596274
 21
384.7890878855
 31
0.0
  0
LINE
  5
BA
330
45
100
AcDbEntity
  8
0
  6
Continuous
 62
     7
100
AcDbLine
 10
147.8501479913
 20
383.8890878855
 30
0.0
 11
147.0000596274
 21
383.8890878855
 31
0.0
  0
LINE
  5
BB
330
45
100
AcDbEntity
  8
0
  6
Continuous
 62
     7
100
AcDbLine
 10
209.9501655031
 20
383.8890878855
 30
0.0
 11
151.7375940296
 21
383.8890878855
 31
0.0
  0
LINE
  5
BC
330
45
100
AcDbEntity
  8
0
  6
Continuous
 62
     7
100
AcDbLine
 10
291.7627212426
 20
383.8890878855
 30
0.0
 11
233.5502449303
 21
383.8890878855
 31
0.0
  0
LINE
  5
BD
330
45
100
AcDbEntity
  8
0
  6
Continuous
 62
     7
100
AcDbLine
 10
296.5002363551
 20
383.8890878855
 30
0.0
 11
295.6501479913
 21
383.8890878855
 31
0.0
  0
LINE
  5
BE
330
45
100
AcDbEntity
  8
0
  6
Continuous
 62
     7
100
AcDbLine
 10
296.5002363551
 20
384.7890878855
 30
0.0
 11
296.5002363551
 21
383.8890878855
 31
0.0
  0
LINE
  5
BF
330
45
100
AcDbEntity
  8
0
  6
Continuous
 62
     7
100
AcDbLine
 10
143.0001980452
 20
391.6909203188
 30
0.0
 11
143.0001509888
 21
407.3890109965
 31
0.0
  0
LINE
  5
C0
330
45
100
AcDbEntity
  8
0
  6
Continuous
 62
     7
100
AcDbLine
 10
300.5001449937
 20
407.3890109965
 30
0.0
 11
300.5000979373
 21
391.6909203188
 31
0.0
  0
LINE
  5
C1
330
45
100
AcDbEntity
  8
0
  6
Continuous
 62
     7
100
AcDbLine
 10
41.7501479913
 20
406.3890079988
 30
0.0
 11
41.7501479913
 21
404.8890778855
 31
0.0
  0
LINE
  5
C2
330
45
100
AcDbEntity
  8
0
  6
Continuous
 62
     7
100
AcDbLine
 10
401.7501479913
 20
404.8890778855
 30
0.0
 11
401.7501479913
 21
406.3890079988
 31
0.0
  0
LINE
  5
C3
330
45
100
AcDbEntity
  8
0
  6
Continuous
 62
     7
100
AcDbLine
 10
152.3501479913
 20
365.3890878855
 30
0.0
 11
291.1501479913
 21
365.3890878855
 31
0.0
  0
LINE
  5
C4
330
45
100
AcDbEntity
  8
0
  6
Continuous
 62
     7
100
AcDbLine
 10
298.3501479913
 20
370.0910298855
 30
0.0
 11
299.0001479913
 21
322.3890898855
 31
0.0
  0
LINE
  5
C5
330
45
100
AcDbEntity
  8
0
  6
Continuous
 62
     7
100
AcDbLine
 10
144.5001479913
 20
322.3890898855
 30
0.0
 11
145.1501479913
 21
370.0910298855
 31
0.0
  0
LINE
  5
C6
330
45
100
AcDbEntity
  8
0
  6
Continuous
 62
     7
100
AcDbLine
 10
148.8501479913
 20
370.0910298855
 30
0.0
 11
148.8501479913
 21
363.3890878855
 31
0.0
  0
LINE
  5
C7
330
45
100
AcDbEntity
  8
0
  6
Continuous
 62
     7
100
AcDbLine
 10
294.6501479913
 20
363.3890878855
 30
0.0
 11
294.6501479913
 21
370.0910298855
 31
0.0
  0
LINE
  5
C8
330
45
100
AcDbEntity
  8
0
  6
Continuous
 62
     7
100
AcDbLine
 10
164.7501479913
 20
321.3890898855
 30
0.0
 11
166.7501479913
 21
321.1390878855
 31
0.0
  0
LINE
  5
C9
330
45
100
AcDbEntity
  8
0
  6
Continuous
 62
     7
100
AcDbLine
 10
276.7501479913
 20
321.1390878855
 30
0.0
 11
278.7501479913
 21
321.3890898855
 31
0.0
  0
LINE
  5
CA
330
45
100
AcDbEntity
  8
0
  6
Continuous
 62
     7
100
AcDbLine
 10
166.7501479913
 20
321.1390878855
 30
0.0
 11
166.7501479913
 21
253.3890878855
 31
0.0
  0
LINE
  5
CB
330
45
100
AcDbEntity
  8
0
  6
Continuous
 62
     7
100
AcDbLine
 10
276.7501479913
 20
253.3890878855
 30
0.0
 11
276.7501479913
 21
321.1390878855
 31
0.0
  0
LINE
  5
CC
330
45
100
AcDbEntity
  8
0
  6
Continuous
 62
     7
100
AcDbLine
 10
147.0000596274
 20
384.7890878855
 30
0.0
 11
143.0001980452
 21
391.6909203188
 31
0.0
  0
LINE
  5
CD
330
45
100
AcDbEntity
  8
0
  6
Continuous
 62
     7
100
AcDbLine
 10
147.8501479913
 20
384.7890878855
 30
0.0
 11
147.0000596274
 21
384.7890878855
 31
0.0
  0
LINE
  5
CE
330
45
100
AcDbEntity
  8
0
  6
Continuous
 62
     7
100
AcDbLine
 10
209.9501655031
 20
384.7890878855
 30
0.0
 11
151.7375940296
 21
384.7890878855
 31
0.0
  0
LINE
  5
CF
330
45
100
AcDbEntity
  8
0
  6
Continuous
 62
     7
100
AcDbLine
 10
291.7627212426
 20
384.7890878855
 30
0.0
 11
233.5502449303
 21
384.7890878855
 31
0.0
  0
LINE
  5
D0
330
45
100
AcDbEntity
  8
0
  6
Continuous
 62
     7
100
AcDbLine
 10
296.5002363551
 20
384.7890878855
 30
0.0
 11
295.6501479913
 21
384.7890878855
 31
0.0
  0
LINE
  5
D1
330
45
100
AcDbEntity
  8
0
  6
Continuous
 62
     7
100
AcDbLine
 10
300.5000979373
 20
391.6909203188
 30
0.0
 11
296.5002363551
 21
384.7890878855
 31
0.0
  0
LINE
  5
D2
330
45
100
AcDbEntity
  8
0
  6
Continuous
 62
     7
100
AcDbLine
 10
145.7320686656
 20
391.6909203188
 30
0.0
 11
143.0001980452
 21
391.6909203188
 31
0.0
  0
LINE
  5
D3
330
45
100
AcDbEntity
  8
0
  6
Continuous
 62
     7
100
AcDbLine
 10
209.9501655031
 20
391.6909203188
 30
0.0
 11
207.9501655031
 21
391.6909203188
 31
0.0
  0
LINE
  5
D4
330
45
100
AcDbEntity
  8
0
  6
Continuous
 62
     7
100
AcDbLine
 10
235.5502449303
 20
391.6909203188
 30
0.0
 11
233.5502449303
 21
391.6909203188
 31
0.0
  0
LINE
  5
D5
330
45
100
AcDbEntity
  8
0
  6
Continuous
 62
     7
100
AcDbLine
 10
300.5000979373
 20
391.6909203188
 30
0.0
 11
297.7682273169
 21
391.6909203188
 31
0.0
  0
LINE
  5
D6
330
45
100
AcDbEntity
  8
0
  6
Continuous
 62
     7
100
AcDbLine
 10
139.5001669913
 20
390.7890878855
 30
0.0
 11
141.6501479913
 21
386.9890878855
 31
0.0
  0
LINE
  5
D7
330
45
100
AcDbEntity
  8
0
  6
Continuous
 62
     7
100
AcDbLine
 10
301.8501479913
 20
386.9890878855
 30
0.0
 11
304.0001289913
 21
390.7890878855
 31
0.0
  0
LINE
  5
D8
330
45
100
AcDbEntity
  8
0
  6
Continuous
 62
     7
100
AcDbLine
 10
141.6501479913
 20
386.9890878855
 30
0.0
 11
141.6501479913
 21
322.3890898855
 31
0.0
  0
LINE
  5
D9
330
45
100
AcDbEntity
  8
0
  6
Continuous
 62
     7
100
AcDbLine
 10
301.8501479913
 20
322.3890898855
 30
0.0
 11
301.8501479913
 21
386.9890878855
 31
0.0
  0
LINE
  5
DA
330
45
100
AcDbEntity
  8
0
  6
Continuous
 62
     7
100
AcDbLine
 10
53.7501479913
 20
404.8890778855
 30
0.0
 11
57.7501479913
 21
404.8890778855
 31
0.0
  0
LINE
  5
DB
330
45
100
AcDbEntity
  8
0
  6
Continuous
 62
     7
100
AcDbLine
 10
57.7501479913
 20
404.8890778855
 30
0.0
 11
57.7501479913
 21
406.3890079988
 31
0.0
  0
LINE
  5
DC
330
45
100
AcDbEntity
  8
0
  6
Continuous
 62
     7
100
AcDbLine
 10
57.7501479913
 20
406.3890079988
 30
0.0
 11
53.7501479913
 21
406.3890079988
 31
0.0
  0
LINE
  5
DD
330
45
100
AcDbEntity
  8
0
  6
Continuous
 62
     7
100
AcDbLine
 10
53.7501479913
 20
406.3890079988
 30
0.0
 11
53.7501479913
 21
404.8890778855
 31
0.0
  0
LINE
  5
DE
330
45
100
AcDbEntity
  8
0
  6
Continuous
 62
     7
100
AcDbLine
 10
385.7501479913
 20
404.8890778855
 30
0.0
 11
389.7501479913
 21
404.8890778855
 31
0.0
  0
LINE
  5
DF
330
45
100
AcDbEntity
  8
0
  6
Continuous
 62
     7
100
AcDbLine
 10
389.7501479913
 20
404.8890778855
 30
0.0
 11
389.7501479913
 21
406.3890079988
 31
0.0
  0
LINE
  5
E0
330
45
100
AcDbEntity
  8
0
  6
Continuous
 62
     7
100
AcDbLine
 10
389.7501479913
 20
406.3890079988
 30
0.0
 11
385.7501479913
 21
406.3890079988
 31
0.0
  0
LINE
  5
E1
330
45
100
AcDbEntity
  8
0
  6
Continuous
 62
     7
100
AcDbLine
 10
385.7501479913
 20
406.3890079988
 30
0.0
 11
385.7501479913
 21
404.8890778855
 31
0.0
  0
LINE
  5
E2
330
45
100
AcDbEntity
  8
0
  6
Continuous
 62
     7
100
AcDbLine
 10
157.0001479913
 20
375.5905787572
 30
0.0
 11
286.5001479913
 21
375.5905787572
 31
0.0
  0
LINE
  5
E3
330
45
100
AcDbEntity
  8
0
  6
Continuous
 62
     7
100
AcDbLine
 10
152.5001479913
 20
373.5905787572
 30
0.0
 11
145.6548479913
 21
373.5905787572
 31
0.0
  0
LINE
  5
E4
330
45
100
AcDbEntity
  8
0
  6
Continuous
 62
     7
100
AcDbLine
 10
144.5001479913
 20
378.0905787572
 30
0.0
 11
155.0001479913
 21
378.0905787572
 31
0.0
  0
LINE
  5
E5
330
45
100
AcDbEntity
  8
0
  6
Continuous
 62
     7
100
AcDbLine
 10
157.0001479913
 20
375.5905787572
 30
0.0
 11
154.5001479913
 21
375.5905787572
 31
0.0
  0
LINE
  5
E6
330
45
100
AcDbEntity
  8
0
  6
Continuous
 62
     7
100
AcDbLine
 10
157.0001479913
 20
376.0905787572
 30
0.0
 11
157.0001479913
 21
375.5905787572
 31
0.0
  0
LINE
  5
E7
330
45
100
AcDbEntity
  8
0
  6
Continuous
 62
     7
100
AcDbLine
 10
144.5001479913
 20
375.5905787572
 30
0.0
 11
144.5001479913
 21
378.0905787572
 31
0.0
  0
LINE
  5
E8
330
45
100
AcDbEntity
  8
0
  6
Continuous
 62
     7
100
AcDbLine
 10
297.8454479913
 20
373.5905787572
 30
0.0
 11
291.0001479913
 21
373.5905787572
 31
0.0
  0
LINE
  5
E9
330
45
100
AcDbEntity
  8
0
  6
Continuous
 62
     7
100
AcDbLine
 10
288.5001479913
 20
378.0905787572
 30
0.0
 11
299.0001479913
 21
378.0905787572
 31
0.0
  0
LINE
  5
EA
330
45
100
AcDbEntity
  8
0
  6
Continuous
 62
     7
100
AcDbLine
 10
289.0001479913
 20
375.5905787572
 30
0.0
 11
286.5001479913
 21
375.5905787572
 31
0.0
  0
LINE
  5
EB
330
45
100
AcDbEntity
  8
0
  6
Continuous
 62
     7
100
AcDbLine
 10
299.0001479913
 20
378.0905787572
 30
0.0
 11
299.0001479913
 21
375.5905787572
 31
0.0
  0
LINE
  5
EC
330
45
100
AcDbEntity
  8
0
  6
Continuous
 62
     7
100
AcDbLine
 10
286.5001479913
 20
375.5905787572
 30
0.0
 11
286.5001479913
 21
376.0905787572
 31
0.0
  0
LINE
  5
ED
330
45
100
AcDbEntity
  8
0
  6
Continuous
 62
     7
100
AcDbLine
 10
145.6548479913
 20
373.5905787572
 30
0.0
 11
144.5001479913
 21
375.5905787572
 31
0.0
  0
LINE
  5
EE
330
45
100
AcDbEntity
  8
0
  6
Continuous
 62
     7
100
AcDbLine
 10
299.0001479913
 20
375.5905787572
 30
0.0
 11
297.8454479913
 21
373.5905787572
 31
0.0
  0
LINE
  5
EF
330
45
100
AcDbEntity
  8
0
  6
Continuous
 62
     7
100
AcDbLine
 10
157.0001479913
 20
376.0905787572
 30
0.0
 11
286.5001479913
 21
376.0905787572
 31
0.0
  0
LINE
  5
F0
330
45
100
AcDbEntity
  8
0
  6
Continuous
 62
     7
100
AcDbLine
 10
155.0001479913
 20
378.0905787572
 30
0.0
 11
288.5001479913
 21
378.0905787572
 31
0.0
  0
LINE
  5
F1
330
45
100
AcDbEntity
  8
0
  6
Continuous
 62
     7
100
AcDbLine
 10
152.5001479913
 20
373.5905787572
 30
0.0
 11
291.0001479913
 21
373.5905787572
 31
0.0
  0
LINE
  5
F2
330
45
100
AcDbEntity
  8
0
  6
Continuous
 62
     7
100
AcDbLine
 10
144.7501479913
 20
322.3890898855
 30
0.0
 11
141.7501479913
 21
322.3890898855
 31
0.0
  0
LINE
  5
F3
330
45
100
AcDbEntity
  8
0
  6
Continuous
 62
     7
100
AcDbLine
 10
146.7501479913
 20
328.3890898855
 30
0.0
 11
145.4780884598
 21
328.3890898855
 31
0.0
  0
LINE
  5
F4
330
45
100
AcDbEntity
  8
0
  6
Continuous
 62
     7
100
AcDbLine
 10
166.2501479913
 20
314.8890898855
 30
0.0
 11
149.2501479913
 21
314.8890898855
 31
0.0
  0
LINE
  5
F5
330
45
100
AcDbEntity
  8
0
  6
Continuous
 62
     7
100
AcDbLine
 10
149.7501479913
 20
312.3890898855
 30
0.0
 11
151.0001479913
 21
312.3890898855
 31
0.0
  0
LINE
  5
F6
330
45
100
AcDbEntity
  8
0
  6
Continuous
 62
     7
100
AcDbLine
 10
165.0001479913
 20
312.3890898855
 30
0.0
 11
166.2501479913
 21
312.3890898855
 31
0.0
  0
LINE
  5
F7
330
45
100
AcDbEntity
  8
0
  6
Continuous
 62
     7
100
AcDbLine
 10
165.0001479913
 20
309.8890898855
 30
0.0
 11
165.0001479913
 21
312.3890898855
 31
0.0
  0
LINE
  5
F8
330
45
100
AcDbEntity
  8
0
  6
Continuous
 62
     7
100
AcDbLine
 10
151.0001479913
 20
309.8890898855
 30
0.0
 11
151.0001479913
 21
312.3890898855
 31
0.0
  0
LINE
  5
F9
330
45
100
AcDbEntity
  8
0
  6
Continuous
 62
     7
100
AcDbLine
 10
165.0001479913
 20
309.8890898855
 30
0.0
 11
151.0001479913
 21
309.8890898855
 31
0.0
  0
LINE
  5
FA
330
45
100
AcDbEntity
  8
0
  6
Continuous
 62
     7
100
AcDbLine
 10
301.7501479913
 20
322.3890898855
 30
0.0
 11
298.7501479913
 21
322.3890898855
 31
0.0
  0
LINE
  5
FB
330
45
100
AcDbEntity
  8
0
  6
Continuous
 62
     7
100
AcDbLine
 10
298.0222075227
 20
328.3890898855
 30
0.0
 11
296.7501479913
 21
328.3890898855
 31
0.0
  0
LINE
  5
FC
330
45
100
AcDbEntity
  8
0
  6
Continuous
 62
     7
100
AcDbLine
 10
294.2501479913
 20
314.8890898855
 30
0.0
 11
277.2501479913
 21
314.8890898855
 31
0.0
  0
LINE
  5
FD
330
45
100
AcDbEntity
  8
0
  6
Continuous
 62
     7
100
AcDbLine
 10
292.5001479913
 20
312.3890898855
 30
0.0
 11
293.7501479913
 21
312.3890898855
 31
0.0
  0
LINE
  5
FE
330
45
100
AcDbEntity
  8
0
  6
Continuous
 62
     7
100
AcDbLine
 10
277.2501479913
 20
312.3890898855
 30
0.0
 11
278.5001479913
 21
312.3890898855
 31
0.0
  0
LINE
  5
FF
330
45
100
AcDbEntity
  8
0
  6
Continuous
 62
     7
100
AcDbLine
 10
278.5001479913
 20
312.3890898855
 30
0.0
 11
278.5001479913
 21
309.8890898855
 31
0.0
  0
LINE
  5
100
330
45
100
AcDbEntity
  8
0
  6
Continuous
 62
     7
100
AcDbLine
 10
292.5001479913
 20
309.8890898855
 30
0.0
 11
278.5001479913
 21
309.8890898855
 31
0.0
  0
LINE
  5
101
330
45
100
AcDbEntity
  8
0
  6
Continuous
 62
     7
100
AcDbLine
 10
292.5001479913
 20
309.8890898855
 30
0.0
 11
292.5001479913
 21
312.3890898855
 31
0.0
  0
LINE
  5
102
330
45
100
AcDbEntity
  8
0
  6
Continuous
 62
     7
100
AcDbLine
 10
276.7501479913
 20
314.8890898855
 30
0.0
 11
277.2501479913
 21
314.8890898855
 31
0.0
  0
LINE
  5
103
330
45
100
AcDbEntity
  8
0
  6
Continuous
 62
     7
100
AcDbLine
 10
166.2501479913
 20
314.8890898855
 30
0.0
 11
166.7501479913
 21
314.8890898855
 31
0.0
  0
LINE
  5
104
330
45
100
AcDbEntity
  8
0
  6
Continuous
 62
     7
100
AcDbLine
 10
276.7501479913
 20
312.3890898855
 30
0.0
 11
277.2501479913
 21
312.3890898855
 31
0.0
  0
LINE
  5
105
330
45
100
AcDbEntity
  8
0
  6
Continuous
 62
     7
100
AcDbLine
 10
166.2501479913
 20
312.3890898855
 30
0.0
 11
166.7501479913
 21
312.3890898855
 31
0.0
  0
LINE
  5
106
330
45
100
AcDbEntity
  8
0
  6
Continuous
 62
     7
100
AcDbLine
 10
277.2501479913
 20
314.8890898855
 30
0.0
 11
277.2501479913
 21
312.3890898855
 31
0.0
  0
LINE
  5
107
330
45
100
AcDbEntity
  8
0
  6
Continuous
 62
     7
100
AcDbLine
 10
166.2501479913
 20
312.3890898855
 30
0.0
 11
166.2501479913
 21
314.8890898855
 31
0.0
  0
LINE
  5
108
330
45
100
AcDbEntity
  8
0
  6
Continuous
 62
     7
100
AcDbLine
 10
288.7501479913
 20
328.3890898855
 30
0.0
 11
296.7501479913
 21
328.3890898855
 31
0.0
  0
LINE
  5
109
330
45
100
AcDbEntity
  8
0
  6
Continuous
 62
     7
100
AcDbLine
 10
146.7501479913
 20
328.3890898855
 30
0.0
 11
154.7501479913
 21
328.3890898855
 31
0.0
  0
LINE
  5
10A
330
45
100
AcDbEntity
  8
0
  6
Continuous
 62
     7
100
AcDbLine
 10
296.7501479913
 20
328.3890898855
 30
0.0
 11
296.7501479913
 21
317.3890898855
 31
0.0
  0
LINE
  5
10B
330
45
100
AcDbEntity
  8
0
  6
Continuous
 62
     7
100
AcDbLine
 10
146.7501479913
 20
317.3890898855
 30
0.0
 11
146.7501479913
 21
328.3890898855
 31
0.0
  0
LINE
  5
10C
330
45
100
AcDbEntity
  8
0
  6
Continuous
 62
     7
100
AcDbLine
 10
298.7501479913
 20
326.3890898855
 30
0.0
 11
298.0222075227
 21
328.3890898855
 31
0.0
  0
LINE
  5
10D
330
45
100
AcDbEntity
  8
0
  6
Continuous
 62
     7
100
AcDbLine
 10
145.4780884598
 20
328.3890898855
 30
0.0
 11
144.7501479913
 21
326.3890898855
 31
0.0
  0
LINE
  5
10E
330
45
100
AcDbEntity
  8
0
  6
Continuous
 62
     7
100
AcDbLine
 10
298.7501479913
 20
322.3890898855
 30
0.0
 11
298.7501479913
 21
326.3890898855
 31
0.0
  0
LINE
  5
10F
330
45
100
AcDbEntity
  8
0
  6
Continuous
 62
     7
100
AcDbLine
 10
144.7501479913
 20
326.3890898855
 30
0.0
 11
144.7501479913
 21
322.3890898855
 31
0.0
  0
LINE
  5
110
330
45
100
AcDbEntity
  8
0
  6
Continuous
 62
     7
100
AcDbLine
 10
301.7501479913
 20
320.3890898855
 30
0.0
 11
301.7501479913
 21
322.3890898855
 31
0.0
  0
LINE
  5
111
330
45
100
AcDbEntity
  8
0
  6
Continuous
 62
     7
100
AcDbLine
 10
141.7501479913
 20
322.3890898855
 30
0.0
 11
141.7501479913
 21
320.3890898855
 31
0.0
  0
LINE
  5
112
330
45
100
AcDbEntity
  8
0
  6
Continuous
 62
     7
100
AcDbLine
 10
209.9501655031
 20
379.3890079988
 30
0.0
 11
209.9501655031
 21
399.6890079988
 31
0.0
  0
LINE
  5
113
330
45
100
AcDbEntity
  8
0
  6
Continuous
 62
     7
100
AcDbLine
 10
209.9501655031
 20
379.3890079988
 30
0.0
 11
233.5502449303
 21
379.3890079988
 31
0.0
  0
LINE
  5
114
330
45
100
AcDbEntity
  8
0
  6
Continuous
 62
     7
100
AcDbLine
 10
233.5502449303
 20
399.6890079988
 30
0.0
 11
233.5502449303
 21
379.3890079988
 31
0.0
  0
LINE
  5
115
330
45
100
AcDbEntity
  8
0
  6
Continuous
 62
     7
100
AcDbLine
 10
222.9001479913
 20
408.3890070448
 30
0.0
 11
222.9001479913
 21
442.9890734988
 31
0.0
  0
LINE
  5
116
330
45
100
AcDbEntity
  8
0
  6
Continuous
 62
     7
100
AcDbLine
 10
220.6001479913
 20
408.3890070448
 30
0.0
 11
220.6001479913
 21
442.9890734988
 31
0.0
  0
LINE
  5
117
330
45
100
AcDbEntity
  8
0
  6
Continuous
 62
     7
100
AcDbLine
 10
221.5211945454
 20
408.3890079988
 30
0.0
 11
221.9791014371
 21
408.3890079988
 31
0.0
  0
LINE
  5
118
330
45
100
AcDbEntity
  8
0
  6
Continuous
 62
     7
100
AcDbLine
 10
204.6143162334
 20
408.3890070448
 30
0.0
 11
207.8737258394
 21
442.9890734988
 31
0.0
  0
LINE
  5
119
330
45
100
AcDbEntity
  8
0
  6
Continuous
 62
     7
100
AcDbLine
 10
203.2823494868
 20
408.3890079988
 30
0.0
 11
203.7246535795
 21
408.3890079988
 31
0.0
  0
LINE
  5
11A
330
45
100
AcDbEntity
  8
0
  6
Continuous
 62
     7
100
AcDbLine
 10
238.8859797491
 20
408.3890070448
 30
0.0
 11
235.6265701431
 21
442.9890734988
 31
0.0
  0
LINE
  5
11B
330
45
100
AcDbEntity
  8
0
  6
Continuous
 62
     7
100
AcDbLine
 10
239.775642403
 20
408.3890079988
 30
0.0
 11
240.2179464957
 21
408.3890079988
 31
0.0
  0
LINE
  5
11C
330
45
100
AcDbEntity
  8
0
  6
Continuous
 62
     7
100
AcDbLine
 10
187.4962630915
 20
408.3890070448
 30
0.0
 11
193.7929589253
 21
442.9890734988
 31
0.0
  0
LINE
  5
11D
330
45
100
AcDbEntity
  8
0
  6
Continuous
 62
     7
100
AcDbLine
 10
186.3020543768
 20
408.3890079988
 30
0.0
 11
186.6986133775
 21
408.3890079988
 31
0.0
  0
LINE
  5
11E
330
45
100
AcDbEntity
  8
0
  6
Continuous
 62
     7
100
AcDbLine
 10
256.004032891
 20
408.3890070448
 30
0.0
 11
249.7073370572
 21
442.9890734988
 31
0.0
  0
LINE
  5
11F
330
45
100
AcDbEntity
  8
0
  6
Continuous
 62
     7
100
AcDbLine
 10
256.801682605
 20
408.3890079988
 30
0.0
 11
257.1982416057
 21
408.3890079988
 31
0.0
  0
LINE
  5
120
330
45
100
AcDbEntity
  8
0
  6
Continuous
 62
     7
100
AcDbLine
 10
222.900147991331
 20
447.709251148537
 30
0.0
 11
222.9001479913
 21
468.5890139988
 31
0.0
  0
LINE
  5
121
330
45
100
AcDbEntity
  8
0
  6
Continuous
 62
     7
100
AcDbLine
 10
220.600147991272
 20
447.709251148537
 30
0.0
 11
220.6001479913
 21
468.5890139988
 31
0.0
  0
LINE
  5
122
330
45
100
AcDbEntity
  8
0
  6
Continuous
 62
     7
100
AcDbLine
 10
208.318377943988
 20
447.709251148558
 30
0.0
 11
210.2853019007
 21
468.5890139988
 31
0.0
  0
LINE
  5
123
330
45
100
AcDbEntity
  8
0
  6
Continuous
 62
     7
100
AcDbLine
 10
235.181918038614
 20
447.709251148558
 30
0.0
 11
233.2149940818
 21
468.5890139988
 31
0.0
  0
LINE
  5
124
330
45
100
AcDbEntity
  8
0
  6
Continuous
 62
     7
100
AcDbLine
 10
202.3926868329
 20
408.3890070448
 30
0.0
 11
205.6520964389
 21
442.9890734988
 31
0.0
  0
LINE
  5
125
330
45
100
AcDbEntity
  8
0
  6
Continuous
 62
     7
100
AcDbLine
 10
206.0967485437
 20
447.7092511485
 30
0.0
 11
208.0636725002
 21
468.5890139988
 31
0.0
  0
LINE
  5
126
330
45
100
AcDbEntity
  8
0
  6
Continuous
 62
     7
100
AcDbLine
 10
202.0756440456
 20
448.295779923
 30
0.0
 11
203.9873159541
 21
468.5890139988
 31
0.0
  0
LINE
  5
127
330
45
100
AcDbEntity
  8
0
  6
Continuous
 62
     7
100
AcDbLine
 10
198.4881850122
 20
410.2133319988
 30
0.0
 11
201.5757394193
 21
442.9890734988
 31
0.0
  0
LINE
  5
128
330
45
100
AcDbEntity
  8
0
  6
Continuous
 62
     7
100
AcDbLine
 10
199.3144821546
 20
408.3890079988
 30
0.0
 11
198.4881850122
 21
410.2133319988
 31
0.0
  0
LINE
  5
129
330
45
100
AcDbEntity
  8
0
  6
Continuous
 62
     7
100
AcDbLine
 10
241.1076091496
 20
408.3890070448
 30
0.0
 11
237.8481995436
 21
442.9890734988
 31
0.0
  0
LINE
  5
12A
330
45
100
AcDbEntity
  8
0
  6
Continuous
 62
     7
100
AcDbLine
 10
244.1858138279
 20
408.3890079988
 30
0.0
 11
245.0121109703
 21
410.2133319988
 31
0.0
  0
LINE
  5
12B
330
45
100
AcDbEntity
  8
0
  6
Continuous
 62
     7
100
AcDbLine
 10
241.4246519369
 20
448.295779923
 30
0.0
 11
239.5129800284
 21
468.5890139988
 31
0.0
  0
LINE
  5
12C
330
45
100
AcDbEntity
  8
0
  6
Continuous
 62
     7
100
AcDbLine
 10
245.0121109703
 20
410.2133319988
 30
0.0
 11
241.9245565632
 21
442.9890734988
 31
0.0
  0
LINE
  5
12D
330
45
100
AcDbEntity
  8
0
  6
Continuous
 62
     7
100
AcDbLine
 10
237.403547438939
 20
447.709251148543
 30
0.0
 11
235.4366234823
 21
468.5890139988
 31
0.0
  0
LINE
  5
12E
330
45
100
AcDbEntity
  8
0
  6
Continuous
 62
     7
100
AcDbLine
 10
172.7125555983
 20
408.3890070448
 30
0.0
 11
181.6174282446
 21
442.9890734988
 31
0.0
  0
LINE
  5
12F
330
45
100
AcDbEntity
  8
0
  6
Continuous
 62
     7
100
AcDbLine
 10
171.7374882658
 20
408.3890079988
 30
0.0
 11
172.0612773341
 21
408.3890079988
 31
0.0
  0
LINE
  5
130
330
45
100
AcDbEntity
  8
0
  6
Continuous
 62
     7
100
AcDbLine
 10
270.7877403842
 20
408.3890070448
 30
0.0
 11
261.8828677379
 21
442.9890734988
 31
0.0
  0
LINE
  5
131
330
45
100
AcDbEntity
  8
0
  6
Continuous
 62
     7
100
AcDbLine
 10
271.4390186485
 20
408.3890079988
 30
0.0
 11
271.7628077167
 21
408.3890079988
 31
0.0
  0
LINE
  5
132
330
45
100
AcDbEntity
  8
0
  6
Continuous
 62
     7
100
AcDbLine
 10
194.651960828788
 20
447.709251148526
 30
0.0
 11
198.4517661246
 21
468.5890139988
 31
0.0
  0
LINE
  5
133
330
45
100
AcDbEntity
  8
0
  6
Continuous
 62
     7
100
AcDbLine
 10
248.848335153815
 20
447.709251148526
 30
0.0
 11
245.0485298579
 21
468.5890139988
 31
0.0
  0
LINE
  5
134
330
45
100
AcDbEntity
  8
0
  6
Continuous
 62
     7
100
AcDbLine
 10
185.5044046628
 20
408.3890070448
 30
0.0
 11
191.8011004966
 21
442.9890734988
 31
0.0
  0
LINE
  5
135
330
45
100
AcDbEntity
  8
0
  6
Continuous
 62
     7
100
AcDbLine
 10
192.6601024
 20
447.7092511485
 30
0.0
 11
196.4599076959
 21
468.5890139988
 31
0.0
  0
LINE
  5
136
330
45
100
AcDbEntity
  8
0
  6
Continuous
 62
     7
100
AcDbLine
 10
184.8919250302
 20
448.295779923
 30
0.0
 11
188.5849915658
 21
468.5890139988
 31
0.0
  0
LINE
  5
137
330
45
100
AcDbEntity
  8
0
  6
Continuous
 62
     7
100
AcDbLine
 10
177.961486368
 20
410.2133319988
 30
0.0
 11
183.9261834517
 21
442.9890734988
 31
0.0
  0
LINE
  5
138
330
45
100
AcDbEntity
  8
0
  6
Continuous
 62
     7
100
AcDbLine
 10
179.557769868
 20
408.3890079988
 30
0.0
 11
177.961486368
 21
410.2133319988
 31
0.0
  0
LINE
  5
139
330
45
100
AcDbEntity
  8
0
  6
Continuous
 62
     7
100
AcDbLine
 10
257.9958913197
 20
408.3890070448
 30
0.0
 11
251.6991954859
 21
442.9890734988
 31
0.0
  0
LINE
  5
13A
330
45
100
AcDbEntity
  8
0
  6
Continuous
 62
     7
100
AcDbLine
 10
263.9425261145
 20
408.3890079988
 30
0.0
 11
265.5388096145
 21
410.2133319988
 31
0.0
  0
LINE
  5
13B
330
45
100
AcDbEntity
  8
0
  6
Continuous
 62
     7
100
AcDbLine
 10
258.6083709523
 20
448.295779923
 30
0.0
 11
254.9153044167
 21
468.5890139988
 31
0.0
  0
LINE
  5
13C
330
45
100
AcDbEntity
  8
0
  6
Continuous
 62
     7
100
AcDbLine
 10
265.5388096145
 20
410.2133319988
 30
0.0
 11
259.5741125308
 21
442.9890734988
 31
0.0
  0
LINE
  5
13D
330
45
100
AcDbEntity
  8
0
  6
Continuous
 62
     7
100
AcDbLine
 10
250.840193582546
 20
447.709251148531
 30
0.0
 11
247.0403882866
 21
468.5890139988
 31
0.0
  0
LINE
  5
13E
330
45
100
AcDbEntity
  8
0
  6
Continuous
 62
     7
100
AcDbLine
 10
182.832240386897
 20
447.709251148438
 30
0.0
 11
188.2059765703
 21
468.5890139988
 31
0.0
  0
LINE
  5
13F
330
45
100
AcDbEntity
  8
0
  6
Continuous
 62
     7
100
AcDbLine
 10
260.668055595706
 20
447.709251148438
 30
0.0
 11
255.2943194122
 21
468.5890139988
 31
0.0
  0
LINE
  5
140
330
45
100
AcDbEntity
  8
0
  6
Continuous
 62
     7
100
AcDbLine
 10
161.2706789882
 20
408.3890070448
 30
0.0
 11
172.1768760922
 21
442.9890734988
 31
0.0
  0
LINE
  5
141
330
45
100
AcDbEntity
  8
0
  6
Continuous
 62
     7
100
AcDbLine
 10
160.5812022653
 20
408.3890079988
 30
0.0
 11
160.8101557112
 21
408.3890079988
 31
0.0
  0
LINE
  5
142
330
45
100
AcDbEntity
  8
0
  6
Continuous
 62
     7
100
AcDbLine
 10
282.2296169943
 20
408.3890070448
 30
0.0
 11
271.3234198903
 21
442.9890734988
 31
0.0
  0
LINE
  5
143
330
45
100
AcDbEntity
  8
0
  6
Continuous
 62
     7
100
AcDbLine
 10
282.6901402714
 20
408.3890079988
 30
0.0
 11
282.9190937172
 21
408.3890079988
 31
0.0
  0
LINE
  5
144
330
45
100
AcDbEntity
  8
0
  6
Continuous
 62
     7
100
AcDbLine
 10
173.66471103231
 20
447.709251148671
 30
0.0
 11
180.246166864
 21
468.5890139988
 31
0.0
  0
LINE
  5
145
330
45
100
AcDbEntity
  8
0
  6
Continuous
 62
     7
100
AcDbLine
 10
269.835584950293
 20
447.709251148671
 30
0.0
 11
263.2541291185
 21
468.5890139988
 31
0.0
  0
LINE
  5
146
330
45
100
AcDbEntity
  8
0
  6
Continuous
 62
     7
100
AcDbLine
 10
160.1206789882
 20
408.3890070448
 30
0.0
 11
171.0268760922
 21
442.9890734988
 31
0.0
  0
LINE
  5
147
330
45
100
AcDbEntity
  8
0
  6
Continuous
 62
     7
100
AcDbLine
 10
172.5147110327
 20
447.7092511485
 30
0.0
 11
179.096166864
 21
468.5890139988
 31
0.0
  0
LINE
  5
148
330
45
100
AcDbEntity
  8
0
  6
Continuous
 62
     7
100
AcDbLine
 10
283.3796169943
 20
408.3890070448
 30
0.0
 11
272.4734198903
 21
442.9890734988
 31
0.0
  0
LINE
  5
149
330
45
100
AcDbEntity
  8
0
  6
Continuous
 62
     7
100
AcDbLine
 10
270.985584950065
 20
447.709251148597
 30
0.0
 11
264.4041291185
 21
468.5890139988
 31
0.0
  0
LINE
  5
14A
330
45
100
AcDbEntity
  8
0
  6
Continuous
 62
     7
100
AcDbLine
 10
153.9503782437
 20
408.3890070448
 30
0.0
 11
166.114660496
 21
442.9890734988
 31
0.0
  0
LINE
  5
14B
330
45
100
AcDbEntity
  8
0
  6
Continuous
 62
     7
100
AcDbLine
 10
153.5934788296
 20
408.3890079988
 30
0.0
 11
153.711993854
 21
408.3890079988
 31
0.0
  0
LINE
  5
14C
330
45
100
AcDbEntity
  8
0
  6
Continuous
 62
     7
100
AcDbLine
 10
289.5499177388
 20
408.3890070448
 30
0.0
 11
277.3856354865
 21
442.9890734988
 31
0.0
  0
LINE
  5
14D
330
45
100
AcDbEntity
  8
0
  6
Continuous
 62
     7
100
AcDbLine
 10
289.7883021285
 20
408.3890079988
 30
0.0
 11
289.9068171529
 21
408.3890079988
 31
0.0
  0
LINE
  5
14E
330
45
100
AcDbEntity
  8
0
  6
Continuous
 62
     7
100
AcDbLine
 10
151.7375940296
 20
391.6890079988
 30
0.0
 11
152.1042053638
 21
391.6890079988
 31
0.0
  0
LINE
  5
14F
330
45
100
AcDbEntity
  8
0
  6
Continuous
 62
     7
100
AcDbLine
 10
291.3961132967
 20
391.6890079988
 30
0.0
 11
291.7627212426
 21
391.6890079988
 31
0.0
  0
LINE
  5
150
330
45
100
AcDbEntity
  8
0
  6
Continuous
 62
     7
100
AcDbLine
 10
235.5502449303
 20
391.6890079988
 30
0.0
 11
235.5502449303
 21
399.6890079988
 31
0.0
  0
LINE
  5
151
330
45
100
AcDbEntity
  8
0
  6
Continuous
 62
     7
100
AcDbLine
 10
235.5502449303
 20
391.6890079988
 30
0.0
 11
291.3961132967
 21
391.6890079988
 31
0.0
  0
LINE
  5
152
330
45
100
AcDbEntity
  8
0
  6
Continuous
 62
     7
100
AcDbLine
 10
291.3961132967
 20
399.6890079988
 30
0.0
 11
291.3961132967
 21
391.6890079988
 31
0.0
  0
LINE
  5
153
330
45
100
AcDbEntity
  8
0
  6
Continuous
 62
     7
100
AcDbLine
 10
152.1042053638
 20
391.6890079988
 30
0.0
 11
152.1042053638
 21
399.6890079988
 31
0.0
  0
LINE
  5
154
330
45
100
AcDbEntity
  8
0
  6
Continuous
 62
     7
100
AcDbLine
 10
152.1042053638
 20
391.6890079988
 30
0.0
 11
207.9501655031
 21
391.6890079988
 31
0.0
  0
LINE
  5
155
330
45
100
AcDbEntity
  8
0
  6
Continuous
 62
     7
100
AcDbLine
 10
207.9501655031
 20
399.6890079988
 30
0.0
 11
207.9501655031
 21
391.6890079988
 31
0.0
  0
LINE
  5
156
330
45
100
AcDbEntity
  8
0
  6
Continuous
 62
     7
100
AcDbLine
 10
167.774124742768
 20
447.709251148511
 30
0.0
 11
175.114784883
 21
468.5890139988
 31
0.0
  0
LINE
  5
157
330
45
100
AcDbEntity
  8
0
  6
Continuous
 62
     7
100
AcDbLine
 10
275.726171239834
 20
447.70925114851
 30
0.0
 11
268.3855110995
 21
468.5890139988
 31
0.0
  0
LINE
  5
158
330
45
100
AcDbEntity
  8
0
  6
Continuous
 62
     7
100
AcDbLine
 10
290.1452015426
 20
408.3890070448
 30
0.0
 11
277.9809192902
 21
442.9890734988
 31
0.0
  0
LINE
  5
159
330
45
100
AcDbEntity
  8
0
  6
Continuous
 62
     7
100
AcDbLine
 10
297.7682273169
 20
391.6890079988
 30
0.0
 11
295.6501479913
 21
391.6890079988
 31
0.0
  0
LINE
  5
15A
330
45
100
AcDbEntity
  8
0
  6
Continuous
 62
     7
100
AcDbLine
 10
297.7682273169
 20
391.6890079988
 30
0.0
 11
297.7682273169
 21
408.3890079988
 31
0.0
  0
LINE
  5
15B
330
45
100
AcDbEntity
  8
0
  6
Continuous
 62
     7
100
AcDbLine
 10
276.321455043632
 20
447.709251148532
 30
0.0
 11
268.9807949032
 21
468.5890139988
 31
0.0
  0
LINE
  5
15C
330
45
100
AcDbEntity
  8
0
  6
Continuous
 62
     7
100
AcDbLine
 10
153.35509444
 20
408.3890070448
 30
0.0
 11
165.5193766923
 21
442.9890734988
 31
0.0
  0
LINE
  5
15D
330
45
100
AcDbEntity
  8
0
  6
Continuous
 62
     7
100
AcDbLine
 10
167.1788409389
 20
447.7092511485
 30
0.0
 11
174.5195010793
 21
468.5890139988
 31
0.0
  0
LINE
  5
15E
330
45
100
AcDbEntity
  8
0
  6
Continuous
 62
     7
100
AcDbLine
 10
145.7320686656
 20
391.6890079988
 30
0.0
 11
145.7320686656
 21
408.3890079988
 31
0.0
  0
LINE
  5
15F
330
45
100
AcDbEntity
  8
0
  6
Continuous
 62
     7
100
AcDbLine
 10
147.8501479913
 20
391.6890079988
 30
0.0
 11
145.7320686656
 21
391.6890079988
 31
0.0
  0
LINE
  5
160
330
45
100
AcDbEntity
  8
0
  6
Continuous
 62
     7
100
AcDbLine
 10
171.0862100016
 20
408.3890070448
 30
0.0
 11
179.9910826479
 21
442.9890734988
 31
0.0
  0
LINE
  5
161
330
45
100
AcDbEntity
  8
0
  6
Continuous
 62
     7
100
AcDbLine
 10
181.2058947898
 20
447.7092511485
 30
0.0
 11
186.5796309736
 21
468.5890139988
 31
0.0
  0
LINE
  5
162
330
45
100
AcDbEntity
  8
0
  6
Continuous
 62
     7
100
AcDbLine
 10
162.6763984243
 20
408.3890079988
 30
0.0
 11
161.556058939
 21
409.2943790243
 31
0.0
  0
LINE
  5
163
330
45
100
AcDbEntity
  8
0
  6
Continuous
 62
     7
100
AcDbLine
 10
272.4140859809
 20
408.3890070448
 30
0.0
 11
263.5092133346
 21
442.9890734988
 31
0.0
  0
LINE
  5
164
330
45
100
AcDbEntity
  8
0
  6
Continuous
 62
     7
100
AcDbLine
 10
280.8238975582
 20
408.3890079988
 30
0.0
 11
281.9442370435
 21
409.2943790243
 31
0.0
  0
LINE
  5
165
330
45
100
AcDbEntity
  8
0
  6
Continuous
 62
     7
100
AcDbLine
 10
262.294401192605
 20
447.709251148485
 30
0.0
 11
256.9206650089
 21
468.5890139988
 31
0.0
  0
LINE
  5
166
330
45
100
AcDbEntity
  8
0
  6
Continuous
 62
     7
100
AcDbLine
 10
244.8563200827
 20
483.4890139988
 30
0.0
 11
245.2476090827
 21
483.4890139988
 31
0.0
  0
LINE
  5
167
330
45
100
AcDbEntity
  8
0
  6
Continuous
 62
     7
100
AcDbLine
 10
243.4650695827
 20
483.4890139988
 30
0.0
 11
243.8563585827
 21
483.4890139988
 31
0.0
  0
LINE
  5
168
330
45
100
AcDbEntity
  8
0
  6
Continuous
 62
     7
100
AcDbLine
 10
234.8256595827
 20
483.4890139988
 30
0.0
 11
234.3784665827
 21
483.4890139988
 31
0.0
  0
LINE
  5
169
330
45
100
AcDbEntity
  8
0
  6
Continuous
 62
     7
100
AcDbLine
 10
245.2476090827
 20
483.4890139988
 30
0.0
 11
245.3345620827
 21
483.4890139988
 31
0.0
  0
LINE
  5
16A
330
45
100
AcDbEntity
  8
0
  6
Continuous
 62
     7
100
AcDbLine
 10
245.2476090827
 20
483.4890139988
 30
0.0
 11
245.2476090827
 21
483.3890139988
 31
0.0
  0
LINE
  5
16B
330
45
100
AcDbEntity
  8
0
  6
Continuous
 62
     7
100
AcDbLine
 10
243.3781165827
 20
483.4890139988
 30
0.0
 11
243.4650695827
 21
483.4890139988
 31
0.0
  0
LINE
  5
16C
330
45
100
AcDbEntity
  8
0
  6
Continuous
 62
     7
100
AcDbLine
 10
243.4650695827
 20
483.4890139988
 30
0.0
 11
243.4650695827
 21
483.3890139988
 31
0.0
  0
LINE
  5
16D
330
45
100
AcDbEntity
  8
0
  6
Continuous
 62
     7
100
AcDbLine
 10
243.8563585827
 20
483.4890139988
 30
0.0
 11
243.9433115827
 21
483.4890139988
 31
0.0
  0
LINE
  5
16E
330
45
100
AcDbEntity
  8
0
  6
Continuous
 62
     7
100
AcDbLine
 10
243.8563585827
 20
483.4890139988
 30
0.0
 11
243.8563585827
 21
483.3890139988
 31
0.0
  0
LINE
  5
16F
330
45
100
AcDbEntity
  8
0
  6
Continuous
 62
     7
100
AcDbLine
 10
244.7693665827
 20
483.4890139988
 30
0.0
 11
244.8563200827
 21
483.4890139988
 31
0.0
  0
LINE
  5
170
330
45
100
AcDbEntity
  8
0
  6
Continuous
 62
     7
100
AcDbLine
 10
244.8563200827
 20
483.4890139988
 30
0.0
 11
244.8563200827
 21
483.3890139988
 31
0.0
  0
LINE
  5
171
330
45
100
AcDbEntity
  8
0
  6
Continuous
 62
     7
100
AcDbLine
 10
234.9560890827
 20
483.4890139988
 30
0.0
 11
234.8256595827
 21
483.4890139988
 31
0.0
  0
LINE
  5
172
330
45
100
AcDbEntity
  8
0
  6
Continuous
 62
     7
100
AcDbLine
 10
234.8256595827
 20
483.4890139988
 30
0.0
 11
234.8256595827
 21
483.3890139988
 31
0.0
  0
LINE
  5
173
330
45
100
AcDbEntity
  8
0
  6
Continuous
 62
     7
100
AcDbLine
 10
277.9501479913
 20
442.9890734988
 30
0.0
 11
165.5501479913
 21
442.9890734988
 31
0.0
  0
LINE
  5
174
330
45
100
AcDbEntity
  8
0
  6
Continuous
 62
     7
100
AcDbLine
 10
277.7249017741
 20
448.295779923
 30
0.0
 11
276.3214550436
 21
448.295779923
 31
0.0
  0
LINE
  5
175
330
45
100
AcDbEntity
  8
0
  6
Continuous
 62
     7
100
AcDbLine
 10
276.3214550436
 20
448.295779923
 30
0.0
 11
276.321455043632
 21
447.709251148532
 31
0.0
  0
LINE
  5
176
330
45
100
AcDbEntity
  8
0
  6
Continuous
 62
     7
100
AcDbLine
 10
275.5199663885
 20
448.295779923
 30
0.0
 11
270.9855849498
 21
448.295779923
 31
0.0
  0
LINE
  5
177
330
45
100
AcDbEntity
  8
0
  6
Continuous
 62
     7
100
AcDbLine
 10
270.9855849498
 20
448.295779923
 30
0.0
 11
270.985584950065
 21
447.709251148597
 31
0.0
  0
LINE
  5
178
330
45
100
AcDbEntity
  8
0
  6
Continuous
 62
     7
100
AcDbLine
 10
269.6507067378
 20
448.295779923
 30
0.0
 11
262.2944011927
 21
448.295779923
 31
0.0
  0
LINE
  5
179
330
45
100
AcDbEntity
  8
0
  6
Continuous
 62
     7
100
AcDbLine
 10
262.2944011927
 20
448.295779923
 30
0.0
 11
262.294401192605
 21
447.709251148485
 31
0.0
  0
LINE
  5
17A
330
45
100
AcDbEntity
  8
0
  6
Continuous
 62
     7
100
AcDbLine
 10
260.517103168
 20
448.295779923
 30
0.0
 11
250.8401935825
 21
448.295779923
 31
0.0
  0
LINE
  5
17B
330
45
100
AcDbEntity
  8
0
  6
Continuous
 62
     7
100
AcDbLine
 10
250.8401935825
 20
448.295779923
 30
0.0
 11
250.840193582546
 21
447.709251148531
 31
0.0
  0
LINE
  5
17C
330
45
100
AcDbEntity
  8
0
  6
Continuous
 62
     7
100
AcDbLine
 10
248.8483351538
 20
448.295779923
 30
0.0
 11
237.4035474388
 21
448.295779923
 31
0.0
  0
LINE
  5
17D
330
45
100
AcDbEntity
  8
0
  6
Continuous
 62
     7
100
AcDbLine
 10
237.4035474388
 20
448.295779923
 30
0.0
 11
237.403547438939
 21
447.709251148543
 31
0.0
  0
LINE
  5
17E
330
45
100
AcDbEntity
  8
0
  6
Continuous
 62
     7
100
AcDbLine
 10
235.1819180384
 20
448.295779923
 30
0.0
 11
222.9001479913
 21
448.295779923
 31
0.0
  0
LINE
  5
17F
330
45
100
AcDbEntity
  8
0
  6
Continuous
 62
     7
100
AcDbLine
 10
220.6001479913
 20
448.295779923
 30
0.0
 11
208.3183779441
 21
448.295779923
 31
0.0
  0
LINE
  5
180
330
45
100
AcDbEntity
  8
0
  6
Continuous
 62
     7
100
AcDbLine
 10
206.0967485437
 20
448.295779923
 30
0.0
 11
206.0967485437
 21
447.7092511485
 31
0.0
  0
LINE
  5
181
330
45
100
AcDbEntity
  8
0
  6
Continuous
 62
     7
100
AcDbLine
 10
206.0967485437
 20
448.295779923
 30
0.0
 11
194.6519608287
 21
448.295779923
 31
0.0
  0
LINE
  5
182
330
45
100
AcDbEntity
  8
0
  6
Continuous
 62
     7
100
AcDbLine
 10
192.6601024
 20
448.295779923
 30
0.0
 11
192.6601024
 21
447.7092511485
 31
0.0
  0
LINE
  5
183
330
45
100
AcDbEntity
  8
0
  6
Continuous
 62
     7
100
AcDbLine
 10
192.6601024
 20
448.295779923
 30
0.0
 11
182.9831928145
 21
448.295779923
 31
0.0
  0
LINE
  5
184
330
45
100
AcDbEntity
  8
0
  6
Continuous
 62
     7
100
AcDbLine
 10
181.2058947898
 20
448.295779923
 30
0.0
 11
181.2058947898
 21
447.7092511485
 31
0.0
  0
LINE
  5
185
330
45
100
AcDbEntity
  8
0
  6
Continuous
 62
     7
100
AcDbLine
 10
181.2058947898
 20
448.295779923
 30
0.0
 11
173.8495892447
 21
448.295779923
 31
0.0
  0
LINE
  5
186
330
45
100
AcDbEntity
  8
0
  6
Continuous
 62
     7
100
AcDbLine
 10
172.5147110327
 20
448.295779923
 30
0.0
 11
172.5147110327
 21
447.7092511485
 31
0.0
  0
LINE
  5
187
330
45
100
AcDbEntity
  8
0
  6
Continuous
 62
     7
100
AcDbLine
 10
172.5147110327
 20
448.295779923
 30
0.0
 11
167.9803295941
 21
448.295779923
 31
0.0
  0
LINE
  5
188
330
45
100
AcDbEntity
  8
0
  6
Continuous
 62
     7
100
AcDbLine
 10
167.1788409389
 20
448.295779923
 30
0.0
 11
167.1788409389
 21
447.7092511485
 31
0.0
  0
LINE
  5
189
330
45
100
AcDbEntity
  8
0
  6
Continuous
 62
     7
100
AcDbLine
 10
167.1788409389
 20
448.295779923
 30
0.0
 11
165.7753942084
 21
448.295779923
 31
0.0
  0
LINE
  5
18A
330
45
100
AcDbEntity
  8
0
  6
Continuous
 62
     7
100
AcDbLine
 10
246.1171397764
 20
483.4890139988
 30
0.0
 11
245.3345620827
 21
483.4890139988
 31
0.0
  0
LINE
  5
18B
330
45
100
AcDbEntity
  8
0
  6
Continuous
 62
     7
100
AcDbLine
 10
243.3781165827
 20
483.4890139988
 30
0.0
 11
242.5955385827
 21
483.4890139988
 31
0.0
  0
LINE
  5
18C
330
45
100
AcDbEntity
  8
0
  6
Continuous
 62
     7
100
AcDbLine
 10
244.7693665827
 20
483.4890139988
 30
0.0
 11
243.9433118852
 21
483.4890139988
 31
0.0
  0
LINE
  5
18D
330
45
100
AcDbEntity
  8
0
  6
Continuous
 62
     7
100
AcDbLine
 10
173.3015660875
 20
468.5890139988
 30
0.0
 11
173.3015660875
 21
468.9737715266
 31
0.0
  0
LINE
  5
18E
330
45
100
AcDbEntity
  8
0
  6
Continuous
 62
     7
100
AcDbLine
 10
173.3015660875
 20
468.9737715266
 30
0.0
 11
165.5501479913
 21
447.6769208986
 31
0.0
  0
LINE
  5
18F
330
45
100
AcDbEntity
  8
0
  6
Continuous
 62
     7
100
AcDbLine
 10
251.1792300335
 20
483.4890139988
 30
0.0
 11
248.8561635148
 21
483.4890139988
 31
0.0
  0
LINE
  5
190
330
45
100
AcDbEntity
  8
0
  6
Continuous
 62
     7
100
AcDbLine
 10
173.3015660875
 20
483.3890139988
 30
0.0
 11
233.5524125827
 21
483.3890139988
 31
0.0
  0
LINE
  5
191
330
45
100
AcDbEntity
  8
0
  6
Continuous
 62
     7
100
AcDbLine
 10
235.6951905827
 20
483.3890139988
 30
0.0
 11
236.0740535827
 21
483.3890139988
 31
0.0
  0
LINE
  5
192
330
45
100
AcDbEntity
  8
0
  6
Continuous
 62
     7
100
AcDbLine
 10
238.4217870827
 20
483.3890139988
 30
0.0
 11
238.8565535827
 21
483.3890139988
 31
0.0
  0
LINE
  5
193
330
45
100
AcDbEntity
  8
0
  6
Continuous
 62
     7
100
AcDbLine
 10
239.6391315827
 20
483.3890139988
 30
0.0
 11
240.7260455827
 21
483.3890139988
 31
0.0
  0
LINE
  5
194
330
45
100
AcDbEntity
  8
0
  6
Continuous
 62
     7
100
AcDbLine
 10
241.5086245827
 20
483.3890139988
 30
0.0
 11
242.5955385827
 21
483.3890139988
 31
0.0
  0
LINE
  5
195
330
45
100
AcDbEntity
  8
0
  6
Continuous
 62
     7
100
AcDbLine
 10
246.1171397764
 20
483.3890139988
 30
0.0
 11
246.4649535827
 21
483.3890139988
 31
0.0
  0
LINE
  5
196
330
45
100
AcDbEntity
  8
0
  6
Continuous
 62
     7
100
AcDbLine
 10
248.3779225827
 20
483.3890139988
 30
0.0
 11
248.8561635148
 21
483.3890139988
 31
0.0
  0
LINE
  5
197
330
45
100
AcDbEntity
  8
0
  6
Continuous
 62
     7
100
AcDbLine
 10
251.1792300335
 20
483.3890139988
 30
0.0
 11
270.198729895
 21
483.3890139988
 31
0.0
  0
LINE
  5
198
330
45
100
AcDbEntity
  8
0
  6
Continuous
 62
     7
100
AcDbLine
 10
292.2497762195
 20
408.3890079988
 30
0.0
 11
279.6563845519
 21
442.9890734988
 31
0.0
  0
LINE
  5
199
330
45
100
AcDbEntity
  8
0
  6
Continuous
 62
     7
100
AcDbLine
 10
147.3501479913
 20
379.3890079988
 30
0.0
 11
150.7501479913
 21
379.3890079988
 31
0.0
  0
LINE
  5
19A
330
45
100
AcDbEntity
  8
0
  6
Continuous
 62
     7
100
AcDbLine
 10
277.9501479913
 20
447.6769208986
 30
0.0
 11
270.198729895
 21
468.9737715266
 31
0.0
  0
LINE
  5
19B
330
45
100
AcDbEntity
  8
0
  6
Continuous
 62
     7
100
AcDbLine
 10
150.7501479913
 20
400.6890079988
 30
0.0
 11
151.2501479913
 21
400.6890079988
 31
0.0
  0
LINE
  5
19C
330
45
100
AcDbEntity
  8
0
  6
Continuous
 62
     7
100
AcDbLine
 10
292.2501479913
 20
400.6890079988
 30
0.0
 11
292.7501479913
 21
400.6890079988
 31
0.0
  0
LINE
  5
19D
330
45
100
AcDbEntity
  8
0
  6
Continuous
 62
     7
100
AcDbLine
 10
270.198729895
 20
468.9737715266
 30
0.0
 11
270.198729895
 21
468.5890139988
 31
0.0
  0
LINE
  5
19E
330
45
100
AcDbEntity
  8
0
  6
Continuous
 62
     7
100
AcDbLine
 10
147.3501479913
 20
381.3890079988
 30
0.0
 11
147.8501479913
 21
381.3890079988
 31
0.0
  0
LINE
  5
19F
330
45
100
AcDbEntity
  8
0
  6
Continuous
 62
     7
100
AcDbLine
 10
243.3781165827
 20
483.4890139988
 30
0.0
 11
243.3781165827
 21
483.3890139988
 31
0.0
  0
LINE
  5
1A0
330
45
100
AcDbEntity
  8
0
  6
Continuous
 62
     7
100
AcDbLine
 10
236.0740535827
 20
483.3890139988
 30
0.0
 11
236.0740535827
 21
483.4890139988
 31
0.0
  0
LINE
  5
1A1
330
45
100
AcDbEntity
  8
0
  6
Continuous
 62
     7
100
AcDbLine
 10
304.1430458091
 20
408.3890079988
 30
0.0
 11
295.6501479913
 21
408.3890079988
 31
0.0
  0
LINE
  5
1A2
330
45
100
AcDbEntity
  8
0
  6
Continuous
 62
     7
100
AcDbLine
 10
242.5955385827
 20
483.3890139988
 30
0.0
 11
242.5955385827
 21
483.4890139988
 31
0.0
  0
LINE
  5
1A3
330
45
100
AcDbEntity
  8
0
  6
Continuous
 62
     7
100
AcDbLine
 10
295.6501479913
 20
381.3890079988
 30
0.0
 11
296.1501479913
 21
381.3890079988
 31
0.0
  0
LINE
  5
1A4
330
45
100
AcDbEntity
  8
0
  6
Continuous
 62
     7
100
AcDbLine
 10
279.6563845519
 20
442.9890734988
 30
0.0
 11
277.9501479913
 21
442.9890734988
 31
0.0
  0
LINE
  5
1A5
330
45
100
AcDbEntity
  8
0
  6
Continuous
 62
     7
100
AcDbLine
 10
165.5501479913
 20
442.9890734988
 30
0.0
 11
163.8439114306
 21
442.9890734988
 31
0.0
  0
LINE
  5
1A6
330
45
100
AcDbEntity
  8
0
  6
Continuous
 62
     7
100
AcDbLine
 10
304.1430458091
 20
408.3890079988
 30
0.0
 11
307.3356128091
 21
410.2133319988
 31
0.0
  0
LINE
  5
1A7
330
45
100
AcDbEntity
  8
0
  6
Continuous
 62
     7
100
AcDbLine
 10
292.2501479913
 20
408.3890079988
 30
0.0
 11
292.2497762195
 21
408.3890079988
 31
0.0
  0
LINE
  5
1A8
330
45
100
AcDbEntity
  8
0
  6
Continuous
 62
     7
100
AcDbLine
 10
238.4217870827
 20
483.4890139988
 30
0.0
 11
236.0740535827
 21
483.4890139988
 31
0.0
  0
LINE
  5
1A9
330
45
100
AcDbEntity
  8
0
  6
Continuous
 62
     7
100
AcDbLine
 10
238.4217870827
 20
483.4890139988
 30
0.0
 11
238.4217870827
 21
483.3890139988
 31
0.0
  0
LINE
  5
1AA
330
45
100
AcDbEntity
  8
0
  6
Continuous
 62
     7
100
AcDbLine
 10
234.9560890827
 20
483.4890139988
 30
0.0
 11
234.9560890827
 21
483.3890139988
 31
0.0
  0
LINE
  5
1AB
330
45
100
AcDbEntity
  8
0
  6
Continuous
 62
     7
100
AcDbLine
 10
147.8501479913
 20
408.3890079988
 30
0.0
 11
139.3572501734
 21
408.3890079988
 31
0.0
  0
LINE
  5
1AC
330
45
100
AcDbEntity
  8
0
  6
Continuous
 62
     7
100
AcDbLine
 10
159.206176755735
 20
473.5193160938
 30
0.0
 11
136.1646831734
 21
410.2133319988
 31
0.0
  0
LINE
  5
1AD
330
45
100
AcDbEntity
  8
0
  6
Continuous
 62
     7
100
AcDbLine
 10
136.1646831734
 20
410.2133319988
 30
0.0
 11
139.3572501734
 21
408.3890079988
 31
0.0
  0
LINE
  5
1AE
330
45
100
AcDbEntity
  8
0
  6
Continuous
 62
     7
100
AcDbLine
 10
151.250519763
 20
408.3890079988
 30
0.0
 11
151.2501479913
 21
408.3890079988
 31
0.0
  0
LINE
  5
1AF
330
45
100
AcDbEntity
  8
0
  6
Continuous
 62
     7
100
AcDbLine
 10
244.7693665827
 20
483.4890139988
 30
0.0
 11
244.7693665827
 21
483.3890139988
 31
0.0
  0
LINE
  5
1B0
330
45
100
AcDbEntity
  8
0
  6
Continuous
 62
     7
100
AcDbLine
 10
245.3345620827
 20
483.3890139988
 30
0.0
 11
245.3345620827
 21
483.4890139988
 31
0.0
  0
LINE
  5
1B1
330
45
100
AcDbEntity
  8
0
  6
Continuous
 62
     7
100
AcDbLine
 10
246.1171397764
 20
483.4890139988
 30
0.0
 11
246.1171397764
 21
483.3890139988
 31
0.0
  0
LINE
  5
1B2
330
45
100
AcDbEntity
  8
0
  6
Continuous
 62
     7
100
AcDbLine
 10
233.5524125827
 20
483.3890139988
 30
0.0
 11
233.5524125827
 21
483.4890139988
 31
0.0
  0
LINE
  5
1B3
330
45
100
AcDbEntity
  8
0
  6
Continuous
 62
     7
100
AcDbLine
 10
246.4649535827
 20
483.3890139988
 30
0.0
 11
246.4649535827
 21
483.4890139988
 31
0.0
  0
LINE
  5
1B4
330
45
100
AcDbEntity
  8
0
  6
Continuous
 62
     7
100
AcDbLine
 10
248.3779225827
 20
483.4890139988
 30
0.0
 11
248.3779225827
 21
483.3890139988
 31
0.0
  0
LINE
  5
1B5
330
45
100
AcDbEntity
  8
0
  6
Continuous
 62
     7
100
AcDbLine
 10
270.198729895
 20
468.5890139988
 30
0.0
 11
173.3015660875
 21
468.5890139988
 31
0.0
  0
LINE
  5
1B6
330
45
100
AcDbEntity
  8
0
  6
Continuous
 62
     7
100
AcDbLine
 10
234.3784665827
 20
483.3890139988
 30
0.0
 11
234.9560890827
 21
483.3890139988
 31
0.0
  0
LINE
  5
1B7
330
45
100
AcDbEntity
  8
0
  6
Continuous
 62
     7
100
AcDbLine
 10
238.8565535827
 20
483.3890139988
 30
0.0
 11
238.8565535827
 21
483.4890139988
 31
0.0
  0
LINE
  5
1B8
330
45
100
AcDbEntity
  8
0
  6
Continuous
 62
     7
100
AcDbLine
 10
248.8561635148
 20
483.3890139988
 30
0.0
 11
248.8561635148
 21
483.4890139988
 31
0.0
  0
LINE
  5
1B9
330
45
100
AcDbEntity
  8
0
  6
Continuous
 62
     7
100
AcDbLine
 10
241.5086245827
 20
483.4890139988
 30
0.0
 11
241.5086245827
 21
483.3890139988
 31
0.0
  0
LINE
  5
1BA
330
45
100
AcDbEntity
  8
0
  6
Continuous
 62
     7
100
AcDbLine
 10
240.7260455827
 20
483.4890139988
 30
0.0
 11
241.5086245827
 21
483.4890139988
 31
0.0
  0
LINE
  5
1BB
330
45
100
AcDbEntity
  8
0
  6
Continuous
 62
     7
100
AcDbLine
 10
277.9501479913
 20
442.9890734988
 30
0.0
 11
277.9501479913
 21
447.6769208986
 31
0.0
  0
LINE
  5
1BC
330
45
100
AcDbEntity
  8
0
  6
Continuous
 62
     7
100
AcDbLine
 10
292.7501479913
 20
379.3890079988
 30
0.0
 11
296.1501479913
 21
379.3890079988
 31
0.0
  0
LINE
  5
1BD
330
45
100
AcDbEntity
  8
0
  6
Continuous
 62
     7
100
AcDbLine
 10
307.3356128091
 20
410.2133319988
 30
0.0
 11
284.294119226765
 21
473.5193160938
 31
0.0
  0
LINE
  5
1BE
330
45
100
AcDbEntity
  8
0
  6
Continuous
 62
     7
100
AcDbLine
 10
246.4649535827
 20
483.4890139988
 30
0.0
 11
248.3779225827
 21
483.4890139988
 31
0.0
  0
LINE
  5
1BF
330
45
100
AcDbEntity
  8
0
  6
Continuous
 62
     7
100
AcDbLine
 10
244.7693665827
 20
483.3890139988
 30
0.0
 11
245.3345620827
 21
483.3890139988
 31
0.0
  0
LINE
  5
1C0
330
45
100
AcDbEntity
  8
0
  6
Continuous
 62
     7
100
AcDbLine
 10
243.3781165827
 20
483.3890139988
 30
0.0
 11
243.9433120827
 21
483.3890139988
 31
0.0
  0
LINE
  5
1C1
330
45
100
AcDbEntity
  8
0
  6
Continuous
 62
     7
100
AcDbLine
 10
240.7260455827
 20
483.3890139988
 30
0.0
 11
240.7260455827
 21
483.4890139988
 31
0.0
  0
LINE
  5
1C2
330
45
100
AcDbEntity
  8
0
  6
Continuous
 62
     7
100
AcDbLine
 10
239.6391315827
 20
483.4890139988
 30
0.0
 11
239.6391315827
 21
483.3890139988
 31
0.0
  0
LINE
  5
1C3
330
45
100
AcDbEntity
  8
0
  6
Continuous
 62
     7
100
AcDbLine
 10
238.8565535827
 20
483.4890139988
 30
0.0
 11
239.6391315827
 21
483.4890139988
 31
0.0
  0
LINE
  5
1C4
330
45
100
AcDbEntity
  8
0
  6
Continuous
 62
     7
100
AcDbLine
 10
235.6951905827
 20
483.4890139988
 30
0.0
 11
235.6951905827
 21
483.3890139988
 31
0.0
  0
LINE
  5
1C5
330
45
100
AcDbEntity
  8
0
  6
Continuous
 62
     7
100
AcDbLine
 10
235.6951905827
 20
483.4890139988
 30
0.0
 11
234.9560890827
 21
483.4890139988
 31
0.0
  0
LINE
  5
1C6
330
45
100
AcDbEntity
  8
0
  6
Continuous
 62
     7
100
AcDbLine
 10
234.3784665827
 20
483.3890139988
 30
0.0
 11
234.3784665827
 21
483.4890139988
 31
0.0
  0
LINE
  5
1C7
330
45
100
AcDbEntity
  8
0
  6
Continuous
 62
     7
100
AcDbLine
 10
234.3784665827
 20
483.4890139988
 30
0.0
 11
233.5524125827
 21
483.4890139988
 31
0.0
  0
LINE
  5
1C8
330
45
100
AcDbEntity
  8
0
  6
Continuous
 62
     7
100
AcDbLine
 10
163.8439114306
 20
442.9890734988
 30
0.0
 11
151.250519763
 21
408.3890079988
 31
0.0
  0
LINE
  5
1C9
330
45
100
AcDbEntity
  8
0
  6
Continuous
 62
     7
100
AcDbLine
 10
165.5501479913
 20
447.6769208986
 30
0.0
 11
165.5501479913
 21
442.9890734988
 31
0.0
  0
LINE
  5
1CA
330
45
100
AcDbEntity
  8
0
  6
Continuous
 62
     7
100
AcDbLine
 10
150.7501479913
 20
379.3890079988
 30
0.0
 11
151.7375940296
 21
379.3890079988
 31
0.0
  0
LINE
  5
1CB
330
45
100
AcDbEntity
  8
0
  6
Continuous
 62
     7
100
AcDbLine
 10
150.7501479913
 20
379.3890079988
 30
0.0
 11
150.7501479913
 21
400.6890079988
 31
0.0
  0
LINE
  5
1CC
330
45
100
AcDbEntity
  8
0
  6
Continuous
 62
     7
100
AcDbLine
 10
151.7375940296
 20
399.6890079988
 30
0.0
 11
151.7375940296
 21
379.3890079988
 31
0.0
  0
LINE
  5
1CD
330
45
100
AcDbEntity
  8
0
  6
Continuous
 62
     7
100
AcDbLine
 10
151.2501479913
 20
400.6890079988
 30
0.0
 11
292.2501479913
 21
400.6890079988
 31
0.0
  0
LINE
  5
1CE
330
45
100
AcDbEntity
  8
0
  6
Continuous
 62
     7
100
AcDbLine
 10
151.2501479913
 20
400.6890079988
 30
0.0
 11
151.2501479913
 21
408.3890079988
 31
0.0
  0
LINE
  5
1CF
330
45
100
AcDbEntity
  8
0
  6
Continuous
 62
     7
100
AcDbLine
 10
292.2501479913
 20
408.3890079988
 30
0.0
 11
292.2501479913
 21
400.6890079988
 31
0.0
  0
LINE
  5
1D0
330
45
100
AcDbEntity
  8
0
  6
Continuous
 62
     7
100
AcDbLine
 10
289.9068171529
 20
408.3890079988
 30
0.0
 11
292.2497762195
 21
408.3890079988
 31
0.0
  0
LINE
  5
1D1
330
45
100
AcDbEntity
  8
0
  6
Continuous
 62
     7
100
AcDbLine
 10
282.9190937172
 20
408.3890079988
 30
0.0
 11
289.7883021285
 21
408.3890079988
 31
0.0
  0
LINE
  5
1D2
330
45
100
AcDbEntity
  8
0
  6
Continuous
 62
     7
100
AcDbLine
 10
271.7628077167
 20
408.3890079988
 30
0.0
 11
282.6901402714
 21
408.3890079988
 31
0.0
  0
LINE
  5
1D3
330
45
100
AcDbEntity
  8
0
  6
Continuous
 62
     7
100
AcDbLine
 10
257.1982416057
 20
408.3890079988
 30
0.0
 11
271.4390186485
 21
408.3890079988
 31
0.0
  0
LINE
  5
1D4
330
45
100
AcDbEntity
  8
0
  6
Continuous
 62
     7
100
AcDbLine
 10
240.2179464957
 20
408.3890079988
 30
0.0
 11
256.801682605
 21
408.3890079988
 31
0.0
  0
LINE
  5
1D5
330
45
100
AcDbEntity
  8
0
  6
Continuous
 62
     7
100
AcDbLine
 10
221.9791014371
 20
408.3890079988
 30
0.0
 11
239.775642403
 21
408.3890079988
 31
0.0
  0
LINE
  5
1D6
330
45
100
AcDbEntity
  8
0
  6
Continuous
 62
     7
100
AcDbLine
 10
203.7246535795
 20
408.3890079988
 30
0.0
 11
221.5211945454
 21
408.3890079988
 31
0.0
  0
LINE
  5
1D7
330
45
100
AcDbEntity
  8
0
  6
Continuous
 62
     7
100
AcDbLine
 10
186.6986133775
 20
408.3890079988
 30
0.0
 11
203.2823494868
 21
408.3890079988
 31
0.0
  0
LINE
  5
1D8
330
45
100
AcDbEntity
  8
0
  6
Continuous
 62
     7
100
AcDbLine
 10
172.0612773341
 20
408.3890079988
 30
0.0
 11
186.3020543768
 21
408.3890079988
 31
0.0
  0
LINE
  5
1D9
330
45
100
AcDbEntity
  8
0
  6
Continuous
 62
     7
100
AcDbLine
 10
160.8101557112
 20
408.3890079988
 30
0.0
 11
171.7374882658
 21
408.3890079988
 31
0.0
  0
LINE
  5
1DA
330
45
100
AcDbEntity
  8
0
  6
Continuous
 62
     7
100
AcDbLine
 10
153.711993854
 20
408.3890079988
 30
0.0
 11
160.5812022653
 21
408.3890079988
 31
0.0
  0
LINE
  5
1DB
330
45
100
AcDbEntity
  8
0
  6
Continuous
 62
     7
100
AcDbLine
 10
151.250519763
 20
408.3890079988
 30
0.0
 11
153.5934788296
 21
408.3890079988
 31
0.0
  0
LINE
  5
1DC
330
45
100
AcDbEntity
  8
0
  6
Continuous
 62
     7
100
AcDbLine
 10
292.7501479913
 20
400.6890079988
 30
0.0
 11
292.7501479913
 21
379.3890079988
 31
0.0
  0
LINE
  5
1DD
330
45
100
AcDbEntity
  8
0
  6
Continuous
 62
     7
100
AcDbLine
 10
291.7627212426
 20
379.3890079988
 30
0.0
 11
291.7627212426
 21
399.6890079988
 31
0.0
  0
LINE
  5
1DE
330
45
100
AcDbEntity
  8
0
  6
Continuous
 62
     7
100
AcDbLine
 10
291.7627212426
 20
379.3890079988
 30
0.0
 11
292.7501479913
 21
379.3890079988
 31
0.0
  0
LINE
  5
1DF
330
45
100
AcDbEntity
  8
0
  6
Continuous
 62
     7
100
AcDbLine
 10
147.8501479913
 20
381.3890079988
 30
0.0
 11
147.8501479913
 21
408.3890079988
 31
0.0
  0
LINE
  5
1E0
330
45
100
AcDbEntity
  8
0
  6
Continuous
 62
     7
100
AcDbLine
 10
295.6501479913
 20
408.3890079988
 30
0.0
 11
295.6501479913
 21
381.3890079988
 31
0.0
  0
LINE
  5
1E1
330
45
100
AcDbEntity
  8
0
  6
Continuous
 62
     7
100
AcDbLine
 10
251.1792300335
 20
483.4890139988
 30
0.0
 11
251.2038993344
 21
483.4890139988
 31
0.0
  0
LINE
  5
1E2
330
45
100
AcDbEntity
  8
0
  6
Continuous
 62
     7
100
AcDbLine
 10
251.1792300335
 20
483.4890139988
 30
0.0
 11
251.1792300335
 21
483.3890139988
 31
0.0
  0
LINE
  5
1E3
330
45
100
AcDbEntity
  8
0
  6
Continuous
 62
     7
100
AcDbLine
 10
251.2038993344
 20
483.4890139988
 30
0.0
 11
251.2038993344
 21
483.3890139988
 31
0.0
  0
LINE
  5
1E4
330
45
100
AcDbEntity
  8
0
  6
Continuous
 62
     7
100
AcDbLine
 10
243.9433120827
 20
483.3890139988
 30
0.0
 11
243.9433118852
 21
483.4890139988
 31
0.0
  0
LINE
  5
1E5
330
45
100
AcDbEntity
  8
0
  6
Continuous
 62
     7
100
AcDbLine
 10
243.9433115827
 20
483.4890139988
 30
0.0
 11
243.9433118852
 21
483.4890139988
 31
0.0
  0
LINE
  5
1E6
330
45
100
AcDbEntity
  8
0
  6
Continuous
 62
     7
100
AcDbLine
 10
243.9433115827
 20
483.4890139988
 30
0.0
 11
243.9433115827
 21
483.3890139988
 31
0.0
  0
ARC
  5
1E7
330
45
100
AcDbEntity
  8
0
  6
Continuous
 62
     7
100
AcDbCircle
 10
142.0001509888
 20
407.3890079988
 30
0.0
 40
1.000000000004493
100
AcDbArc
 50
0.0001717555579
 51
90.0
  0
ARC
  5
1E8
330
45
100
AcDbEntity
  8
0
  6
Continuous
 62
     7
100
AcDbCircle
 10
301.5001449937
 20
407.3890079988
 30
0.0
 40
1.0
100
AcDbArc
 50
90.0
 51
179.9998282444421
  0
ARC
  5
1E9
330
45
100
AcDbEntity
  8
0
  6
Continuous
 62
     7
100
AcDbCircle
 10
292.1501479913
 20
363.3890878855
 30
0.0
 40
2.5
100
AcDbArc
 50
270.0
 51
0.0
  0
ARC
  5
1EA
330
45
100
AcDbEntity
  8
0
  6
Continuous
 62
     7
100
AcDbCircle
 10
151.3501479913
 20
363.3890878855
 30
0.0
 40
2.5
100
AcDbArc
 50
180.0
 51
270.0
  0
ARC
  5
1EB
330
45
100
AcDbEntity
  8
0
  6
Continuous
 62
     7
100
AcDbCircle
 10
157.2501479913
 20
363.3890878855
 30
0.0
 40
1.0
100
AcDbArc
 50
0.0
 51
90.0
  0
ARC
  5
1EC
330
45
100
AcDbEntity
  8
0
  6
Continuous
 62
     7
100
AcDbCircle
 10
286.2501479913
 20
363.3890878855
 30
0.0
 40
1.0
100
AcDbArc
 50
90.0
 51
180.0
  0
ARC
  5
1ED
330
45
100
AcDbEntity
  8
0
  6
Continuous
 62
     7
100
AcDbCircle
 10
151.3501479913
 20
372.5905787572
 30
0.0
 40
1.0
100
AcDbArc
 50
0.0
 51
90.0
  0
ARC
  5
1EE
330
45
100
AcDbEntity
  8
0
  6
Continuous
 62
     7
100
AcDbCircle
 10
292.1501479913
 20
372.5905787572
 30
0.0
 40
1.0
100
AcDbArc
 50
90.0
 51
180.0
  0
ARC
  5
1EF
330
45
100
AcDbEntity
  8
0
  6
Continuous
 62
     7
100
AcDbCircle
 10
43.7501479913
 20
406.3890079988
 30
0.0
 40
2.0
100
AcDbArc
 50
90.0
 51
180.0
  0
ARC
  5
1F0
330
45
100
AcDbEntity
  8
0
  6
Continuous
 62
     7
100
AcDbCircle
 10
399.7501479913
 20
406.3890079988
 30
0.0
 40
2.0
100
AcDbArc
 50
0.0
 51
90.0
  0
ARC
  5
1F1
330
45
100
AcDbEntity
  8
0
  6
Continuous
 62
     7
100
AcDbCircle
 10
153.3501479913
 20
365.3890878855
 30
0.0
 40
1.0
100
AcDbArc
 50
180.0
 51
270.0
  0
ARC
  5
1F2
330
45
100
AcDbEntity
  8
0
  6
Continuous
 62
     7
100
AcDbCircle
 10
290.1501479913
 20
365.3890878855
 30
0.0
 40
1.0
100
AcDbArc
 50
270.0
 51
0.0
  0
ARC
  5
1F3
330
45
100
AcDbEntity
  8
0
  6
Continuous
 62
     7
100
AcDbCircle
 10
288.5001479913
 20
376.0905787572
 30
0.0
 40
2.0
100
AcDbArc
 50
90.0
 51
180.0
  0
ARC
  5
1F4
330
45
100
AcDbEntity
  8
0
  6
Continuous
 62
     7
100
AcDbCircle
 10
155.0001479913
 20
376.0905787572
 30
0.0
 40
2.0
100
AcDbArc
 50
0.0
 51
90.0
  0
ARC
  5
1F5
330
45
100
AcDbEntity
  8
0
  6
Continuous
 62
     7
100
AcDbCircle
 10
289.0001479913
 20
373.5905787572
 30
0.0
 40
2.0
100
AcDbArc
 50
0.0
 51
90.0
  0
ARC
  5
1F6
330
45
100
AcDbEntity
  8
0
  6
Continuous
 62
     7
100
AcDbCircle
 10
154.5001479913
 20
373.5905787572
 30
0.0
 40
2.0
100
AcDbArc
 50
90.0
 51
180.0
  0
ARC
  5
1F7
330
45
100
AcDbEntity
  8
0
  6
Continuous
 62
     7
100
AcDbCircle
 10
294.2501479913
 20
317.3890898855
 30
0.0
 40
2.5
100
AcDbArc
 50
270.0
 51
0.0
  0
ARC
  5
1F8
330
45
100
AcDbEntity
  8
0
  6
Continuous
 62
     7
100
AcDbCircle
 10
149.2501479913
 20
317.3890898855
 30
0.0
 40
2.5
100
AcDbArc
 50
180.0
 51
270.0
  0
ARC
  5
1F9
330
45
100
AcDbEntity
  8
0
  6
Continuous
 62
     7
100
AcDbCircle
 10
293.7501479913
 20
320.3890898855
 30
0.0
 40
8.0
100
AcDbArc
 50
270.0
 51
0.0
  0
ARC
  5
1FA
330
45
100
AcDbEntity
  8
0
  6
Continuous
 62
     7
100
AcDbCircle
 10
149.7501479913
 20
320.3890898855
 30
0.0
 40
8.0
100
AcDbArc
 50
180.0
 51
270.0
  0
ARC
  5
1FB
330
45
100
AcDbEntity
  8
0
  6
Continuous
 62
     7
100
AcDbCircle
 10
173.3015660875
 20
468.3890139988
 30
0.0
 40
15.0
100
AcDbArc
 50
90.0
 51
160.0000002230998
  0
ARC
  5
1FC
330
45
100
AcDbEntity
  8
0
  6
Continuous
 62
     7
100
AcDbCircle
 10
296.1501479913
 20
380.3890079988
 30
0.0
 40
1.0
100
AcDbArc
 50
0.0
 51
90.0
  0
ARC
  5
1FD
330
45
100
AcDbEntity
  8
0
  6
Continuous
 62
     7
100
AcDbCircle
 10
270.198729895
 20
468.3890139988
 30
0.0
 40
14.99999999999989
100
AcDbArc
 50
19.99999977690016
 51
90.0
  0
ARC
  5
1FE
330
45
100
AcDbEntity
  8
0
  6
Continuous
 62
     7
100
AcDbCircle
 10
147.3501479913
 20
380.3890079988
 30
0.0
 40
1.0
100
AcDbArc
 50
180.0
 51
270.0
  0
ARC
  5
1FF
330
45
100
AcDbEntity
  8
0
  6
Continuous
 62
     7
100
AcDbCircle
 10
296.1501479913
 20
380.3890079988
 30
0.0
 40
1.0
100
AcDbArc
 50
270.0
 51
0.0
  0
ARC
  5
200
330
45
100
AcDbEntity
  8
0
  6
Continuous
 62
     7
100
AcDbCircle
 10
147.3501479913
 20
380.3890079988
 30
0.0
 40
1.0
100
AcDbArc
 50
90.0
 51
180.0
  0
SPLINE
  5
201
330
45
100
AcDbEntity
  8
0
  6
Continuous
 62
     7
100
AcDbSpline
210
0.0
220
0.0
230
1.0
 70
    24
 71
     3
 72
     9
 73
     5
 74
     3
 42
0.0000000001
 43
0.0000000001
 44
0.00000001
 40
0.0
 40
0.0
 40
0.0
 40
0.0
 40
0.2976419018993397
 40
0.5952838037979973
 40
0.5952838037979973
 40
0.5952838037979973
 40
0.5952838037979973
 10
275.726171239834
 20
447.70925114851
 30
0.0
 10
275.8253852071338
 20
447.7092511485139
 30
0.0
 10
276.0238131417331
 20
447.7092511485216
 30
0.0
 10
276.2222410763325
 20
447.7092511485285
 30
0.0
 10
276.321455043632
 20
447.709251148532
 30
0.0
 11
275.726171239834
 21
447.70925114851
 31
0.0
 11
276.0238131417333
 21
447.7092511485214
 31
0.0
 11
276.321455043632
 21
447.709251148532
 31
0.0
  0
SPLINE
  5
202
330
45
100
AcDbEntity
  8
0
  6
Continuous
 62
     7
100
AcDbSpline
210
0.0
220
0.0
230
1.0
 70
    24
 71
     3
 72
     9
 73
     5
 74
     3
 42
0.0000000001
 43
0.0000000001
 44
0.00000001
 40
0.0
 40
0.0
 40
0.0
 40
0.0
 40
0.5749999998863018
 40
1.149999999771978
 40
1.149999999771978
 40
1.149999999771978
 40
1.149999999771978
 10
269.835584950293
 20
447.709251148671
 30
0.0
 10
270.0272516169218
 20
447.7092511486587
 30
0.0
 10
270.4105849501791
 20
447.7092511486339
 30
0.0
 10
270.7939182834365
 20
447.7092511486093
 30
0.0
 10
270.985584950065
 20
447.709251148597
 30
0.0
 11
269.835584950293
 21
447.709251148671
 31
0.0
 11
270.4105849501793
 21
447.7092511486339
 31
0.0
 11
270.985584950065
 21
447.709251148597
 31
0.0
  0
SPLINE
  5
203
330
45
100
AcDbEntity
  8
0
  6
Continuous
 62
     7
100
AcDbSpline
210
0.0
220
0.0
230
1.0
 70
    24
 71
     3
 72
     9
 73
     5
 74
     3
 42
0.0000000001
 43
0.0000000001
 44
0.00000001
 40
0.0
 40
0.0
 40
0.0
 40
0.0
 40
0.8131727984495569
 40
1.626345596899
 40
1.626345596899
 40
1.626345596899
 40
1.626345596899
 10
260.668055595706
 20
447.709251148438
 30
0.0
 10
260.9391131951892
 20
447.7092511484458
 30
0.0
 10
261.4812283941554
 20
447.7092511484615
 30
0.0
 10
262.0233435931219
 20
447.7092511484772
 30
0.0
 10
262.294401192605
 20
447.709251148485
 30
0.0
 11
260.668055595706
 21
447.709251148438
 31
0.0
 11
261.4812283941556
 21
447.7092511484615
 31
0.0
 11
262.294401192605
 21
447.709251148485
 31
0.0
  0
SPLINE
  5
204
330
45
100
AcDbEntity
  8
0
  6
Continuous
 62
     7
100
AcDbSpline
210
0.0
220
0.0
230
1.0
 70
    24
 71
     3
 72
     9
 73
     5
 74
     3
 42
0.0000000001
 43
0.0000000001
 44
0.00000001
 40
0.0
 40
0.0
 40
0.0
 40
0.0
 40
0.9959292143655034
 40
1.991858428731007
 40
1.991858428731007
 40
1.991858428731007
 40
1.991858428731007
 10
248.848335153815
 20
447.709251148526
 30
0.0
 10
249.1803115586035
 20
447.709251148527
 30
0.0
 10
249.8442643681805
 20
447.709251148529
 30
0.0
 10
250.5082171777575
 20
447.7092511485304
 30
0.0
 10
250.840193582546
 20
447.709251148531
 30
0.0
 11
248.848335153815
 21
447.709251148526
 31
0.0
 11
249.8442643681805
 21
447.7092511485288
 31
0.0
 11
250.840193582546
 21
447.709251148531
 31
0.0
  0
SPLINE
  5
205
330
45
100
AcDbEntity
  8
0
  6
Continuous
 62
     7
100
AcDbSpline
210
0.0
220
0.0
230
1.0
 70
    24
 71
     3
 72
     9
 73
     5
 74
     3
 42
0.0000000001
 43
0.0000000001
 44
0.00000001
 40
0.0
 40
0.0
 40
0.0
 40
0.0
 40
1.110814700162507
 40
2.221629400325014
 40
2.221629400325014
 40
2.221629400325014
 40
2.221629400325014
 10
235.181918038614
 20
447.709251148558
 30
0.0
 10
235.5521896053348
 20
447.7092511485555
 30
0.0
 10
236.2927327387765
 20
447.7092511485505
 30
0.0
 10
237.0332758722182
 20
447.7092511485455
 30
0.0
 10
237.403547438939
 20
447.709251148543
 30
0.0
 11
235.181918038614
 21
447.709251148558
 31
0.0
 11
236.2927327387765
 21
447.7092511485505
 31
0.0
 11
237.403547438939
 21
447.709251148543
 31
0.0
  0
SPLINE
  5
206
330
45
100
AcDbEntity
  8
0
  6
Continuous
 62
     7
100
AcDbSpline
210
0.0
220
0.0
230
1.0
 70
    24
 71
     3
 72
     9
 73
     5
 74
     3
 42
0.0000000001
 43
0.0000000001
 44
0.00000001
 40
0.0
 40
0.0
 40
0.0
 40
0.0
 40
1.150000000029138
 40
2.300000000059015
 40
2.300000000059015
 40
2.300000000059015
 40
2.300000000059015
 10
220.600147991272
 20
447.709251148537
 30
0.0
 10
220.9834813246151
 20
447.7092511485371
 30
0.0
 10
221.7501479913014
 20
447.7092511485371
 30
0.0
 10
222.5168146579877
 20
447.709251148537
 30
0.0
 10
222.900147991331
 20
447.709251148537
 30
0.0
 11
220.600147991272
 21
447.709251148537
 31
0.0
 11
221.7501479913011
 21
447.709251148537
 31
0.0
 11
222.900147991331
 21
447.709251148537
 31
0.0
  0
SPLINE
  5
207
330
45
100
AcDbEntity
  8
0
  6
Continuous
 62
     7
100
AcDbSpline
210
0.0
220
0.0
230
1.0
 70
    24
 71
     3
 72
     9
 73
     5
 74
     3
 42
0.0000000001
 43
0.0000000001
 44
0.00000001
 40
0.0
 40
0.0
 40
0.0
 40
0.0
 40
1.110814700130504
 40
2.221629400288009
 40
2.221629400288009
 40
2.221629400288009
 40
2.221629400288009
 10
206.0967485437
 20
447.7092511485
 30
0.0
 10
206.4670201104101
 20
447.7092511485178
 30
0.0
 10
207.2075632438395
 20
447.7092511485532
 30
0.0
 10
207.9481063772688
 20
447.7092511485564
 30
0.0
 10
208.318377943988
 20
447.709251148558
 30
0.0
 11
206.0967485437
 21
447.7092511485
 31
0.0
 11
207.2075632438305
 21
447.7092511485451
 31
0.0
 11
208.318377943988
 21
447.709251148558
 31
0.0
  0
SPLINE
  5
208
330
45
100
AcDbEntity
  8
0
  6
Continuous
 62
     7
100
AcDbSpline
210
0.0
220
0.0
230
1.0
 70
    24
 71
     3
 72
     9
 73
     5
 74
     3
 42
0.0000000001
 43
0.0000000001
 44
0.00000001
 40
0.0
 40
0.0
 40
0.0
 40
0.0
 40
0.9959292144149856
 40
1.991858428787992
 40
1.991858428787992
 40
1.991858428787992
 40
1.991858428787992
 10
192.6601024
 20
447.7092511485
 30
0.0
 10
192.992078804805
 20
447.7092511485104
 30
0.0
 10
193.6560316144011
 20
447.7092511485311
 30
0.0
 10
194.319984423997
 20
447.7092511485278
 30
0.0
 10
194.651960828788
 20
447.709251148526
 30
0.0
 11
192.6601024
 21
447.7092511485
 31
0.0
 11
193.656031614415
 21
447.709251148525
 31
0.0
 11
194.651960828788
 21
447.709251148526
 31
0.0
  0
SPLINE
  5
209
330
45
100
AcDbEntity
  8
0
  6
Continuous
 62
     7
100
AcDbSpline
210
0.0
220
0.0
230
1.0
 70
    24
 71
     3
 72
     9
 73
     5
 74
     3
 42
0.0000000001
 43
0.0000000001
 44
0.00000001
 40
0.0
 40
0.0
 40
0.0
 40
0.0
 40
0.8131727986223609
 40
1.626345597097014
 40
1.626345597097014
 40
1.626345597097014
 40
1.626345597097014
 10
181.2058947898
 20
447.7092511485
 30
0.0
 10
181.4769523893408
 20
447.7092511484869
 30
0.0
 10
182.0190675883732
 20
447.7092511484607
 30
0.0
 10
182.5611827874055
 20
447.7092511484456
 30
0.0
 10
182.832240386897
 20
447.709251148438
 30
0.0
 11
181.2058947898
 21
447.7092511485
 31
0.0
 11
182.0190675884224
 21
447.7092511484634
 31
0.0
 11
182.832240386897
 21
447.709251148438
 31
0.0
  0
SPLINE
  5
20A
330
45
100
AcDbEntity
  8
0
  6
Continuous
 62
     7
100
AcDbSpline
210
0.0
220
0.0
230
1.0
 70
    24
 71
     3
 72
     9
 73
     5
 74
     3
 42
0.0000000001
 43
0.0000000001
 44
0.00000001
 40
0.0
 40
0.0
 40
0.0
 40
0.0
 40
0.5749999997438806
 40
1.149999999610003
 40
1.149999999610003
 40
1.149999999610003
 40
1.149999999610003
 10
172.5147110327
 20
447.7092511485
 30
0.0
 10
172.7063776992813
 20
447.7092511485469
 30
0.0
 10
173.0897110324846
 20
447.7092511486405
 30
0.0
 10
173.473044365688
 20
447.7092511486609
 30
0.0
 10
173.66471103231
 20
447.709251148671
 30
0.0
 11
172.5147110327
 21
447.7092511485
 31
0.0
 11
173.0897110324439
 21
447.7092511486222
 31
0.0
 11
173.66471103231
 21
447.709251148671
 31
0.0
  0
SPLINE
  5
20B
330
45
100
AcDbEntity
  8
0
  6
Continuous
 62
     7
100
AcDbSpline
210
0.0
220
0.0
230
1.0
 70
    24
 71
     3
 72
     9
 73
     5
 74
     3
 42
0.0000000001
 43
0.0000000001
 44
0.00000001
 40
0.0
 40
0.0
 40
0.0
 40
0.0
 40
0.2976419019606169
 40
0.595283803868
 40
0.595283803868
 40
0.595283803868
 40
0.595283803868
 10
167.1788409389
 20
447.7092511485
 30
0.0
 10
167.2780549062202
 20
447.7092511485077
 30
0.0
 10
167.4764828408429
 20
447.7092511485229
 30
0.0
 10
167.6749107754655
 20
447.7092511485149
 30
0.0
 10
167.774124742768
 20
447.709251148511
 30
0.0
 11
167.1788409389
 21
447.7092511485
 31
0.0
 11
167.4764828408606
 21
447.7092511485171
 31
0.0
 11
167.774124742768
 21
447.709251148511
 31
0.0
  0
DIMENSION
  5
220
330
45
100
AcDbEntity
  8
1
100
AcDbDimension
  2
*D2
 10
6.44083077722826
 20
408.3890079988
 30
0.0
 11
0.94083077722826
 21
333.124653464936
 31
0.0
 70
    32
  1
<>
 71
     5
 42
-1.0
 53
90.0
  3
ME10_DIM_10
100
AcDbAlignedDimension
 13
168.0898939534
 23
248.3890878855
 33
0.0
 14
43.7501479913
 24
408.3890079988
 34
0.0
 50
90.0
100
AcDbRotatedDimension
  0
DIMENSION
  5
22B
330
45
100
AcDbEntity
  8
1
100
AcDbDimension
  2
*D3
 10
26.4909594143198
 20
408.3890079988
 30
0.0
 11
20.9909594143198
 21
361.109843929
 31
0.0
 70
    32
  1
<>
 71
     5
 42
-1.0
 53
90.0
  3
ME10_DIM_11
100
AcDbAlignedDimension
 13
149.7501479913
 23
312.3890898855
 33
0.0
 14
43.7501479913
 24
408.3890079988
 34
0.0
 50
90.0
100
AcDbRotatedDimension
  0
DIMENSION
  5
236
330
45
100
AcDbEntity
  8
1
100
AcDbDimension
  2
*D4
 10
123.125359139536
 20
483.3890139988
 30
0.0
 11
117.625359139536
 21
440.9936962307
 31
0.0
 70
    32
  1
<>
 71
     5
 42
-1.0
 53
90.0
  3
ME10_DIM_12
100
AcDbAlignedDimension
 13
142.0001509888
 23
408.3890079988
 33
0.0
 14
173.3015660875
 24
483.3890139988
 34
0.0
 50
90.0
100
AcDbRotatedDimension
  0
DIMENSION
  5
241
330
45
100
AcDbEntity
  8
1
100
AcDbDimension
  2
*D5
 10
141.6501479913
 20
215.699409420208
 30
0.0
 11
210.665360406702
 21
221.199409420208
 31
0.0
 70
    33
  1
<>
 71
     5
 42
-1.0
 53
0.00013888888889
  3
ME10_DIM_13
100
AcDbAlignedDimension
 13
301.8501479913
 23
322.3890898855
 33
0.0
 14
141.6501479913
 24
322.3890898855
 34
0.0
  0
DIMENSION
  5
24C
330
45
100
AcDbEntity
  8
1
100
AcDbDimension
  2
*D6
 10
166.7501479913
 20
230.163941266958
 30
0.0
 11
238.838135306036
 21
235.663941266958
 31
0.0
 70
    33
  1
<>
 71
     5
 42
-1.0
 53
0.00013888888889
  3
ME10_DIM_14
100
AcDbAlignedDimension
 13
276.7501479913
 23
253.3890878855
 33
0.0
 14
166.7501479913
 24
253.3890878855
 34
0.0
  0
DIMENSION
  5
257
330
45
100
AcDbEntity
  8
1
100
AcDbDimension
  2
*D7
 10
41.7501479913
 20
496.020425214963
 30
0.0
 11
229.625253079472
 21
501.520425214963
 31
0.0
 70
    33
  1
<>
 71
     5
 42
-1.0
 53
0.00013888888889
  3
ME10_DIM_15
100
AcDbAlignedDimension
 13
401.7501479913
 23
406.3890079988
 33
0.0
 14
41.7501479913
 24
406.3890079988
 34
0.0
  0
HATCH
  5
258
330
45
100
AcDbEntity
  8
0
  6
Continuous
 62
     7
100
AcDbHatch
 10
0.0
 20
0.0
 30
0.0
210
0.0
220
0.0
230
1.0
  2
CUSTOM0
 70
     0
 71
     0
 91
        1
 92
        1
 93
      118
 72
     1
 10
277.9501479913
 20
447.6769208986
 11
277.9501479913
 21
442.9890734988
 72
     1
 10
277.9501479913
 20
442.9890734988
 11
279.6563845519
 21
442.9890734988
 72
     1
 10
279.6563845519
 20
442.9890734988
 11
292.249776219489
 21
408.3890070448
 72
     1
 10
292.249776219489
 20
408.3890070448
 11
292.2501479913
 21
408.3890079988
 72
     1
 10
292.2501479913
 20
408.3890079988
 11
292.2501479913
 21
400.6890079988
 72
     1
 10
292.2501479913
 20
400.6890079988
 11
292.7501479913
 21
400.6890079988
 72
     1
 10
292.7501479913
 20
400.6890079988
 11
292.7501479913
 21
379.3890079988
 72
     1
 10
292.7501479913
 20
379.3890079988
 11
296.1501479913
 21
379.3890079988
 72
     1
 10
296.1501479913
 20
379.3890079988
 11
296.348817322048
 21
379.40894142099
 72
     1
 10
296.348817322048
 20
379.40894142099
 11
296.539566333561
 21
379.467947004828
 72
     1
 10
296.539566333561
 20
379.467947004828
 11
296.714790464648
 21
379.563672383922
 72
     1
 10
296.714790464648
 20
379.563672383922
 11
296.867504082152
 21
379.692301289484
 72
     1
 10
296.867504082152
 20
379.692301289484
 11
296.99161897606
 21
379.848705692963
 72
     1
 10
296.99161897606
 20
379.848705692963
 11
297.08218707722
 21
380.026650244355
 72
     1
 10
297.08218707722
 20
380.026650244355
 11
297.135597721241
 21
380.219040855931
 72
     1
 10
297.135597721241
 20
380.219040855931
 11
297.1501479913
 21
380.3890079988
 72
     1
 10
297.1501479913
 20
380.3890079988
 11
297.130214569094
 21
380.587677329626
 72
     1
 10
297.130214569094
 20
380.587677329626
 11
297.071208985255
 21
380.77842634114
 72
     1
 10
297.071208985255
 20
380.77842634114
 11
296.975483606162
 21
380.953650472226
 72
     1
 10
296.975483606162
 20
380.953650472226
 11
296.8468547006
 21
381.106364089731
 72
     1
 10
296.8468547006
 20
381.106364089731
 11
296.690450297121
 21
381.230478983639
 72
     1
 10
296.690450297121
 20
381.230478983639
 11
296.512505745729
 21
381.321047084798
 72
     1
 10
296.512505745729
 20
381.321047084798
 11
296.320115134153
 21
381.37445772882
 72
     1
 10
296.320115134153
 20
381.37445772882
 11
296.1501479913
 21
381.3890079988
 72
     1
 10
296.1501479913
 20
381.3890079988
 11
295.6501479913
 21
381.3890079988
 72
     1
 10
295.6501479913
 20
381.3890079988
 11
295.6501479913
 21
408.3890079988
 72
     1
 10
295.6501479913
 20
408.3890079988
 11
304.1430458091
 21
408.3890079988
 72
     1
 10
304.1430458091
 20
408.3890079988
 11
307.3356128091
 21
410.2133319988
 72
     1
 10
307.3356128091
 20
410.2133319988
 11
284.294119226765
 21
473.5193160938
 72
     1
 10
284.294119226765
 20
473.5193160938
 11
282.993916196698
 21
476.21737318221
 72
     1
 10
282.993916196698
 20
476.21737318221
 11
281.18360946636
 21
478.603338293761
 72
     1
 10
281.18360946636
 20
478.603338293761
 11
278.935370252303
 21
480.582090528836
 72
     1
 10
278.935370252303
 20
480.582090528836
 11
276.338828757262
 21
482.074743280139
 72
     1
 10
276.338828757262
 20
482.074743280139
 11
273.497500896784
 21
483.021789192812
 72
     1
 10
273.497500896784
 20
483.021789192812
 11
270.524661446337
 21
483.385472534893
 72
     1
 10
270.524661446337
 20
483.385472534893
 11
270.198729895
 21
483.3890139988
 72
     1
 10
270.198729895
 20
483.3890139988
 11
251.1792300335
 21
483.3890139988
 72
     1
 10
251.1792300335
 20
483.3890139988
 11
251.1792300335
 21
483.4890139988
 72
     1
 10
251.1792300335
 20
483.4890139988
 11
248.8561635148
 21
483.4890139988
 72
     1
 10
248.8561635148
 20
483.4890139988
 11
248.8561635148
 21
483.3890139988
 72
     1
 10
248.8561635148
 20
483.3890139988
 11
248.3779225827
 21
483.3890139988
 72
     1
 10
248.3779225827
 20
483.3890139988
 11
248.3779225827
 21
483.4890139988
 72
     1
 10
248.3779225827
 20
483.4890139988
 11
246.4649535827
 21
483.4890139988
 72
     1
 10
246.4649535827
 20
483.4890139988
 11
246.4649535827
 21
483.3890139988
 72
     1
 10
246.4649535827
 20
483.3890139988
 11
246.1171397764
 21
483.3890139988
 72
     1
 10
246.1171397764
 20
483.3890139988
 11
246.1171397764
 21
483.4890139988
 72
     1
 10
246.1171397764
 20
483.4890139988
 11
245.3345620827
 21
483.4890139988
 72
     1
 10
245.3345620827
 20
483.4890139988
 11
245.3345620827
 21
483.3890139988
 72
     1
 10
245.3345620827
 20
483.3890139988
 11
244.7693665827
 21
483.3890139988
 72
     1
 10
244.7693665827
 20
483.3890139988
 11
244.7693665827
 21
483.4890139988
 72
     1
 10
244.7693665827
 20
483.4890139988
 11
243.9433118852
 21
483.4890139988
 72
     1
 10
243.9433118852
 20
483.4890139988
 11
243.94331188518
 21
483.389013998831
 72
     1
 10
243.94331188518
 20
483.389013998831
 11
243.3781165827
 21
483.3890139988
 72
     1
 10
243.3781165827
 20
483.3890139988
 11
243.3781165827
 21
483.4890139988
 72
     1
 10
243.3781165827
 20
483.4890139988
 11
242.5955385827
 21
483.4890139988
 72
     1
 10
242.5955385827
 20
483.4890139988
 11
242.5955385827
 21
483.3890139988
 72
     1
 10
242.5955385827
 20
483.3890139988
 11
241.5086245827
 21
483.3890139988
 72
     1
 10
241.5086245827
 20
483.3890139988
 11
241.5086245827
 21
483.4890139988
 72
     1
 10
241.5086245827
 20
483.4890139988
 11
240.7260455827
 21
483.4890139988
 72
     1
 10
240.7260455827
 20
483.4890139988
 11
240.7260455827
 21
483.3890139988
 72
     1
 10
240.7260455827
 20
483.3890139988
 11
239.6391315827
 21
483.3890139988
 72
     1
 10
239.6391315827
 20
483.3890139988
 11
239.6391315827
 21
483.4890139988
 72
     1
 10
239.6391315827
 20
483.4890139988
 11
238.8565535827
 21
483.4890139988
 72
     1
 10
238.8565535827
 20
483.4890139988
 11
238.8565535827
 21
483.3890139988
 72
     1
 10
238.8565535827
 20
483.3890139988
 11
238.4217870827
 21
483.3890139988
 72
     1
 10
238.4217870827
 20
483.3890139988
 11
238.4217870827
 21
483.4890139988
 72
     1
 10
238.4217870827
 20
483.4890139988
 11
236.0740535827
 21
483.4890139988
 72
     1
 10
236.0740535827
 20
483.4890139988
 11
236.0740535827
 21
483.3890139988
 72
     1
 10
236.0740535827
 20
483.3890139988
 11
235.6951905827
 21
483.3890139988
 72
     1
 10
235.6951905827
 20
483.3890139988
 11
235.6951905827
 21
483.4890139988
 72
     1
 10
235.6951905827
 20
483.4890139988
 11
234.9560890827
 21
483.4890139988
 72
     1
 10
234.9560890827
 20
483.4890139988
 11
234.9560890827
 21
483.3890139988
 72
     1
 10
234.9560890827
 20
483.3890139988
 11
234.3784665827
 21
483.3890139988
 72
     1
 10
234.3784665827
 20
483.3890139988
 11
234.3784665827
 21
483.4890139988
 72
     1
 10
234.3784665827
 20
483.4890139988
 11
233.5524125827
 21
483.4890139988
 72
     1
 10
233.5524125827
 20
483.4890139988
 11
233.5524125827
 21
483.3890139988
 72
     1
 10
233.5524125827
 20
483.3890139988
 11
173.3015660875
 21
483.3890139988
 72
     1
 10
173.3015660875
 20
483.3890139988
 11
170.321526125612
 21
483.09001266645
 72
     1
 10
170.321526125612
 20
483.09001266645
 11
167.460290952908
 21
482.204928908875
 72
     1
 10
167.460290952908
 20
482.204928908875
 11
164.831928986613
 21
480.769048222477
 72
     1
 10
164.831928986613
 20
480.769048222477
 11
162.541224724045
 21
478.839614639039
 72
     1
 10
162.541224724045
 20
478.839614639039
 11
160.67950131542
 21
476.493548586853
 72
     1
 10
160.67950131542
 20
476.493548586853
 11
159.32097979803
 21
473.824380315981
 72
     1
 10
159.32097979803
 20
473.824380315981
 11
159.206176755735
 21
473.5193160938
 72
     1
 10
159.206176755735
 20
473.5193160938
 11
136.1646831734
 21
410.2133319988
 72
     1
 10
136.1646831734
 20
410.2133319988
 11
139.3572501734
 21
408.3890079988
 72
     1
 10
139.3572501734
 20
408.3890079988
 11
147.8501479913
 21
408.3890079988
 72
     1
 10
147.8501479913
 20
408.3890079988
 11
147.8501479913
 21
381.3890079988
 72
     1
 10
147.8501479913
 20
381.3890079988
 11
147.3501479913
 21
381.3890079988
 72
     1
 10
147.3501479913
 20
381.3890079988
 11
147.151478660457
 21
381.369074576672
 72
     1
 10
147.151478660457
 20
381.369074576672
 11
146.960729648944
 21
381.310068992834
 72
     1
 10
146.960729648944
 20
381.310068992834
 11
146.785505517857
 21
381.214343613741
 72
     1
 10
146.785505517857
 20
381.214343613741
 11
146.632791900353
 21
381.085714708178
 72
     1
 10
146.632791900353
 20
381.085714708178
 11
146.508677006445
 21
380.929310304699
 72
     1
 10
146.508677006445
 20
380.929310304699
 11
146.418108905285
 21
380.751365753308
 72
     1
 10
146.418108905285
 20
380.751365753308
 11
146.364698261264
 21
380.558975141731
 72
     1
 10
146.364698261264
 20
380.558975141731
 11
146.3501479913
 21
380.3890079988
 72
     1
 10
146.3501479913
 20
380.3890079988
 11
146.370081413411
 21
380.190338668036
 72
     1
 10
146.370081413411
 20
380.190338668036
 11
146.42908699725
 21
379.999589656523
 72
     1
 10
146.42908699725
 20
379.999589656523
 11
146.524812376343
 21
379.824365525436
 72
     1
 10
146.524812376343
 20
379.824365525436
 11
146.653441281905
 21
379.671651907932
 72
     1
 10
146.653441281905
 20
379.671651907932
 11
146.809845685384
 21
379.547537014023
 72
     1
 10
146.809845685384
 20
379.547537014023
 11
146.987790236776
 21
379.456968912864
 72
     1
 10
146.987790236776
 20
379.456968912864
 11
147.180180848352
 21
379.403558268843
 72
     1
 10
147.180180848352
 20
379.403558268843
 11
147.3501479913
 21
379.3890079988
 72
     1
 10
147.3501479913
 20
379.3890079988
 11
150.7501479913
 21
379.3890079988
 72
     1
 10
150.7501479913
 20
379.3890079988
 11
150.7501479913
 21
400.6890079988
 72
     1
 10
150.7501479913
 20
400.6890079988
 11
151.2501479913
 21
400.6890079988
 72
     1
 10
151.2501479913
 20
400.6890079988
 11
151.2501479913
 21
408.3890079988
 72
     1
 10
151.2501479913
 20
408.3890079988
 11
151.250519763015
 21
408.3890070448
 72
     1
 10
151.250519763015
 20
408.3890070448
 11
163.8439114306
 21
442.9890734988
 72
     1
 10
163.8439114306
 20
442.9890734988
 11
165.5501479913
 21
442.9890734988
 72
     1
 10
165.5501479913
 20
442.9890734988
 11
165.5501479913
 21
447.6769208986
 72
     1
 10
165.5501479913
 20
447.6769208986
 11
173.3015660875
 21
468.9737715266
 72
     1
 10
173.3015660875
 20
468.9737715266
 11
173.3015660875
 21
468.5890139988
 72
     1
 10
173.3015660875
 20
468.5890139988
 11
270.198729895
 21
468.5890139988
 72
     1
 10
270.198729895
 20
468.5890139988
 11
270.198729895
 21
468.9737715266
 72
     1
 10
270.198729895
 20
468.9737715266
 11
277.9501479913
 21
447.6769208986
 97
        0
 75
     1
 76
     2
 52
0.0
 41
1.0
 77
     0
 78
     1
 53
44.99999999999998
 43
0.0
 44
0.0
 45
-4.490128060534577
 46
0.0000000000000018
 79
     0
 98
        1
 10
0.0
 20
0.0
  0
HATCH
  5
259
330
45
100
AcDbEntity
  8
0
  6
Continuous
 62
     7
100
AcDbHatch
 10
0.0
 20
0.0
 30
0.0
210
0.0
220
0.0
230
1.0
  2
CUSTOM1
 70
     0
 71
     0
 91
        1
 92
        1
 93
       29
 72
     1
 10
165.0001479913
 20
309.8890898855
 11
165.0001479913
 21
312.3890898855
 72
     1
 10
165.0001479913
 20
312.3890898855
 11
166.2501479913
 21
312.3890898855
 72
     1
 10
166.2501479913
 20
312.3890898855
 11
166.2501479913
 21
314.8890898855
 72
     1
 10
166.2501479913
 20
314.8890898855
 11
149.2501479913
 21
314.8890898855
 72
     1
 10
149.2501479913
 20
314.8890898855
 11
148.753474664265
 21
314.938923440915
 72
     1
 10
148.753474664265
 20
314.938923440915
 11
148.276602135481
 21
315.086437400511
 72
     1
 10
148.276602135481
 20
315.086437400511
 11
147.838541807765
 21
315.325750848244
 72
     1
 10
147.838541807765
 20
315.325750848244
 11
147.456757764004
 21
315.64732311215
 72
     1
 10
147.456757764004
 20
315.64732311215
 11
147.146470529233
 21
316.038334120848
 72
     1
 10
147.146470529233
 20
316.038334120848
 11
146.920050276334
 21
316.483195499327
 72
     1
 10
146.920050276334
 20
316.483195499327
 11
146.786523666281
 21
316.964172028268
 72
     1
 10
146.786523666281
 20
316.964172028268
 11
146.7501479913
 21
317.3890898855
 72
     1
 10
146.7501479913
 20
317.3890898855
 11
146.7501479913
 21
328.3890898855
 72
     1
 10
146.7501479913
 20
328.3890898855
 11
145.4780884598
 21
328.3890898855
 72
     1
 10
145.4780884598
 20
328.3890898855
 11
144.7501479913
 21
326.3890898855
 72
     1
 10
144.7501479913
 20
326.3890898855
 11
144.7501479913
 21
322.3890898855
 72
     1
 10
144.7501479913
 20
322.3890898855
 11
141.7501479913
 21
322.3890898855
 72
     1
 10
141.7501479913
 20
322.3890898855
 11
141.7501479913
 21
320.3890898855
 72
     1
 10
141.7501479913
 20
320.3890898855
 11
141.909615368522
 21
318.799735239158
 72
     1
 10
141.909615368522
 20
318.799735239158
 11
142.381660039229
 21
317.273743147049
 72
     1
 10
142.381660039229
 20
317.273743147049
 11
143.147463071975
 21
315.871950098358
 72
     1
 10
143.147463071975
 20
315.871950098358
 11
144.176494316475
 21
314.650241158322
 72
     1
 10
144.176494316475
 20
314.650241158322
 11
145.427729544307
 21
313.657322007055
 72
     1
 10
145.427729544307
 20
313.657322007055
 11
146.851285955439
 21
312.932777197781
 72
     1
 10
146.851285955439
 20
312.932777197781
 11
148.39041084805
 21
312.505492045611
 72
     1
 10
148.39041084805
 20
312.505492045611
 11
149.7501479913
 21
312.3890898855
 72
     1
 10
149.7501479913
 20
312.3890898855
 11
151.0001479913
 21
312.3890898855
 72
     1
 10
151.0001479913
 20
312.3890898855
 11
151.0001479913
 21
309.8890898855
 72
     1
 10
151.0001479913
 20
309.8890898855
 11
165.0001479913
 21
309.8890898855
 97
        0
 75
     1
 76
     2
 52
0.0
 41
1.0
 77
     0
 78
     1
 53
44.99999999999998
 43
0.0
 44
0.0
 45
-4.490128060534577
 46
0.0000000000000018
 79
     0
 98
        1
 10
0.0
 20
0.0
  0
HATCH
  5
25A
330
45
100
AcDbEntity
  8
0
  6
Continuous
 62
     7
100
AcDbHatch
 10
0.0
 20
0.0
 30
0.0
210
0.0
220
0.0
230
1.0
  2
CUSTOM2
 70
     0
 71
     0
 91
        1
 92
        1
 93
       29
 72
     1
 10
277.2501479913
 20
314.8890898855
 11
277.2501479913
 21
312.3890898855
 72
     1
 10
277.2501479913
 20
312.3890898855
 11
278.5001479913
 21
312.3890898855
 72
     1
 10
278.5001479913
 20
312.3890898855
 11
278.5001479913
 21
309.8890898855
 72
     1
 10
278.5001479913
 20
309.8890898855
 11
292.5001479913
 21
309.8890898855
 72
     1
 10
292.5001479913
 20
309.8890898855
 11
292.5001479913
 21
312.3890898855
 72
     1
 10
292.5001479913
 20
312.3890898855
 11
293.7501479913
 21
312.3890898855
 72
     1
 10
293.7501479913
 20
312.3890898855
 11
295.339502637613
 21
312.548557262788
 72
     1
 10
295.339502637613
 20
312.548557262788
 11
296.865494729722
 21
313.020601933495
 72
     1
 10
296.865494729722
 20
313.020601933495
 11
298.267287778413
 21
313.786404966241
 72
     1
 10
298.267287778413
 20
313.786404966241
 11
299.488996718449
 21
314.815436210741
 72
     1
 10
299.488996718449
 20
314.815436210741
 11
300.481915869716
 21
316.066671438573
 72
     1
 10
300.481915869716
 20
316.066671438573
 11
301.20646067899
 21
317.490227849705
 72
     1
 10
301.20646067899
 20
317.490227849705
 11
301.63374583116
 21
319.029352742317
 72
     1
 10
301.63374583116
 20
319.029352742317
 11
301.7501479913
 21
320.3890898855
 72
     1
 10
301.7501479913
 20
320.3890898855
 11
301.7501479913
 21
322.3890898855
 72
     1
 10
301.7501479913
 20
322.3890898855
 11
298.7501479913
 21
322.3890898855
 72
     1
 10
298.7501479913
 20
322.3890898855
 11
298.7501479913
 21
326.3890898855
 72
     1
 10
298.7501479913
 20
326.3890898855
 11
298.0222075227
 21
328.3890898855
 72
     1
 10
298.0222075227
 20
328.3890898855
 11
296.7501479913
 21
328.3890898855
 72
     1
 10
296.7501479913
 20
328.3890898855
 11
296.7501479913
 21
317.3890898855
 72
     1
 10
296.7501479913
 20
317.3890898855
 11
296.700314435856
 21
316.892416558531
 72
     1
 10
296.700314435856
 20
316.892416558531
 11
296.55280047626
 21
316.415544029747
 72
     1
 10
296.55280047626
 20
316.415544029747
 11
296.313487028527
 21
315.977483702031
 72
     1
 10
296.313487028527
 20
315.977483702031
 11
295.99191476462
 21
315.59569965827
 72
     1
 10
295.99191476462
 20
315.59569965827
 11
295.600903755923
 21
315.285412423499
 72
     1
 10
295.600903755923
 20
315.285412423499
 11
295.156042377444
 21
315.0589921706
 72
     1
 10
295.156042377444
 20
315.0589921706
 11
294.675065848503
 21
314.925465560547
 72
     1
 10
294.675065848503
 20
314.925465560547
 11
294.2501479913
 21
314.8890898855
 72
     1
 10
294.2501479913
 20
314.8890898855
 11
277.2501479913
 21
314.8890898855
 97
        0
 75
     1
 76
     2
 52
0.0
 41
1.0
 77
     0
 78
     1
 53
44.99999999999998
 43
0.0
 44
0.0
 45
-4.490128060534577
 46
0.0000000000000018
 79
     0
 98
        1
 10
0.0
 20
0.0
  0
HATCH
  5
25B
330
45
100
AcDbEntity
  8
0
  6
Continuous
 62
     7
100
AcDbHatch
 10
0.0
 20
0.0
 30
0.0
210
0.0
220
0.0
230
1.0
  2
CUSTOM3
 70
     0
 71
     0
 91
        1
 92
        1
 93
       22
 72
     1
 10
154.5001479913
 20
375.5905787572
 11
157.0001479913
 21
375.5905787572
 72
     1
 10
157.0001479913
 20
375.5905787572
 11
157.0001479913
 21
376.0905787572
 72
     1
 10
157.0001479913
 20
376.0905787572
 11
156.960281146935
 21
376.487917418766
 72
     1
 10
156.960281146935
 20
376.487917418766
 11
156.842269979258
 21
376.869415441794
 72
     1
 10
156.842269979258
 20
376.869415441794
 11
156.650819221072
 21
377.219863703966
 72
     1
 10
156.650819221072
 20
377.219863703966
 11
156.393561409947
 21
377.525290938975
 72
     1
 10
156.393561409947
 20
377.525290938975
 11
156.080752602989
 21
377.773520726792
 72
     1
 10
156.080752602989
 20
377.773520726792
 11
155.724863500206
 21
377.954656929111
 72
     1
 10
155.724863500206
 20
377.954656929111
 11
155.340082277053
 21
378.061478217153
 72
     1
 10
155.340082277053
 20
378.061478217153
 11
155.0001479913
 21
378.0905787572
 72
     1
 10
155.0001479913
 20
378.0905787572
 11
144.5001479913
 21
378.0905787572
 72
     1
 10
144.5001479913
 20
378.0905787572
 11
144.5001479913
 21
375.5905787572
 72
     1
 10
144.5001479913
 20
375.5905787572
 11
145.6548479913
 21
373.5905787572
 72
     1
 10
145.6548479913
 20
373.5905787572
 11
152.5001479913
 21
373.5905787572
 72
     1
 10
152.5001479913
 20
373.5905787572
 11
152.54001483557
 21
373.987917418766
 72
     1
 10
152.54001483557
 20
373.987917418766
 11
152.658026003247
 21
374.369415441794
 72
     1
 10
152.658026003247
 20
374.369415441794
 11
152.849476761433
 21
374.719863703966
 72
     1
 10
152.849476761433
 20
374.719863703966
 11
153.106734572558
 21
375.025290938975
 72
     1
 10
153.106734572558
 20
375.025290938975
 11
153.419543379516
 21
375.273520726792
 72
     1
 10
153.419543379516
 20
375.273520726792
 11
153.775432482299
 21
375.454656929111
 72
     1
 10
153.775432482299
 20
375.454656929111
 11
154.160213705452
 21
375.561478217153
 72
     1
 10
154.160213705452
 20
375.561478217153
 11
154.5001479913
 21
375.5905787572
 97
        0
 75
     1
 76
     2
 52
0.0
 41
1.0
 77
     0
 78
     1
 53
44.99999999999998
 43
0.0
 44
0.0
 45
-4.490128060534577
 46
0.0000000000000018
 79
     0
 98
        1
 10
0.0
 20
0.0
  0
HATCH
  5
25C
330
45
100
AcDbEntity
  8
0
  6
Continuous
 62
     7
100
AcDbHatch
 10
0.0
 20
0.0
 30
0.0
210
0.0
220
0.0
230
1.0
  2
CUSTOM4
 70
     0
 71
     0
 91
        1
 92
        1
 93
       22
 72
     1
 10
286.5001479913
 20
375.5905787572
 11
289.0001479913
 21
375.5905787572
 72
     1
 10
289.0001479913
 20
375.5905787572
 11
289.397486652843
 21
375.550711912859
 72
     1
 10
289.397486652843
 20
375.550711912859
 11
289.77898467587
 21
375.432700745182
 72
     1
 10
289.77898467587
 20
375.432700745182
 11
290.129432938043
 21
375.241249986996
 72
     1
 10
290.129432938043
 20
375.241249986996
 11
290.434860173051
 21
374.983992175871
 72
     1
 10
290.434860173051
 20
374.983992175871
 11
290.683089960868
 21
374.671183368912
 72
     1
 10
290.683089960868
 20
374.671183368912
 11
290.864226163187
 21
374.31529426613
 72
     1
 10
290.864226163187
 20
374.31529426613
 11
290.971047451229
 21
373.930513042977
 72
     1
 10
290.971047451229
 20
373.930513042977
 11
291.0001479913
 21
373.5905787572
 72
     1
 10
291.0001479913
 20
373.5905787572
 11
297.8454479913
 21
373.5905787572
 72
     1
 10
297.8454479913
 20
373.5905787572
 11
299.0001479913
 21
375.5905787572
 72
     1
 10
299.0001479913
 20
375.5905787572
 11
299.0001479913
 21
378.0905787572
 72
     1
 10
299.0001479913
 20
378.0905787572
 11
288.5001479913
 21
378.0905787572
 72
     1
 10
288.5001479913
 20
378.0905787572
 11
288.102809329662
 21
378.050711912859
 72
     1
 10
288.102809329662
 20
378.050711912859
 11
287.721311306635
 21
377.932700745182
 72
     1
 10
287.721311306635
 20
377.932700745182
 11
287.370863044462
 21
377.741249986996
 72
     1
 10
287.370863044462
 20
377.741249986996
 11
287.065435809453
 21
377.483992175871
 72
     1
 10
287.065435809453
 20
377.483992175871
 11
286.817206021637
 21
377.171183368913
 72
     1
 10
286.817206021637
 20
377.171183368913
 11
286.636069819318
 21
376.81529426613
 72
     1
 10
286.636069819318
 20
376.81529426613
 11
286.529248531275
 21
376.430513042977
 72
     1
 10
286.529248531275
 20
376.430513042977
 11
286.5001479913
 21
376.0905787572
 72
     1
 10
286.5001479913
 20
376.0905787572
 11
286.5001479913
 21
375.5905787572
 97
        0
 75
     1
 76
     2
 52
0.0
 41
1.0
 77
     0
 78
     1
 53
44.99999999999998
 43
0.0
 44
0.0
 45
-4.490128060534577
 46
0.0000000000000018
 79
     0
 98
        1
 10
0.0
 20
0.0
  0
HATCH
  5
25D
330
45
100
AcDbEntity
  8
0
  6
Continuous
 62
     7
100
AcDbHatch
 10
0.0
 20
0.0
 30
0.0
210
0.0
220
0.0
230
1.0
  2
CUSTOM5
 70
     0
 71
     0
 91
        1
 92
        1
 93
       13
 72
     1
 10
43.7501479913
 20
408.3890079988
 11
43.3528093296623
 21
408.349141154514
 72
     1
 10
43.3528093296623
 20
408.349141154514
 11
42.9713113066352
 21
408.231129986837
 72
     1
 10
42.9713113066352
 20
408.231129986837
 11
42.6208630444624
 21
408.039679228651
 72
     1
 10
42.6208630444624
 20
408.039679228651
 11
42.3154358094534
 21
407.782421417525
 72
     1
 10
42.3154358094534
 20
407.782421417525
 11
42.0672060216367
 21
407.469612610567
 72
     1
 10
42.0672060216367
 20
407.469612610567
 11
41.886069819318
 21
407.113723507785
 72
     1
 10
41.886069819318
 20
407.113723507785
 11
41.7792485312755
 21
406.728942284632
 72
     1
 10
41.7792485312755
 20
406.728942284632
 11
41.7501479913
 21
406.3890079988
 72
     1
 10
41.7501479913
 20
406.3890079988
 11
41.7501479913
 21
404.8890778855
 72
     1
 10
41.7501479913
 20
404.8890778855
 11
53.7501479913
 21
404.8890778855
 72
     1
 10
53.7501479913
 20
404.8890778855
 11
53.7501479913
 21
406.3890079988
 72
     1
 10
53.7501479913
 20
406.3890079988
 11
51.7501479913
 21
408.3890079988
 72
     1
 10
51.7501479913
 20
408.3890079988
 11
43.7501479913
 21
408.3890079988
 97
        0
 75
     1
 76
     2
 52
0.0
 41
1.0
 77
     0
 78
     4
 53
44.99999999999998
 43
0.0
 44
0.0
 45
-26.94076836320746
 46
0.0000000000000107
 79
     0
 53
44.99999999999998
 43
2.245064999999998
 44
-2.245064999999999
 45
-26.94076836320746
 46
0.0000000000000107
 79
     0
 53
44.99999999999998
 43
4.490129999999995
 44
-4.490129999999997
 45
-26.94076836320746
 46
0.0000000000000107
 79
     0
 53
44.99999999999998
 43
6.735199999999998
 44
-6.735200000000002
 45
-26.94076836320746
 46
0.0000000000000107
 79
     0
 98
        1
 10
0.0
 20
0.0
  0
HATCH
  5
25E
330
45
100
AcDbEntity
  8
0
  6
Continuous
 62
     7
100
AcDbHatch
 10
0.0
 20
0.0
 30
0.0
210
0.0
220
0.0
230
1.0
  2
CUSTOM6
 70
     0
 71
     0
 91
        1
 92
        1
 93
       71
 72
     1
 10
151.3501479913
 20
373.5905787572
 11
144.7501479913
 21
373.5905787572
 72
     1
 10
144.7501479913
 20
373.5905787572
 11
144.7501479913
 21
378.1890878855
 72
     1
 10
144.7501479913
 20
378.1890878855
 11
146.2501479913
 21
379.1890878855
 72
     1
 10
146.2501479913
 20
379.1890878855
 11
146.2501479913
 21
383.4460067572
 72
     1
 10
146.2501479913
 20
383.4460067572
 11
147.0000596274
 21
383.8890878855
 72
     1
 10
147.0000596274
 20
383.8890878855
 11
147.0000596274
 21
384.7890878855
 72
     1
 10
147.0000596274
 20
384.7890878855
 11
143.0001980452
 21
391.6909203188
 72
     1
 10
143.0001980452
 20
391.6909203188
 11
143.0001509888
 21
407.3890109965
 72
     1
 10
143.0001509888
 20
407.3890109965
 11
142.980216971127
 21
407.587680267528
 72
     1
 10
142.980216971127
 20
407.587680267528
 11
142.921210815489
 21
407.778429102162
 72
     1
 10
142.921210815489
 20
407.778429102162
 11
142.825484911134
 21
407.953652946296
 72
     1
 10
142.825484911134
 20
407.953652946296
 11
142.696855547789
 21
408.106366178214
 72
     1
 10
142.696855547789
 20
408.106366178214
 11
142.540450772257
 21
408.230480603276
 72
     1
 10
142.540450772257
 20
408.230480603276
 11
142.362505949375
 21
408.321048171018
 72
     1
 10
142.362505949375
 20
408.321048171018
 11
142.170115177692
 21
408.374458238318
 72
     1
 10
142.170115177692
 20
408.374458238318
 11
142.0001509888
 21
408.3890079988
 72
     1
 10
142.0001509888
 20
408.3890079988
 11
59.7501479913
 21
408.3890079988
 72
     1
 10
59.7501479913
 20
408.3890079988
 11
57.7501479913
 21
406.3890079988
 72
     1
 10
57.7501479913
 20
406.3890079988
 11
57.7501479913
 21
404.8890778855
 72
     1
 10
57.7501479913
 20
404.8890778855
 11
139.5001479913
 21
404.8890778855
 72
     1
 10
139.5001479913
 20
404.8890778855
 11
139.5001669913
 21
390.7890878855
 72
     1
 10
139.5001669913
 20
390.7890878855
 11
141.6501479913
 21
386.9890878855
 72
     1
 10
141.6501479913
 20
386.9890878855
 11
141.6501479913
 21
322.3890898855
 72
     1
 10
141.6501479913
 20
322.3890898855
 11
144.5001479913
 21
322.3890898855
 72
     1
 10
144.5001479913
 20
322.3890898855
 11
145.1501479913
 21
370.0910298855
 72
     1
 10
145.1501479913
 20
370.0910298855
 11
148.8501479913
 21
370.0910298855
 72
     1
 10
148.8501479913
 20
370.0910298855
 11
148.8501479913
 21
363.3890878855
 72
     1
 10
148.8501479913
 20
363.3890878855
 11
148.899981546649
 21
362.892414558531
 72
     1
 10
148.899981546649
 20
362.892414558531
 11
149.047495506245
 21
362.415542029747
 72
     1
 10
149.047495506245
 20
362.415542029747
 11
149.286808953978
 21
361.977481702031
 72
     1
 10
149.286808953978
 20
361.977481702031
 11
149.608381217885
 21
361.59569765827
 72
     1
 10
149.608381217885
 20
361.59569765827
 11
149.999392226582
 21
361.285410423499
 72
     1
 10
149.999392226582
 20
361.285410423499
 11
150.444253605061
 21
361.0589901706
 72
     1
 10
150.444253605061
 20
361.0589901706
 11
150.925230134002
 21
360.925463560547
 72
     1
 10
150.925230134002
 20
360.925463560547
 11
151.3501479913
 21
360.8890878855
 72
     1
 10
151.3501479913
 20
360.8890878855
 11
154.7501479913
 21
360.8890878855
 72
     1
 10
154.7501479913
 20
360.8890878855
 11
154.7501479913
 21
321.3890898855
 72
     1
 10
154.7501479913
 20
321.3890898855
 11
164.7501479913
 21
321.3890898855
 72
     1
 10
164.7501479913
 20
321.3890898855
 11
166.7501479913
 21
321.1390878855
 72
     1
 10
166.7501479913
 20
321.1390878855
 11
166.7501479913
 21
253.3890878855
 72
     1
 10
166.7501479913
 20
253.3890878855
 11
168.0898939534
 21
248.3890878855
 72
     1
 10
168.0898939534
 20
248.3890878855
 11
170.2501479913
 21
248.3890878855
 72
     1
 10
170.2501479913
 20
248.3890878855
 11
170.2501479913
 21
324.888638328
 72
     1
 10
170.2501479913
 20
324.888638328
 11
158.2501479913
 21
324.888638328
 72
     1
 10
158.2501479913
 20
324.888638328
 11
158.2501479913
 21
363.3890878855
 72
     1
 10
158.2501479913
 20
363.3890878855
 11
158.230214569094
 21
363.587757216313
 72
     1
 10
158.230214569094
 20
363.587757216313
 11
158.171208985255
 21
363.778506227827
 72
     1
 10
158.171208985255
 20
363.778506227827
 11
158.075483606162
 21
363.953730358913
 72
     1
 10
158.075483606162
 20
363.953730358913
 11
157.9468547006
 21
364.106443976418
 72
     1
 10
157.9468547006
 20
364.106443976418
 11
157.790450297121
 21
364.230558870326
 72
     1
 10
157.790450297121
 20
364.230558870326
 11
157.612505745729
 21
364.321126971486
 72
     1
 10
157.612505745729
 20
364.321126971486
 11
157.420115134153
 21
364.374537615507
 72
     1
 10
157.420115134153
 20
364.374537615507
 11
157.2501479913
 21
364.3890878855
 72
     1
 10
157.2501479913
 20
364.3890878855
 11
153.3501479913
 21
364.3890878855
 72
     1
 10
153.3501479913
 20
364.3890878855
 11
153.151478660457
 21
364.409021307677
 72
     1
 10
153.151478660457
 20
364.409021307677
 11
152.960729648944
 21
364.468026891516
 72
     1
 10
152.960729648944
 20
364.468026891516
 11
152.785505517857
 21
364.563752270609
 72
     1
 10
152.785505517857
 20
364.563752270609
 11
152.632791900353
 21
364.692381176171
 72
     1
 10
152.632791900353
 20
364.692381176171
 11
152.508677006445
 21
364.84878557965
 72
     1
 10
152.508677006445
 20
364.84878557965
 11
152.418108905285
 21
365.026730131042
 72
     1
 10
152.418108905285
 20
365.026730131042
 11
152.364698261264
 21
365.219120742618
 72
     1
 10
152.364698261264
 20
365.219120742618
 11
152.3501479913
 21
365.3890878855
 72
     1
 10
152.3501479913
 20
365.3890878855
 11
152.3501479913
 21
372.5905787572
 72
     1
 10
152.3501479913
 20
372.5905787572
 11
152.330214569094
 21
372.789248087971
 72
     1
 10
152.330214569094
 20
372.789248087971
 11
152.271208985255
 21
372.979997099485
 72
     1
 10
152.271208985255
 20
372.979997099485
 11
152.175483606162
 21
373.155221230571
 72
     1
 10
152.175483606162
 20
373.155221230571
 11
152.0468547006
 21
373.307934848076
 72
     1
 10
152.0468547006
 20
373.307934848076
 11
151.890450297121
 21
373.432049741984
 72
     1
 10
151.890450297121
 20
373.432049741984
 11
151.712505745729
 21
373.522617843143
 72
     1
 10
151.712505745729
 20
373.522617843143
 11
151.520115134153
 21
373.576028487165
 72
     1
 10
151.520115134153
 20
373.576028487165
 11
151.3501479913
 21
373.5905787572
 97
        0
 75
     1
 76
     2
 52
0.0
 41
1.0
 77
     0
 78
     4
 53
44.99999999999998
 43
0.0
 44
0.0
 45
-26.94076836320746
 46
0.0000000000000107
 79
     0
 53
44.99999999999998
 43
2.245064999999998
 44
-2.245064999999999
 45
-26.94076836320746
 46
0.0000000000000107
 79
     0
 53
44.99999999999998
 43
4.490129999999995
 44
-4.490129999999997
 45
-26.94076836320746
 46
0.0000000000000107
 79
     0
 53
44.99999999999998
 43
6.735199999999998
 44
-6.735200000000002
 45
-26.94076836320746
 46
0.0000000000000107
 79
     0
 98
        1
 10
0.0
 20
0.0
  0
HATCH
  5
25F
330
45
100
AcDbEntity
  8
0
  6
Continuous
 62
     7
100
AcDbHatch
 10
0.0
 20
0.0
 30
0.0
210
0.0
220
0.0
230
1.0
  2
CUSTOM7
 70
     0
 71
     0
 91
        1
 92
        1
 93
       71
 72
     1
 10
297.2501479913
 20
379.1890878855
 11
298.7501479913
 21
378.1890878855
 72
     1
 10
298.7501479913
 20
378.1890878855
 11
298.7501479913
 21
373.5905787572
 72
     1
 10
298.7501479913
 20
373.5905787572
 11
292.1501479913
 21
373.5905787572
 72
     1
 10
292.1501479913
 20
373.5905787572
 11
291.951478660457
 21
373.570645335017
 72
     1
 10
291.951478660457
 20
373.570645335017
 11
291.760729648944
 21
373.511639751179
 72
     1
 10
291.760729648944
 20
373.511639751179
 11
291.585505517857
 21
373.415914372086
 72
     1
 10
291.585505517857
 20
373.415914372086
 11
291.432791900353
 21
373.287285466523
 72
     1
 10
291.432791900353
 20
373.287285466523
 11
291.308677006445
 21
373.130881063044
 72
     1
 10
291.308677006445
 20
373.130881063044
 11
291.218108905285
 21
372.952936511653
 72
     1
 10
291.218108905285
 20
372.952936511653
 11
291.164698261264
 21
372.760545900076
 72
     1
 10
291.164698261264
 20
372.760545900076
 11
291.1501479913
 21
372.5905787572
 72
     1
 10
291.1501479913
 20
372.5905787572
 11
291.1501479913
 21
365.3890878855
 72
     1
 10
291.1501479913
 20
365.3890878855
 11
291.130214569094
 21
365.190418554723
 72
     1
 10
291.130214569094
 20
365.190418554723
 11
291.071208985255
 21
364.99966954321
 72
     1
 10
291.071208985255
 20
364.99966954321
 11
290.975483606162
 21
364.824445412123
 72
     1
 10
290.975483606162
 20
364.824445412123
 11
290.8468547006
 21
364.671731794619
 72
     1
 10
290.8468547006
 20
364.671731794619
 11
290.690450297121
 21
364.547616900711
 72
     1
 10
290.690450297121
 20
364.547616900711
 11
290.512505745729
 21
364.457048799551
 72
     1
 10
290.512505745729
 20
364.457048799551
 11
290.320115134153
 21
364.40363815553
 72
     1
 10
290.320115134153
 20
364.40363815553
 11
290.1501479913
 21
364.3890878855
 72
     1
 10
290.1501479913
 20
364.3890878855
 11
286.2501479913
 21
364.3890878855
 72
     1
 10
286.2501479913
 20
364.3890878855
 11
286.051478660457
 21
364.36915446336
 72
     1
 10
286.051478660457
 20
364.36915446336
 11
285.860729648944
 21
364.310148879521
 72
     1
 10
285.860729648944
 20
364.310148879521
 11
285.685505517857
 21
364.214423500428
 72
     1
 10
285.685505517857
 20
364.214423500428
 11
285.532791900353
 21
364.085794594866
 72
     1
 10
285.532791900353
 20
364.085794594866
 11
285.408677006445
 21
363.929390191387
 72
     1
 10
285.408677006445
 20
363.929390191387
 11
285.318108905285
 21
363.751445639995
 72
     1
 10
285.318108905285
 20
363.751445639995
 11
285.264698261264
 21
363.559055028419
 72
     1
 10
285.264698261264
 20
363.559055028419
 11
285.2501479913
 21
363.3890878855
 72
     1
 10
285.2501479913
 20
363.3890878855
 11
285.2501479913
 21
324.888638328
 72
     1
 10
285.2501479913
 20
324.888638328
 11
273.2501479913
 21
324.888638328
 72
     1
 10
273.2501479913
 20
324.888638328
 11
273.2501479913
 21
248.3890878855
 72
     1
 10
273.2501479913
 20
248.3890878855
 11
275.4104020291
 21
248.3890878855
 72
     1
 10
275.4104020291
 20
248.3890878855
 11
276.7501479913
 21
253.3890878855
 72
     1
 10
276.7501479913
 20
253.3890878855
 11
276.7501479913
 21
321.1390878855
 72
     1
 10
276.7501479913
 20
321.1390878855
 11
278.7501479913
 21
321.3890898855
 72
     1
 10
278.7501479913
 20
321.3890898855
 11
288.7501479913
 21
321.3890898855
 72
     1
 10
288.7501479913
 20
321.3890898855
 11
288.7501479913
 21
360.8890878855
 72
     1
 10
288.7501479913
 20
360.8890878855
 11
292.1501479913
 21
360.8890878855
 72
     1
 10
292.1501479913
 20
360.8890878855
 11
292.64682131824
 21
360.938921440915
 72
     1
 10
292.64682131824
 20
360.938921440915
 11
293.123693847024
 21
361.086435400511
 72
     1
 10
293.123693847024
 20
361.086435400511
 11
293.56175417474
 21
361.325748848244
 72
     1
 10
293.56175417474
 20
361.325748848244
 11
293.943538218501
 21
361.647321112151
 72
     1
 10
293.943538218501
 20
361.647321112151
 11
294.253825453272
 21
362.038332120848
 72
     1
 10
294.253825453272
 20
362.038332120848
 11
294.480245706171
 21
362.483193499327
 72
     1
 10
294.480245706171
 20
362.483193499327
 11
294.613772316224
 21
362.964170028268
 72
     1
 10
294.613772316224
 20
362.964170028268
 11
294.6501479913
 21
363.3890878855
 72
     1
 10
294.6501479913
 20
363.3890878855
 11
294.6501479913
 21
370.0910298855
 72
     1
 10
294.6501479913
 20
370.0910298855
 11
298.3501479913
 21
370.0910298855
 72
     1
 10
298.3501479913
 20
370.0910298855
 11
299.0001479913
 21
322.3890898855
 72
     1
 10
299.0001479913
 20
322.3890898855
 11
301.8501479913
 21
322.3890898855
 72
     1
 10
301.8501479913
 20
322.3890898855
 11
301.8501479913
 21
386.9890878855
 72
     1
 10
301.8501479913
 20
386.9890878855
 11
304.0001289913
 21
390.7890878855
 72
     1
 10
304.0001289913
 20
390.7890878855
 11
304.0001479913
 21
404.8890778855
 72
     1
 10
304.0001479913
 20
404.8890778855
 11
385.7501479913
 21
404.8890778855
 72
     1
 10
385.7501479913
 20
404.8890778855
 11
385.7501479913
 21
406.3890079988
 72
     1
 10
385.7501479913
 20
406.3890079988
 11
383.7501479913
 21
408.3890079988
 72
     1
 10
383.7501479913
 20
408.3890079988
 11
301.5001449937
 21
408.3890079988
 72
     1
 10
301.5001449937
 20
408.3890079988
 11
301.301475662878
 21
408.369074576672
 72
     1
 10
301.301475662878
 20
408.369074576672
 11
301.110726651364
 21
408.310068992834
 72
     1
 10
301.110726651364
 20
408.310068992834
 11
300.935502520278
 21
408.214343613741
 72
     1
 10
300.935502520278
 20
408.214343613741
 11
300.782788902774
 21
408.085714708178
 72
     1
 10
300.782788902774
 20
408.085714708178
 11
300.658674008865
 21
407.929310304699
 72
     1
 10
300.658674008865
 20
407.929310304699
 11
300.568105907706
 21
407.751365753308
 72
     1
 10
300.568105907706
 20
407.751365753308
 11
300.514695263685
 21
407.558975141731
 72
     1
 10
300.514695263685
 20
407.558975141731
 11
300.5001449937
 21
407.3890109965
 72
     1
 10
300.5001449937
 20
407.3890109965
 11
300.5000979373
 21
391.6909203188
 72
     1
 10
300.5000979373
 20
391.6909203188
 11
296.5002363551
 21
384.7890878855
 72
     1
 10
296.5002363551
 20
384.7890878855
 11
296.5002363551
 21
383.8890878855
 72
     1
 10
296.5002363551
 20
383.8890878855
 11
297.2501479913
 21
383.4460067572
 72
     1
 10
297.2501479913
 20
383.4460067572
 11
297.2501479913
 21
379.1890878855
 97
        0
 75
     1
 76
     2
 52
0.0
 41
1.0
 77
     0
 78
     4
 53
44.99999999999998
 43
0.0
 44
0.0
 45
-26.94076836320746
 46
0.0000000000000107
 79
     0
 53
44.99999999999998
 43
2.245064999999998
 44
-2.245064999999999
 45
-26.94076836320746
 46
0.0000000000000107
 79
     0
 53
44.99999999999998
 43
4.490129999999995
 44
-4.490129999999997
 45
-26.94076836320746
 46
0.0000000000000107
 79
     0
 53
44.99999999999998
 43
6.735199999999998
 44
-6.735200000000002
 45
-26.94076836320746
 46
0.0000000000000107
 79
     0
 98
        1
 10
0.0
 20
0.0
  0
HATCH
  5
260
330
45
100
AcDbEntity
  8
0
  6
Continuous
 62
     7
100
AcDbHatch
 10
0.0
 20
0.0
 30
0.0
210
0.0
220
0.0
230
1.0
  2
CUSTOM8
 70
     0
 71
     0
 91
        1
 92
        1
 93
       13
 72
     1
 10
389.7501479913
 20
404.8890778855
 11
401.7501479913
 21
404.8890778855
 72
     1
 10
401.7501479913
 20
404.8890778855
 11
401.7501479913
 21
406.3890079988
 72
     1
 10
401.7501479913
 20
406.3890079988
 11
401.710281146935
 21
406.786346660421
 72
     1
 10
401.710281146935
 20
406.786346660421
 11
401.592269979258
 21
407.167844683448
 72
     1
 10
401.592269979258
 20
407.167844683448
 11
401.400819221072
 21
407.518292945621
 72
     1
 10
401.400819221072
 20
407.518292945621
 11
401.143561409947
 21
407.82372018063
 72
     1
 10
401.143561409947
 20
407.82372018063
 11
400.830752602989
 21
408.071949968447
 72
     1
 10
400.830752602989
 20
408.071949968447
 11
400.474863500206
 21
408.253086170766
 72
     1
 10
400.474863500206
 20
408.253086170766
 11
400.090082277053
 21
408.359907458808
 72
     1
 10
400.090082277053
 20
408.359907458808
 11
399.7501479913
 21
408.3890079988
 72
     1
 10
399.7501479913
 20
408.3890079988
 11
391.7501479913
 21
408.3890079988
 72
     1
 10
391.7501479913
 20
408.3890079988
 11
389.7501479913
 21
406.3890079988
 72
     1
 10
389.7501479913
 20
406.3890079988
 11
389.7501479913
 21
404.8890778855
 97
        0
 75
     1
 76
     2
 52
0.0
 41
1.0
 77
     0
 78
     4
 53
44.99999999999998
 43
0.0
 44
0.0
 45
-26.94076836320746
 46
0.0000000000000107
 79
     0
 53
44.99999999999998
 43
2.245064999999998
 44
-2.245064999999999
 45
-26.94076836320746
 46
0.0000000000000107
 79
     0
 53
44.99999999999998
 43
4.490129999999995
 44
-4.490129999999997
 45
-26.94076836320746
 46
0.0000000000000107
 79
     0
 53
44.99999999999998
 43
6.735199999999998
 44
-6.735200000000002
 45
-26.94076836320746
 46
0.0000000000000107
 79
     0
 98
        1
 10
0.0
 20
0.0
  0
ENDBLK
  5
47
330
45
100
AcDbEntity
  8
0
100
AcDbBlockEnd
  0
BLOCK
  5
21D
330
215
100
AcDbEntity
  8
0
100
AcDbBlockBegin
  2
*D2
 70
     1
 10
0.0
 20
0.0
 30
0.0
  3
*D2
  1

  0
LINE
  5
216
330
215
100
AcDbEntity
  8
1
  6
Continuous
 62
     4
100
AcDbLine
 10
6.44083077722826
 20
408.3890079988
 30
0.0
 11
6.44083077722826
 21
248.3890878855
 31
0.0
  0
LINE
  5
217
330
215
100
AcDbEntity
  8
1
  6
Continuous
 62
     4
100
AcDbLine
 10
168.0898939534001
 20
248.3890878855
 30
0.0
 11
4.44083077722826
 21
248.3890878855
 31
0.0
  0
LINE
  5
218
330
215
100
AcDbEntity
  8
1
  6
Continuous
 62
     4
100
AcDbLine
 10
43.7501479913
 20
408.3890079988
 30
0.0
 11
4.44083077722826
 21
408.3890079988
 31
0.0
  0
SOLID
  5
219
330
215
100
AcDbEntity
  8
1
 62
     4
100
AcDbTrace
 10
7.36239826034003
 20
401.3890079988
 30
0.0
 11
5.51926329411649
 21
401.3890079988
 31
0.0
 12
6.44083077722826
 22
408.3890079988
 32
0.0
 13
6.44083077722826
 23
408.3890079988
 33
0.0
  0
SOLID
  5
21A
330
215
100
AcDbEntity
  8
1
 62
     4
100
AcDbTrace
 10
5.51926329411649
 20
255.3890878855
 30
0.0
 11
7.36239826034003
 21
255.3890878855
 31
0.0
 12
6.44083077722826
 22
248.3890878855
 32
0.0
 13
6.44083077722826
 23
248.3890878855
 33
0.0
  0
MTEXT
  5
21C
330
215
100
AcDbEntity
  8
1
 62
     1
100
AcDbMText
 10
4.44083077722826
 20
325.774653464936
 30
0.0
 40
7.0
 41
0.0
 71
     7
 72
     1
  1
160
  7
CONVERTER_11
 11
0.0
 21
1.0
 31
0.0
 73
     1
 44
0.60024009603842
  0
ENDBLK
  5
21E
330
215
100
AcDbEntity
  8
0
100
AcDbBlockEnd
  0
BLOCK
  5
228
330
221
100
AcDbEntity
  8
0
100
AcDbBlockBegin
  2
*D3
 70
     1
 10
0.0
 20
0.0
 30
0.0
  3
*D3
  1

  0
LINE
  5
222
330
221
100
AcDbEntity
  8
1
  6
Continuous
 62
     4
100
AcDbLine
 10
26.4909594143198
 20
408.3890079988
 30
0.0
 11
26.4909594143198
 21
312.3890898855
 31
0.0
  0
LINE
  5
223
330
221
100
AcDbEntity
  8
1
  6
Continuous
 62
     4
100
AcDbLine
 10
149.7501479913
 20
312.3890898855
 30
0.0
 11
24.4909594143198
 21
312.3890898855
 31
0.0
  0
LINE
  5
224
330
221
100
AcDbEntity
  8
1
  6
Continuous
 62
     4
100
AcDbLine
 10
43.7501479913
 20
408.3890079988
 30
0.0
 11
24.4909594143198
 21
408.3890079988
 31
0.0
  0
SOLID
  5
225
330
221
100
AcDbEntity
  8
1
 62
     4
100
AcDbTrace
 10
27.41252689743157
 20
401.3890079988
 30
0.0
 11
25.56939193120803
 21
401.3890079988
 31
0.0
 12
26.4909594143198
 22
408.3890079988
 32
0.0
 13
26.4909594143198
 23
408.3890079988
 33
0.0
  0
SOLID
  5
226
330
221
100
AcDbEntity
  8
1
 62
     4
100
AcDbTrace
 10
25.56939193120803
 20
319.3890898855
 30
0.0
 11
27.41252689743157
 21
319.3890898855
 31
0.0
 12
26.4909594143198
 22
312.3890898855
 32
0.0
 13
26.4909594143198
 23
312.3890898855
 33
0.0
  0
MTEXT
  5
227
330
221
100
AcDbEntity
  8
1
 62
     1
100
AcDbMText
 10
24.4909594143198
 20
355.859843929
 30
0.0
 40
7.0
 41
0.0
 71
     7
 72
     1
  1
96
  7
CONVERTER_11
 11
0.0
 21
1.0
 31
0.0
 73
     1
 44
0.60024009603842
  0
ENDBLK
  5
229
330
221
100
AcDbEntity
  8
0
100
AcDbBlockEnd
  0
BLOCK
  5
233
330
22C
100
AcDbEntity
  8
0
100
AcDbBlockBegin
  2
*D4
 70
     1
 10
0.0
 20
0.0
 30
0.0
  3
*D4
  1

  0
LINE
  5
22D
330
22C
100
AcDbEntity
  8
1
  6
Continuous
 62
     4
100
AcDbLine
 10
123.125359139536
 20
483.3890139988
 30
0.0
 11
123.125359139536
 21
408.3890079988
 31
0.0
  0
LINE
  5
22E
330
22C
100
AcDbEntity
  8
1
  6
Continuous
 62
     4
100
AcDbLine
 10
142.0001509888
 20
408.3890079988
 30
0.0
 11
121.125359139536
 21
408.3890079988
 31
0.0
  0
LINE
  5
22F
330
22C
100
AcDbEntity
  8
1
  6
Continuous
 62
     4
100
AcDbLine
 10
173.3015660875
 20
483.3890139988
 30
0.0
 11
121.125359139536
 21
483.3890139988
 31
0.0
  0
SOLID
  5
230
330
22C
100
AcDbEntity
  8
1
 62
     4
100
AcDbTrace
 10
124.0469266226478
 20
476.3890139988
 30
0.0
 11
122.2037916564242
 21
476.3890139988
 31
0.0
 12
123.125359139536
 22
483.3890139988
 32
0.0
 13
123.125359139536
 23
483.3890139988
 33
0.0
  0
SOLID
  5
231
330
22C
100
AcDbEntity
  8
1
 62
     4
100
AcDbTrace
 10
122.2037916564242
 20
415.3890079988
 30
0.0
 11
124.0469266226478
 21
415.3890079988
 31
0.0
 12
123.125359139536
 22
408.3890079988
 32
0.0
 13
123.125359139536
 23
408.3890079988
 33
0.0
  0
MTEXT
  5
232
330
22C
100
AcDbEntity
  8
1
 62
     1
100
AcDbMText
 10
121.125359139536
 20
435.7436962307
 30
0.0
 40
7.0
 41
0.0
 71
     7
 72
     1
  1
75
  7
CONVERTER_11
 11
0.0
 21
1.0
 31
0.0
 73
     1
 44
0.60024009603842
  0
ENDBLK
  5
234
330
22C
100
AcDbEntity
  8
0
100
AcDbBlockEnd
  0
BLOCK
  5
23E
330
237
100
AcDbEntity
  8
0
100
AcDbBlockBegin
  2
*D5
 70
     1
 10
0.0
 20
0.0
 30
0.0
  3
*D5
  1

  0
LINE
  5
238
330
237
100
AcDbEntity
  8
1
  6
Continuous
 62
     4
100
AcDbLine
 10
141.6501479913
 20
215.699409420208
 30
0.0
 11
301.8501479913
 21
215.699409420208
 31
0.0
  0
LINE
  5
239
330
237
100
AcDbEntity
  8
1
  6
Continuous
 62
     4
100
AcDbLine
 10
301.8501479913
 20
322.3890898855
 30
0.0
 11
301.8501479913
 21
213.699409420208
 31
0.0
  0
LINE
  5
23A
330
237
100
AcDbEntity
  8
1
  6
Continuous
 62
     4
100
AcDbLine
 10
141.6501479913
 20
322.3890898855
 30
0.0
 11
141.6501479913
 21
213.699409420208
 31
0.0
  0
SOLID
  5
23B
330
237
100
AcDbEntity
  8
1
 62
     4
100
AcDbTrace
 10
148.6501479913
 20
216.6209769033198
 30
0.0
 11
148.6501479913
 21
214.7778419370962
 31
0.0
 12
141.6501479913
 22
215.699409420208
 32
0.0
 13
141.6501479913
 23
215.699409420208
 33
0.0
  0
SOLID
  5
23C
330
237
100
AcDbEntity
  8
1
 62
     4
100
AcDbTrace
 10
294.8501479913
 20
214.7778419370962
 30
0.0
 11
294.8501479913
 21
216.6209769033198
 31
0.0
 12
301.8501479913
 22
215.699409420208
 32
0.0
 13
301.8501479913
 23
215.699409420208
 33
0.0
  0
MTEXT
  5
23D
330
237
100
AcDbEntity
  8
1
 62
     1
100
AcDbMText
 10
196.0353604067357
 20
217.6993815919027
 30
0.0
 40
7.0
 41
0.0
 71
     7
 72
     1
  1
\C1;%%c\C1;160
  7
CONVERTER_11
 11
0.9999999999970619
 21
2.424068405545306E-6
 31
0.0
 73
     1
 44
0.60024009603842
  0
ENDBLK
  5
23F
330
237
100
AcDbEntity
  8
0
100
AcDbBlockEnd
  0
BLOCK
  5
249
330
242
100
AcDbEntity
  8
0
100
AcDbBlockBegin
  2
*D6
 70
     1
 10
0.0
 20
0.0
 30
0.0
  3
*D6
  1

  0
LINE
  5
243
330
242
100
AcDbEntity
  8
1
  6
Continuous
 62
     4
100
AcDbLine
 10
166.7501479913
 20
230.163941266958
 30
0.0
 11
276.7501479913
 21
230.163941266958
 31
0.0
  0
LINE
  5
244
330
242
100
AcDbEntity
  8
1
  6
Continuous
 62
     4
100
AcDbLine
 10
276.7501479913
 20
253.3890878855
 30
0.0
 11
276.7501479913
 21
228.163941266958
 31
0.0
  0
LINE
  5
245
330
242
100
AcDbEntity
  8
1
  6
Continuous
 62
     4
100
AcDbLine
 10
166.7501479913
 20
253.3890878855
 30
0.0
 11
166.7501479913
 21
228.163941266958
 31
0.0
  0
SOLID
  5
246
330
242
100
AcDbEntity
  8
1
 62
     4
100
AcDbTrace
 10
173.7501479913
 20
231.0855087500698
 30
0.0
 11
173.7501479913
 21
229.2423737838462
 31
0.0
 12
166.7501479913
 22
230.163941266958
 32
0.0
 13
166.7501479913
 23
230.163941266958
 33
0.0
  0
SOLID
  5
247
330
242
100
AcDbEntity
  8
1
 62
     4
100
AcDbTrace
 10
269.7501479913
 20
229.2423737838462
 30
0.0
 11
269.7501479913
 21
231.0855087500698
 31
0.0
 12
276.7501479913
 22
230.163941266958
 32
0.0
 13
276.7501479913
 23
230.163941266958
 33
0.0
  0
MTEXT
  5
248
330
242
100
AcDbEntity
  8
1
 62
     1
100
AcDbMText
 10
228.7581353060697
 20
232.1639134386527
 30
0.0
 40
7.0
 41
0.0
 71
     7
 72
     1
  1
\C1;DN\C1;110
  7
CONVERTER_11
 11
0.9999999999970619
 21
2.424068405545306E-6
 31
0.0
 73
     1
 44
0.60024009603842
  0
ENDBLK
  5
24A
330
242
100
AcDbEntity
  8
0
100
AcDbBlockEnd
  0
BLOCK
  5
254
330
24D
100
AcDbEntity
  8
0
100
AcDbBlockBegin
  2
*D7
 70
     1
 10
0.0
 20
0.0
 30
0.0
  3
*D7
  1

  0
LINE
  5
24E
330
24D
100
AcDbEntity
  8
1
  6
Continuous
 62
     4
100
AcDbLine
 10
41.7501479913
 20
496.020425214963
 30
0.0
 11
401.7501479913
 21
496.020425214963
 31
0.0
  0
LINE
  5
24F
330
24D
100
AcDbEntity
  8
1
  6
Continuous
 62
     4
100
AcDbLine
 10
401.7501479913
 20
406.3890079988
 30
0.0
 11
401.7501479913
 21
498.020425214963
 31
0.0
  0
LINE
  5
250
330
24D
100
AcDbEntity
  8
1
  6
Continuous
 62
     4
100
AcDbLine
 10
41.7501479913
 20
406.3890079988
 30
0.0
 11
41.7501479913
 21
498.020425214963
 31
0.0
  0
SOLID
  5
251
330
24D
100
AcDbEntity
  8
1
 62
     4
100
AcDbTrace
 10
48.7501479913
 20
496.9419926980747
 30
0.0
 11
48.7501479913
 21
495.0988577318512
 31
0.0
 12
41.7501479913
 22
496.020425214963
 32
0.0
 13
41.7501479913
 23
496.020425214963
 33
0.0
  0
SOLID
  5
252
330
24D
100
AcDbEntity
  8
1
 62
     4
100
AcDbTrace
 10
394.7501479913
 20
495.0988577318512
 30
0.0
 11
394.7501479913
 21
496.9419926980747
 31
0.0
 12
401.7501479913
 22
496.020425214963
 32
0.0
 13
401.7501479913
 23
496.020425214963
 33
0.0
  0
MTEXT
  5
253
330
24D
100
AcDbEntity
  8
1
 62
     1
100
AcDbMText
 10
213.9452530795057
 20
498.0203973866577
 30
0.0
 40
7.0
 41
0.0
 71
     7
 72
     1
  1
\C1;%%c\C1;360
  7
CONVERTER_11
 11
0.9999999999970619
 21
2.424068405545306E-6
 31
0.0
 73
     1
 44
0.60024009603842
  0
ENDBLK
  5
255
330
24D
100
AcDbEntity
  8
0
100
AcDbBlockEnd
  0
ENDSEC
  0
SECTION
  2
ENTITIES
  0
INSERT
  5
6A
330
1F
100
AcDbEntity
  8
0
100
AcDbBlockReference
  2
HL62P
 10
199.5954893842641
 20
359.3599173175855
 30
0.0
  0
ENDSEC
  0
SECTION
  2
OBJECTS
  0
DICTIONARY
  5
C
330
0
100
AcDbDictionary
281
     1
  3
ACAD_GROUP
350
D
  3
ACAD_LAYOUT
350
1A
  3
ACAD_MLEADERSTYLE
350
263
  3
ACAD_MLINESTYLE
350
17
  3
ACAD_PLOTSETTINGS
350
19
  3
ACAD_PLOTSTYLENAME
350
E
  3
ACAD_SCALELIST
350
48
  3
ACAD_VISUALSTYLE
350
2A
  3
AcDbVariableDictionary
350
261
  0
DICTIONARY
  5
D
102
{ACAD_REACTORS
330
C
102
}
330
C
100
AcDbDictionary
281
     1
  0
DICTIONARY
  5
1A
102
{ACAD_REACTORS
330
C
102
}
330
C
100
AcDbDictionary
281
     1
  3
Layout1
350
1E
  3
Layout2
350
26
  3
Model
350
22
  0
DICTIONARY
  5
263
102
{ACAD_REACTORS
330
C
102
}
330
C
100
AcDbDictionary
281
     1
  0
DICTIONARY
  5
17
102
{ACAD_REACTORS
330
C
102
}
330
C
100
AcDbDictionary
281
     1
  3
Standard
350
18
  0
DICTIONARY
  5
19
102
{ACAD_REACTORS
330
C
102
}
330
C
100
AcDbDictionary
281
     1
  0
ACDBDICTIONARYWDFLT
  5
E
102
{ACAD_REACTORS
330
C
102
}
330
C
100
AcDbDictionary
281
     1
  3
Normal
350
F
100
AcDbDictionaryWithDefault
340
F
  0
DICTIONARY
  5
48
102
{ACAD_REACTORS
330
C
102
}
330
C
100
AcDbDictionary
281
     1
  3
A0
350
49
  3
A1
350
4A
  3
A2
350
4B
  3
A3
350
4C
  3
A4
350
4D
  3
A5
350
4E
  3
A6
350
4F
  3
A7
350
50
  3
A8
350
51
  3
A9
350
52
  3
B0
350
53
  3
B1
350
54
  3
B2
350
55
  3
B3
350
56
  3
B4
350
57
  3
B5
350
58
  3
B6
350
59
  3
B7
350
5A
  3
B8
350
5B
  3
B9
350
5C
  3
C0
350
5D
  3
C1
350
5E
  3
C2
350
5F
  3
C3
350
60
  3
C4
350
61
  3
C5
350
62
  3
C6
350
63
  3
C7
350
64
  3
C8
350
65
  3
C9
350
66
  3
D0
350
67
  3
D1
350
68
  3
D2
350
69
  0
DICTIONARY
  5
2A
102
{ACAD_REACTORS
330
C
102
}
330
C
100
AcDbDictionary
281
     1
  3
2dWireframe
350
2F
  3
3D Hidden
350
31
  3
3dWireframe
350
30
  3
Basic
350
32
  3
Brighten
350
36
  3
ColorChange
350
3A
  3
Conceptual
350
34
  3
Dim
350
35
  3
Facepattern
350
39
  3
Flat
350
2B
  3
FlatWithEdges
350
2C
  3
Gouraud
350
2D
  3
GouraudWithEdges
350
2E
  3
Linepattern
350
38
  3
Realistic
350
33
  3
Thicken
350
37
  0
DICTIONARY
  5
261
102
{ACAD_REACTORS
330
C
102
}
330
C
100
AcDbDictionary
281
     1
  3
CANNOSCALE
350
264
  0
LAYOUT
  5
1E
102
{ACAD_REACTORS
330
1A
102
}
330
1A
100
AcDbPlotSettings
  1

  2
none_device
  4

  6

 40
0.0
 41
0.0
 42
0.0
 43
0.0
 44
0.0
 45
0.0
 46
0.0
 47
0.0
 48
0.0
 49
0.0
140
0.0
141
0.0
142
1.0
143
1.0
 70
   688
 72
     0
 73
     0
 74
     5
  7

 75
    16
147
1.0
148
0.0
149
0.0
100
AcDbLayout
  1
Layout1
 70
     1
 71
     1
 10
0.0
 20
0.0
 11
12.0
 21
9.0
 12
0.0
 22
0.0
 32
0.0
 14
1.00000000000000E+20
 24
1.00000000000000E+20
 34
1.00000000000000E+20
 15
-1.00000000000000E+20
 25
-1.00000000000000E+20
 35
-1.00000000000000E+20
146
0.0
 13
0.0
 23
0.0
 33
0.0
 16
1.0
 26
0.0
 36
0.0
 17
0.0
 27
1.0
 37
0.0
 76
     0
330
1B
  0
LAYOUT
  5
26
102
{ACAD_REACTORS
330
1A
102
}
330
1A
100
AcDbPlotSettings
  1

  2
none_device
  4

  6

 40
0.0
 41
0.0
 42
0.0
 43
0.0
 44
0.0
 45
0.0
 46
0.0
 47
0.0
 48
0.0
 49
0.0
140
0.0
141
0.0
142
1.0
143
1.0
 70
   688
 72
     0
 73
     0
 74
     5
  7

 75
    16
147
1.0
148
0.0
149
0.0
100
AcDbLayout
  1
Layout2
 70
     1
 71
     2
 10
0.0
 20
0.0
 11
0.0
 21
0.0
 12
0.0
 22
0.0
 32
0.0
 14
0.0
 24
0.0
 34
0.0
 15
0.0
 25
0.0
 35
0.0
146
0.0
 13
0.0
 23
0.0
 33
0.0
 16
1.0
 26
0.0
 36
0.0
 17
0.0
 27
1.0
 37
0.0
 76
     0
330
23
  0
LAYOUT
  5
22
102
{ACAD_REACTORS
330
1A
102
}
330
1A
100
AcDbPlotSettings
  1

  2
none_device
  4

  6

 40
0.0
 41
0.0
 42
0.0
 43
0.0
 44
0.0
 45
0.0
 46
0.0
 47
0.0
 48
0.0
 49
0.0
140
0.0
141
0.0
142
1.0
143
1.0
 70
  1712
 72
     0
 73
     0
 74
     0
  7

 75
     0
147
1.0
148
0.0
149
0.0
100
AcDbLayout
  1
Model
 70
     1
 71
     0
 10
0.0
 20
0.0
 11
12.0
 21
9.0
 12
0.0
 22
0.0
 32
0.0
 14
-2.55916922277174
 24
213.699409420208
 34
0.0
 15
401.7501479913
 25
505.020425214963
 35
0.0
146
0.0
 13
0.0
 23
0.0
 33
0.0
 16
1.0
 26
0.0
 36
0.0
 17
0.0
 27
1.0
 37
0.0
 76
     0
330
1F
331
29
  0
MLINESTYLE
  5
18
102
{ACAD_REACTORS
330
17
102
}
330
17
100
AcDbMlineStyle
  2
Standard
 70
     0
  3

 62
   256
 51
90.0
 52
90.0
 71
     2
 49
0.5
 62
   256
  6
BYLAYER
 49
-0.5
 62
   256
  6
BYLAYER
  0
ACDBPLACEHOLDER
  5
F
102
{ACAD_REACTORS
330
E
102
}
330
E
  0
SCALE
  5
49
102
{ACAD_REACTORS
330
48
102
}
330
48
100
AcDbScale
 70
     0
300
1:1
140
1.0
141
1.0
290
     1
  0
SCALE
  5
4A
102
{ACAD_REACTORS
330
48
102
}
330
48
100
AcDbScale
 70
     0
300
1:2
140
1.0
141
2.0
290
     0
  0
SCALE
  5
4B
102
{ACAD_REACTORS
330
48
102
}
330
48
100
AcDbScale
 70
     0
300
1:4
140
1.0
141
4.0
290
     0
  0
SCALE
  5
4C
102
{ACAD_REACTORS
330
48
102
}
330
48
100
AcDbScale
 70
     0
300
1:5
140
1.0
141
5.0
290
     0
  0
SCALE
  5
4D
102
{ACAD_REACTORS
330
48
102
}
330
48
100
AcDbScale
 70
     0
300
1:8
140
1.0
141
8.0
290
     0
  0
SCALE
  5
4E
102
{ACAD_REACTORS
330
48
102
}
330
48
100
AcDbScale
 70
     0
300
1:10
140
1.0
141
10.0
290
     0
  0
SCALE
  5
4F
102
{ACAD_REACTORS
330
48
102
}
330
48
100
AcDbScale
 70
     0
300
1:16
140
1.0
141
16.0
290
     0
  0
SCALE
  5
50
102
{ACAD_REACTORS
330
48
102
}
330
48
100
AcDbScale
 70
     0
300
1:20
140
1.0
141
20.0
290
     0
  0
SCALE
  5
51
102
{ACAD_REACTORS
330
48
102
}
330
48
100
AcDbScale
 70
     0
300
1:30
140
1.0
141
30.0
290
     0
  0
SCALE
  5
52
102
{ACAD_REACTORS
330
48
102
}
330
48
100
AcDbScale
 70
     0
300
1:40
140
1.0
141
40.0
290
     0
  0
SCALE
  5
53
102
{ACAD_REACTORS
330
48
102
}
330
48
100
AcDbScale
 70
     0
300
1:50
140
1.0
141
50.0
290
     0
  0
SCALE
  5
54
102
{ACAD_REACTORS
330
48
102
}
330
48
100
AcDbScale
 70
     0
300
1:100
140
1.0
141
100.0
290
     0
  0
SCALE
  5
55
102
{ACAD_REACTORS
330
48
102
}
330
48
100
AcDbScale
 70
     0
300
2:1
140
2.0
141
1.0
290
     0
  0
SCALE
  5
56
102
{ACAD_REACTORS
330
48
102
}
330
48
100
AcDbScale
 70
     0
300
4:1
140
4.0
141
1.0
290
     0
  0
SCALE
  5
57
102
{ACAD_REACTORS
330
48
102
}
330
48
100
AcDbScale
 70
     0
300
8:1
140
8.0
141
1.0
290
     0
  0
SCALE
  5
58
102
{ACAD_REACTORS
330
48
102
}
330
48
100
AcDbScale
 70
     0
300
10:1
140
10.0
141
1.0
290
     0
  0
SCALE
  5
59
102
{ACAD_REACTORS
330
48
102
}
330
48
100
AcDbScale
 70
     0
300
100:1
140
100.0
141
1.0
290
     0
  0
SCALE
  5
5A
102
{ACAD_REACTORS
330
48
102
}
330
48
100
AcDbScale
 70
     0
300
1/128" = 1'-0"
140
0.0078125
141
12.0
290
     0
  0
SCALE
  5
5B
102
{ACAD_REACTORS
330
48
102
}
330
48
100
AcDbScale
 70
     0
300
1/64" = 1'-0"
140
0.015625
141
12.0
290
     0
  0
SCALE
  5
5C
102
{ACAD_REACTORS
330
48
102
}
330
48
100
AcDbScale
 70
     0
300
1/32" = 1'-0"
140
0.03125
141
12.0
290
     0
  0
SCALE
  5
5D
102
{ACAD_REACTORS
330
48
102
}
330
48
100
AcDbScale
 70
     0
300
1/16" = 1'-0"
140
0.0625
141
12.0
290
     0
  0
SCALE
  5
5E
102
{ACAD_REACTORS
330
48
102
}
330
48
100
AcDbScale
 70
     0
300
3/32" = 1'-0"
140
0.09375
141
12.0
290
     0
  0
SCALE
  5
5F
102
{ACAD_REACTORS
330
48
102
}
330
48
100
AcDbScale
 70
     0
300
1/8" = 1'-0"
140
0.125
141
12.0
290
     0
  0
SCALE
  5
60
102
{ACAD_REACTORS
330
48
102
}
330
48
100
AcDbScale
 70
     0
300
3/16" = 1'-0"
140
0.1875
141
12.0
290
     0
  0
SCALE
  5
61
102
{ACAD_REACTORS
330
48
102
}
330
48
100
AcDbScale
 70
     0
300
1/4" = 1'-0"
140
0.25
141
12.0
290
     0
  0
SCALE
  5
62
102
{ACAD_REACTORS
330
48
102
}
330
48
100
AcDbScale
 70
     0
300
3/8" = 1'-0"
140
0.375
141
12.0
290
     0
  0
SCALE
  5
63
102
{ACAD_REACTORS
330
48
102
}
330
48
100
AcDbScale
 70
     0
300
1/2" = 1'-0"
140
0.5
141
12.0
290
     0
  0
SCALE
  5
64
102
{ACAD_REACTORS
330
48
102
}
330
48
100
AcDbScale
 70
     0
300
3/4" = 1'-0"
140
0.75
141
12.0
290
     0
  0
SCALE
  5
65
102
{ACAD_REACTORS
330
48
102
}
330
48
100
AcDbScale
 70
     0
300
1" = 1'-0"
140
1.0
141
12.0
290
     0
  0
SCALE
  5
66
102
{ACAD_REACTORS
330
48
102
}
330
48
100
AcDbScale
 70
     0
300
1-1/2" = 1'-0"
140
1.5
141
12.0
290
     0
  0
SCALE
  5
67
102
{ACAD_REACTORS
330
48
102
}
330
48
100
AcDbScale
 70
     0
300
3" = 1'-0"
140
3.0
141
12.0
290
     0
  0
SCALE
  5
68
102
{ACAD_REACTORS
330
48
102
}
330
48
100
AcDbScale
 70
     0
300
6" = 1'-0"
140
6.0
141
12.0
290
     0
  0
SCALE
  5
69
102
{ACAD_REACTORS
330
48
102
}
330
48
100
AcDbScale
 70
     0
300
1'-0" = 1'-0"
140
12.0
141
12.0
290
     0
  0
VISUALSTYLE
  5
2F
102
{ACAD_REACTORS
330
2A
102
}
330
2A
100
AcDbVisualStyle
  2
2dWireframe
 70
     4
 71
     0
 72
     2
 73
     0
 90
        0
 40
-0.6
 41
-30.0
 62
     5
 63
     7
 74
     1
 91
        4
 64
     7
 65
   257
 75
     1
175
     1
 42
1.0
 92
        0
 66
   257
 43
1.0
 76
     1
 77
     6
 78
     2
 67
     7
 79
     5
170
     0
171
     0
290
     0
174
     0
 93
        1
 44
0.0
173
     0
291
     0
 45
0.0
1001
ACAD
1000
AcDbSavedByObjectVersion
1070
     0
  0
VISUALSTYLE
  5
31
102
{ACAD_REACTORS
330
2A
102
}
330
2A
100
AcDbVisualStyle
  2
3D Hidden
 70
     6
 71
     1
 72
     2
 73
     2
 90
        0
 40
-0.6
 41
-30.0
 62
     5
 63
     7
 74
     2
 91
        2
 64
     7
 65
   257
 75
     2
175
     1
 42
40.0
 92
        0
 66
   257
 43
1.0
 76
     1
 77
     6
 78
     2
 67
     7
 79
     3
170
     0
171
     0
290
     0
174
     0
 93
        1
 44
0.0
173
     0
291
     0
 45
0.0
1001
ACAD
1000
AcDbSavedByObjectVersion
1070
     0
  0
VISUALSTYLE
  5
30
102
{ACAD_REACTORS
330
2A
102
}
330
2A
100
AcDbVisualStyle
  2
3dWireframe
 70
     5
 71
     0
 72
     2
 73
     0
 90
        0
 40
-0.6
 41
-30.0
 62
     5
 63
     7
 74
     1
 91
        4
 64
     7
 65
   257
 75
     1
175
     1
 42
1.0
 92
        0
 66
   257
 43
1.0
 76
     1
 77
     6
 78
     2
 67
     7
 79
     5
170
     0
171
     0
290
     0
174
     0
 93
        1
 44
0.0
173
     0
291
     0
 45
0.0
1001
ACAD
1000
AcDbSavedByObjectVersion
1070
     0
  0
VISUALSTYLE
  5
32
102
{ACAD_REACTORS
330
2A
102
}
330
2A
100
AcDbVisualStyle
  2
Basic
 70
     7
 71
     1
 72
     0
 73
     1
 90
        0
 40
-0.6
 41
-30.0
 62
     5
 63
     7
 74
     0
 91
        4
 64
     7
 65
   257
 75
     1
175
     1
 42
1.0
 92
        8
 66
     7
 43
1.0
 76
     1
 77
     6
 78
     2
 67
     7
 79
     5
170
     0
171
     0
290
     0
174
     0
 93
        1
 44
0.0
173
     0
291
     1
 45
0.0
1001
ACAD
1000
AcDbSavedByObjectVersion
1070
     0
  0
VISUALSTYLE
  5
36
102
{ACAD_REACTORS
330
2A
102
}
330
2A
100
AcDbVisualStyle
  2
Brighten
 70
    12
 71
     2
 72
     2
 73
     0
 90
        0
 40
-0.6
 41
-30.0
 62
     5
 63
     7
 74
     1
 91
        4
 64
     7
 65
   257
 75
     1
175
     1
 42
1.0
 92
        8
 66
     7
 43
1.0
 76
     1
 77
     6
 78
     2
 67
     7
 79
     5
170
     0
171
     0
290
     0
174
     0
 93
        1
 44
50.0
173
     0
291
     1
 45
0.0
1001
ACAD
1000
AcDbSavedByObjectVersion
1070
     0
  0
VISUALSTYLE
  5
3A
102
{ACAD_REACTORS
330
2A
102
}
330
2A
100
AcDbVisualStyle
  2
ColorChange
 70
    16
 71
     2
 72
     2
 73
     3
 90
        0
 40
-0.6
 41
-30.0
 62
     5
 63
     8
 74
     1
 91
        4
 64
     7
 65
   257
 75
     1
175
     1
 42
1.0
 92
        8
 66
     8
 43
1.0
 76
     1
 77
     6
 78
     2
 67
     7
 79
     5
170
     0
171
     0
290
     0
174
     0
 93
        1
 44
0.0
173
     0
291
     1
 45
0.0
1001
ACAD
1000
AcDbSavedByObjectVersion
1070
     0
  0
VISUALSTYLE
  5
34
102
{ACAD_REACTORS
330
2A
102
}
330
2A
100
AcDbVisualStyle
  2
Conceptual
 70
     9
 71
     3
 72
     2
 73
     0
 90
        0
 40
-0.6
 41
-30.0
 62
     5
 63
     7
 74
     2
 91
        2
 64
     7
 65
   257
 75
     1
175
     1
 42
40.0
 92
        8
 66
     7
 43
1.0
 76
     1
 77
     6
 78
     2
 67
     7
 79
     3
170
     0
171
     0
290
     0
174
     0
 93
        1
 44
0.0
173
     0
291
     0
 45
0.0
1001
ACAD
1000
AcDbSavedByObjectVersion
1070
     0
  0
VISUALSTYLE
  5
35
102
{ACAD_REACTORS
330
2A
102
}
330
2A
100
AcDbVisualStyle
  2
Dim
 70
    11
 71
     2
 72
     2
 73
     0
 90
        0
 40
-0.6
 41
-30.0
 62
     5
 63
     7
 74
     1
 91
        4
 64
     7
 65
   257
 75
     1
175
     1
 42
1.0
 92
        8
 66
     7
 43
1.0
 76
     1
 77
     6
 78
     2
 67
     7
 79
     5
170
     0
171
     0
290
     0
174
     0
 93
        1
 44
-50.0
173
     0
291
     1
 45
0.0
1001
ACAD
1000
AcDbSavedByObjectVersion
1070
     0
  0
VISUALSTYLE
  5
39
102
{ACAD_REACTORS
330
2A
102
}
330
2A
100
AcDbVisualStyle
  2
Facepattern
 70
    15
 71
     2
 72
     2
 73
     0
 90
        0
 40
-0.6
 41
-30.0
 62
     5
 63
     7
 74
     1
 91
        4
 64
     7
 65
   257
 75
     1
175
     1
 42
1.0
 92
        8
 66
     7
 43
1.0
 76
     1
 77
     6
 78
     2
 67
     7
 79
     5
170
     0
171
     0
290
     0
174
     0
 93
        1
 44
0.0
173
     0
291
     1
 45
0.0
1001
ACAD
1000
AcDbSavedByObjectVersion
1070
     0
  0
VISUALSTYLE
  5
2B
102
{ACAD_REACTORS
330
2A
102
}
330
2A
100
AcDbVisualStyle
  2
Flat
 70
     0
 71
     2
 72
     1
 73
     1
 90
        2
 40
-0.6
 41
30.0
 62
     5
 63
     7
 74
     0
 91
        4
 64
     7
 65
   257
 75
     1
175
     1
 42
1.0
 92
        8
 66
     7
 43
1.0
 76
     1
 77
     6
 78
     2
 67
     7
 79
     5
170
     0
171
     0
290
     0
174
     0
 93
       13
 44
0.0
173
     0
291
     1
 45
0.0
1001
ACAD
1000
AcDbSavedByObjectVersion
1070
     0
  0
VISUALSTYLE
  5
2C
102
{ACAD_REACTORS
330
2A
102
}
330
2A
100
AcDbVisualStyle
  2
FlatWithEdges
 70
     1
 71
     2
 72
     1
 73
     1
 90
        2
 40
-0.6
 41
30.0
 62
     5
 63
     7
 74
     1
 91
        4
 64
     7
 65
   257
 75
     1
175
     1
 42
1.0
 92
        0
 66
   257
 43
1.0
 76
     1
 77
     6
 78
     2
 67
     7
 79
     5
170
     0
171
     0
290
     0
174
     0
 93
       13
 44
0.0
173
     0
291
     1
 45
0.0
1001
ACAD
1000
AcDbSavedByObjectVersion
1070
     0
  0
VISUALSTYLE
  5
2D
102
{ACAD_REACTORS
330
2A
102
}
330
2A
100
AcDbVisualStyle
  2
Gouraud
 70
     2
 71
     2
 72
     2
 73
     1
 90
        2
 40
-0.6
 41
30.0
 62
     5
 63
     7
 74
     0
 91
        4
 64
     7
 65
   257
 75
     1
175
     1
 42
1.0
 92
        0
 66
     7
 43
1.0
 76
     1
 77
     6
 78
     2
 67
     7
 79
     5
170
     0
171
     0
290
     0
174
     0
 93
       13
 44
0.0
173
     0
291
     1
 45
0.0
1001
ACAD
1000
AcDbSavedByObjectVersion
1070
     0
  0
VISUALSTYLE
  5
2E
102
{ACAD_REACTORS
330
2A
102
}
330
2A
100
AcDbVisualStyle
  2
GouraudWithEdges
 70
     3
 71
     2
 72
     2
 73
     1
 90
        2
 40
-0.6
 41
30.0
 62
     5
 63
     7
 74
     1
 91
        4
 64
     7
 65
   257
 75
     1
175
     1
 42
1.0
 92
        0
 66
   257
 43
1.0
 76
     1
 77
     6
 78
     2
 67
     7
 79
     5
170
     0
171
     0
290
     0
174
     0
 93
       13
 44
0.0
173
     0
291
     1
 45
0.0
1001
ACAD
1000
AcDbSavedByObjectVersion
1070
     0
  0
VISUALSTYLE
  5
38
102
{ACAD_REACTORS
330
2A
102
}
330
2A
100
AcDbVisualStyle
  2
Linepattern
 70
    14
 71
     2
 72
     2
 73
     0
 90
        0
 40
-0.6
 41
-30.0
 62
     5
 63
     7
 74
     1
 91
        4
 64
     7
 65
   257
 75
     7
175
     7
 42
1.0
 92
        8
 66
     7
 43
1.0
 76
     1
 77
     6
 78
     2
 67
     7
 79
     5
170
     0
171
     0
290
     0
174
     0
 93
        1
 44
0.0
173
     0
291
     1
 45
0.0
1001
ACAD
1000
AcDbSavedByObjectVersion
1070
     0
  0
VISUALSTYLE
  5
33
102
{ACAD_REACTORS
330
2A
102
}
330
2A
100
AcDbVisualStyle
  2
Realistic
 70
     8
 71
     2
 72
     2
 73
     0
 90
        0
 40
-0.6
 41
-30.0
 62
     5
 63
     7
 74
     1
 91
        0
 64
     7
 65
   257
 75
     1
175
     1
 42
1.0
 92
        8
 66
     8
 43
1.0
 76
     1
 77
     6
 78
     2
 67
     7
 79
     5
170
     0
171
     0
290
     0
174
     0
 93
       13
 44
0.0
173
     0
291
     0
 45
0.0
1001
ACAD
1000
AcDbSavedByObjectVersion
1070
     0
  0
VISUALSTYLE
  5
37
102
{ACAD_REACTORS
330
2A
102
}
330
2A
100
AcDbVisualStyle
  2
Thicken
 70
    13
 71
     2
 72
     2
 73
     0
 90
        0
 40
-0.6
 41
-30.0
 62
     5
 63
     7
 74
     1
 91
        4
 64
     7
 65
   257
 75
     1
175
     1
 42
1.0
 92
       12
 66
     7
 43
1.0
 76
     1
 77
     6
 78
     2
 67
     7
 79
     5
170
     0
171
     0
290
     0
174
     0
 93
        1
 44
0.0
173
     0
291
     1
 45
0.0
1001
ACAD
1000
AcDbSavedByObjectVersion
1070
     0
  0
DICTIONARYVAR
  5
264
102
{ACAD_REACTORS
330
261
102
}
330
261
100
DictionaryVariables
280
     0
  1
1:1
  0
ENDSEC
  0
EOF
