  0
SECTION
  2
HEADER
  9
$ACADVER
  1
AC1014
  9
$ACADMAINTVER
 70
             0
  9
$DWGCODEPAGE
  3
ANSI_1252
  9
$INSBASE
 10
0.0
 20
0.0
 30
0.0
  9
$EXTMIN
 10
-202.8502752167584
 20
-228.29773053562951
 30
0.0
  9
$EXTMAX
 10
178.14974711930279
 20
110.8341384683275
 30
0.0
  9
$LIMMIN
 10
0.0
 20
0.0
  9
$LIMMAX
 10
0.0
 20
0.0
  9
$ORTHOMODE
 70
             0
  9
$REGENMODE
 70
             1
  9
$FILLMODE
 70
             1
  9
$QTEXTMODE
 70
             0
  9
$MIRRTEXT
 70
             1
  9
$DRAGMODE
 70
             2
  9
$LTSCALE
 40
1.0
  9
$OSMODE
 70
             0
  9
$ATTMODE
 70
             1
  9
$TEXTSIZE
 40
0.2
  9
$TRACEWID
 40
0.05
  9
$TEXTSTYLE
  7
STANDARD
  9
$CLAYER
  8
0
  9
$CELTYPE
  6
CONTINUOUS
  9
$CECOLOR
 62
           256
  9
$CELTSCALE
 40
1.0
  9
$DELOBJ
 70
             1
  9
$DISPSILH
 70
             0
  9
$DIMSCALE
 40
1.0
  9
$DIMASZ
 40
0.18
  9
$DIMEXO
 40
0.0625
  9
$DIMDLI
 40
0.38
  9
$DIMRND
 40
0.0
  9
$DIMDLE
 40
0.0
  9
$DIMEXE
 40
0.18
  9
$DIMTP
 40
0.0
  9
$DIMTM
 40
0.0
  9
$DIMTXT
 40
0.18
  9
$DIMCEN
 40
0.09
  9
$DIMTSZ
 40
0.0
  9
$DIMTOL
 70
             0
  9
$DIMLIM
 70
             0
  9
$DIMTIH
 70
             1
  9
$DIMTOH
 70
             1
  9
$DIMSE1
 70
             0
  9
$DIMSE2
 70
             0
  9
$DIMTAD
 70
             0
  9
$DIMZIN
 70
             0
  9
$DIMBLK
  1

  9
$DIMASO
 70
             1
  9
$DIMSHO
 70
             1
  9
$DIMPOST
  1

  9
$DIMAPOST
  1

  9
$DIMALT
 70
             0
  9
$DIMALTD
 70
             2
  9
$DIMALTF
 40
25.4
  9
$DIMLFAC
 40
1.0
  9
$DIMTOFL
 70
             0
  9
$DIMTVP
 40
0.0
  9
$DIMTIX
 70
             0
  9
$DIMSOXD
 70
             0
  9
$DIMSAH
 70
             0
  9
$DIMBLK1
  1

  9
$DIMBLK2
  1

  9
$DIMSTYLE
  2
STANDARD
  9
$DIMCLRD
 70
             0
  9
$DIMCLRE
 70
             0
  9
$DIMCLRT
 70
             0
  9
$DIMTFAC
 40
1.0
  9
$DIMGAP
 40
0.09
  9
$DIMJUST
 70
             0
  9
$DIMSD1
 70
             0
  9
$DIMSD2
 70
             0
  9
$DIMTOLJ
 70
             1
  9
$DIMTZIN
 70
             0
  9
$DIMALTZ
 70
             0
  9
$DIMALTTZ
 70
             0
  9
$DIMFIT
 70
             3
  9
$DIMUPT
 70
             0
  9
$DIMUNIT
 70
             2
  9
$DIMDEC
 70
             4
  9
$DIMTDEC
 70
             4
  9
$DIMALTU
 70
             2
  9
$DIMALTTD
 70
             2
  9
$DIMTXSTY
  7
STANDARD
  9
$DIMAUNIT
 70
             0
  9
$LUNITS
 70
             2
  9
$LUPREC
 70
             4
  9
$SKETCHINC
 40
0.1
  9
$FILLETRAD
 40
0.0
  9
$AUNITS
 70
             0
  9
$AUPREC
 70
             0
  9
$MENU
  1
acad
  9
$ELEVATION
 40
0.0
  9
$PELEVATION
 40
0.0
  9
$THICKNESS
 40
0.0
  9
$LIMCHECK
 70
             0
  9
$BLIPMODE
 70
             1
  9
$CHAMFERA
 40
0.0
  9
$CHAMFERB
 40
0.0
  9
$CHAMFERC
 40
0.0
  9
$CHAMFERD
 40
0.0
  9
$SKPOLY
 70
             0
  9
$TDCREATE
 40
0.000000000
  9
$TDUPDATE
 40
0.000000000
  9
$TDINDWG
 40
0.0000000000
  9
$TDUSRTIMER
 40
0.0000000000
  9
$USRTIMER
 70
             1
  9
$ANGBASE
 50
0.0
  9
$ANGDIR
 70
             0
  9
$PDMODE
 70
             0
  9
$PDSIZE
 40
0.0
  9
$PLINEWID
 40
0.0
  9
$COORDS
 70
             0
  9
$SPLFRAME
 70
             0
  9
$SPLINETYPE
 70
             6
  9
$SPLINESEGS
 70
             8
  9
$ATTDIA
 70
             0
  9
$ATTREQ
 70
             1
  9
$HANDLING
 70
             1
  9
$HANDSEED
  5
23C
  9
$SURFTAB1
 70
             6
  9
$SURFTAB2
 70
             6
  9
$SURFTYPE
 70
             6
  9
$SURFU
 70
             6
  9
$SURFV
 70
             6
  9
$UCSNAME
  2

  9
$UCSORG
 10
0.0
 20
0.0
 30
0.0
  9
$UCSXDIR
 10
1.0
 20
0.0
 30
0.0
  9
$UCSYDIR
 10
0.0
 20
1.0
 30
0.0
  9
$PUCSNAME
  2

  9
$PUCSORG
 10
0.0
 20
0.0
 30
0.0
  9
$PUCSXDIR
 10
1.0
 20
0.0
 30
0.0
  9
$PUCSYDIR
 10
0.0
 20
1.0
 30
0.0
  9
$USERI1
 70
             0
  9
$USERI2
 70
             0
  9
$USERI3
 70
             0
  9
$USERI4
 70
             0
  9
$USERI5
 70
             0
  9
$USERR1
 40
12.01
  9
$USERR2
 40
0.0
  9
$USERR3
 40
0.0
  9
$USERR4
 40
0.0
  9
$USERR5
 40
0.0
  9
$WORLDVIEW
 70
             1
  9
$SHADEDGE
 70
             3
  9
$SHADEDIF
 70
            70
  9
$TILEMODE
 70
             1
  9
$MAXACTVP
 70
            16
  9
$PINSBASE
 10
0.0
 20
0.0
 30
0.0
  9
$PLIMCHECK
 70
             0
  9
$PEXTMIN
 10
1.00000000000000E+20
 20
1.00000000000000E+20
 30
1.00000000000000E+20
  9
$PEXTMAX
 10
-1.00000000000000E+20
 20
-1.00000000000000E+20
 30
-1.00000000000000E+20
  9
$PLIMMIN
 10
0.0
 20
0.0
  9
$PLIMMAX
 10
12.0
 20
9.0
  9
$UNITMODE
 70
             0
  9
$VISRETAIN
 70
             0
  9
$PLINEGEN
 70
             1
  9
$PSLTSCALE
 70
             0
  9
$TREEDEPTH
 70
          3020
  9
$PICKSTYLE
 70
             1
  9
$CMLSTYLE
  2
STANDARD
  9
$CMLJUST
 70
             0
  9
$CMLSCALE
 40
1.0
  9
$PROXYGRAPHICS
 70
             0
  9
$MEASUREMENT
 70
             1
  0
ENDSEC
  0
SECTION
  2
CLASSES
  0
CLASS
  1
LWPOLYLINE
  2
AcDbPolyline
  3
"AutoCAD"
 90
        0
280
             0
281
             1
  0
CLASS
  1
IMAGE
  2
AcDbRasterImage
  3
ISM
 90
      127
280
             0
281
             1
  0
CLASS
  1
OLE2FRAME
  2
AcDbOle2Frame
  3
""
 90
        0
280
             0
281
             1
  0
CLASS
  1
HATCH
  2
AcDbHatch
  3
"ACAD_SEDONA"
 90
        0
280
             0
281
             1
  0
CLASS
  1
DICTIONARYVAR
  2
AcDbDictionaryVar
  3
"AutoCAD"
 90
        0
280
             0
281
             0
  0
CLASS
  1
RASTERVARIABLES
  2
AcDbRasterVariables
  3
ISM
 90
        0
280
             0
281
             0
  0
CLASS
  1
IMAGEDEF
  2
AcDbRasterImageDef
  3
ISM
 90
        0
280
             0
281
             0
  0
CLASS
  1
IMAGEDEF_REACTOR
  2
AcDbRasterImageDefReactor
  3
ISM
 90
        1
280
             0
281
             0
  0
CLASS
  1
IDBUFFER
  2
AcDbIdBuffer
  3
"Acad"
 90
        0
280
             0
281
             0
  0
CLASS
  1
SPATIAL_FILTER
  2
AcDbSpatialFilter
  3
"Acad"
 90
        0
280
             0
281
             0
  0
CLASS
  1
XRECORD
  2
AcDbXrecord
  3
"<Built In>"
 90
        0
280
             0
281
             0
  0
CLASS
  1
SORTENTSTABLE
  2
AcDbSortentsTable
  3
"AutoCAD"
 90
        0
280
             0
281
             0
  0
CLASS
  1
LAYER_INDEX
  2
AcDbLayerIndex
  3
"Acad"
 90
        0
280
             0
281
             0
  0
CLASS
  1
SPATIAL_INDEX
  2
AcDbSpatialIndex
  3
"Acad"
 90
        0
280
             0
281
             0
  0
CLASS
  1
OBJECT_PTR
  2
CAseDLPNTableRecord
  3
"ASE-LPNTableRecord"
 90
        1
280
             0
281
             0
  0
CLASS
  1
LAYOUT
  2
AcDbLayout
  3
"AutoCAD 2000"
 90
        0
280
             0
281
             0
  0
CLASS
  1
PLOTSETTINGS
  2
AcDbPlotSettings
  3
"AutoCAD 2000"
 90
        0
280
             0
281
             0
  0
CLASS
  1
ACDBDICTIONARYWDFLT
  2
AcDbDictionaryWithDefault
  3
"AutoCAD 2000"
 90
        0
280
             0
281
             0
  0
CLASS
  1
ACDBPLACEHOLDER
  2
AcDbPlaceHolder
  3
"AutoCAD 2000"
 90
        0
280
             0
281
             0
  0
ENDSEC
  0
SECTION
  2
TABLES
  0
TABLE
  2
VPORT
  5
7
100
AcDbSymbolTable
 70
             1
  0
VPORT
  5
15
100
AcDbSymbolTableRecord
100
AcDbViewportTableRecord
  2
*ACTIVE
 70
             0
 10
0.0
 20
0.0
 11
1.0
 21
1.0
 12
-12.35026404872781
 22
-58.73179603365101
 13
0.0
 23
0.0
 14
1.0
 24
1.0
 15
0.0
 25
0.0
 16
0.0
 26
0.0
 36
1.0
 17
0.0
 27
0.0
 37
0.0
 40
373.04505590435275
 41
1.60267857142857
 42
50.0
 43
0.0
 44
0.0
 50
0.0
 51
0.0
 71
             0
 72
           100
 73
             1
 74
             1
 75
             0
 76
             0
 77
             0
 78
             0
  0
ENDTAB
  0
TABLE
  2
LTYPE
  5
4
100
AcDbSymbolTable
 70
            11
  0
LTYPE
  5
11
100
AcDbSymbolTableRecord
100
AcDbLinetypeTableRecord
  2
BYBLOCK
 70
            64
  3

 72
            65
 73
             0
 40
0.0
  0
LTYPE
  5
12
100
AcDbSymbolTableRecord
100
AcDbLinetypeTableRecord
  2
BYLAYER
 70
            64
  3

 72
            65
 73
             0
 40
0.0
  0
LTYPE
  5
13
100
AcDbSymbolTableRecord
100
AcDbLinetypeTableRecord
  2
CONTINUOUS
 70
            64
  3
Solid line
 72
            65
 73
             0
 40
0.0
  0
LTYPE
  5
1D
100
AcDbSymbolTableRecord
100
AcDbLinetypeTableRecord
  2
DASHED
 70
            64
  3
Dashed
 72
            65
 73
             2
 40
15.0
 49
7.0
 74
             0
 49
-8.0
 74
             0
  0
LTYPE
  5
1E
100
AcDbSymbolTableRecord
100
AcDbLinetypeTableRecord
  2
DOTTED
 70
            64
  3
Dotted
 72
            65
 73
             2
 40
1.0
 49
0.0
 74
             0
 49
-1.0
 74
             0
  0
LTYPE
  5
1F
100
AcDbSymbolTableRecord
100
AcDbLinetypeTableRecord
  2
DOT_CENTER
 70
            64
  3
Dot_Center
 72
            65
 73
             4
 40
14.0
 49
12.0
 74
             0
 49
-1.0
 74
             0
 49
0.0
 74
             0
 49
-1.0
 74
             0
  0
LTYPE
  5
20
100
AcDbSymbolTableRecord
100
AcDbLinetypeTableRecord
  2
LONG_DASHED
 70
            64
  3
Long_Dashed
 72
            65
 73
             2
 40
15.0
 49
10.0
 74
             0
 49
-5.0
 74
             0
  0
LTYPE
  5
21
100
AcDbSymbolTableRecord
100
AcDbLinetypeTableRecord
  2
DASH_CENTER
 70
            64
  3
Dash_Center
 72
            65
 73
             4
 40
14.0
 49
11.0
 74
             0
 49
-1.0
 74
             0
 49
1.0
 74
             0
 49
-1.0
 74
             0
  0
LTYPE
  5
22
100
AcDbSymbolTableRecord
100
AcDbLinetypeTableRecord
  2
PHANTOM
 70
            64
  3
Phantom
 72
            65
 73
             6
 40
13.0
 49
10.0
 74
             0
 49
-1.0
 74
             0
 49
0.0
 74
             0
 49
-1.0
 74
             0
 49
0.0
 74
             0
 49
-1.0
 74
             0
  0
LTYPE
  5
23
100
AcDbSymbolTableRecord
100
AcDbLinetypeTableRecord
  2
CENTER_DASH_DASH
 70
            64
  3
Center_Dash_Dash
 72
            65
 73
             6
 40
14.0
 49
9.0
 74
             0
 49
-1.0
 74
             0
 49
1.0
 74
             0
 49
-1.0
 74
             0
 49
1.0
 74
             0
 49
-1.0
 74
             0
  0
LTYPE
  5
24
100
AcDbSymbolTableRecord
100
AcDbLinetypeTableRecord
  2
DASHDOT
 70
            64
  3
DASHDOT
 72
            65
 73
             4
 40
16.0
 49
10.0
 74
             0
 49
-3.0
 74
             0
 49
0.0
 74
             0
 49
-3.0
 74
             0
  0
ENDTAB
  0
TABLE
  2
LAYER
  5
2
100
AcDbSymbolTable
 70
             8
  0
LAYER
  5
14
100
AcDbSymbolTableRecord
100
AcDbLayerTableRecord
  2
0
 70
             0
 62
             7
  6
CONTINUOUS
  0
LAYER
  5
25
100
AcDbSymbolTableRecord
100
AcDbLayerTableRecord
  2
1
 70
             0
 62
             7
  6
CONTINUOUS
  0
LAYER
  5
26
100
AcDbSymbolTableRecord
100
AcDbLayerTableRecord
  2
LC-001-002-----0
 70
             0
 62
             7
  6
CONTINUOUS
  0
LAYER
  5
27
100
AcDbSymbolTableRecord
100
AcDbLayerTableRecord
  2
LC-002-002-RND-0
 70
             0
 62
             7
  6
CONTINUOUS
  0
LAYER
  5
28
100
AcDbSymbolTableRecord
100
AcDbLayerTableRecord
  2
LC-004-005-----0
 70
             0
 62
             7
  6
CONTINUOUS
  0
LAYER
  5
29
100
AcDbSymbolTableRecord
100
AcDbLayerTableRecord
  2
LC-006-003-----0
 70
             0
 62
             7
  6
CONTINUOUS
  0
LAYER
  5
2A
100
AcDbSymbolTableRecord
100
AcDbLayerTableRecord
  2
LC-007-005-----0
 70
             0
 62
             7
  6
CONTINUOUS
  0
LAYER
  5
2B
100
AcDbSymbolTableRecord
100
AcDbLayerTableRecord
  2
LC-009-006-MLN-0
 70
             0
 62
             7
  6
CONTINUOUS
  0
ENDTAB
  0
TABLE
  2
STYLE
  5
3
100
AcDbSymbolTable
 70
             2
  0
STYLE
  5
17
100
AcDbSymbolTableRecord
100
AcDbTextStyleTableRecord
  2
STANDARD
 70
             0
 40
0.0
 41
1.0
 50
0.0
 71
             0
 42
0.0
  3
txt
  4

  0
STYLE
  5
215
100
AcDbSymbolTableRecord
100
AcDbTextStyleTableRecord
  2
CONVERTER_1
 70
             0
 40
0.0
 41
0.9
 50
0.0
 71
             0
 42
0.0
  3
txt.shx
  4

  0
ENDTAB
  0
TABLE
  2
VIEW
  5
5
100
AcDbSymbolTable
 70
             0
  0
ENDTAB
  0
TABLE
  2
UCS
  5
6
100
AcDbSymbolTable
 70
             0
  0
ENDTAB
  0
TABLE
  2
APPID
  5
8
100
AcDbSymbolTable
 70
             1
  0
APPID
  5
16
100
AcDbSymbolTableRecord
100
AcDbRegAppTableRecord
  2
ACAD
 70
             0
  0
ENDTAB
  0
TABLE
  2
DIMSTYLE
  5
9
100
AcDbSymbolTable
 70
             5
  0
DIMSTYLE
105
18
100
AcDbSymbolTableRecord
100
AcDbDimStyleTableRecord
  2
STANDARD
 70
             0
  3

  4

  5

  6

  7

 40
1.0
 41
0.18
 42
0.0625
 43
0.38
 44
0.18
 45
0.0
 46
0.0
 47
0.0
 48
0.0
 71
             0
 72
             0
 73
             1
 74
             1
 75
             0
 76
             0
 77
             0
 78
             0
140
0.18
141
0.09
142
0.0
143
25.4
144
1.0
145
0.0
146
1.0
147
0.09
170
             0
171
             2
172
             0
173
             0
174
             0
175
             0
176
             0
177
             0
178
             0
270
             2
271
             4
272
             4
273
             2
274
             2
275
             0
280
             0
281
             0
282
             0
283
             1
284
             0
285
             0
286
             0
287
             3
288
             0
340
17
  0
DIMSTYLE
105
218
100
AcDbSymbolTableRecord
100
AcDbDimStyleTableRecord
  2
ME10_DIM_0
 70
             0
  3
Ø<>
  4

  5

  6

  7

 40
1.0
 41
15.0
 42
0.0
 43
0.38
 44
2.0
 45
0.0
 46
0.0
 47
0.0
 48
0.0
 71
             0
 72
             0
 73
             0
 74
             0
 75
             0
 76
             0
 77
             1
 78
             8
140
15.0
141
0.09
142
0.0
143
25.4
144
1.0
145
0.0
146
1.0
147
0.625
170
             0
171
             2
172
             1
173
             1
174
             0
175
             0
176
             4
177
             4
178
             1
270
             2
271
             2
272
             4
273
             2
274
             2
275
             0
280
             0
281
             0
282
             0
283
             1
284
             0
285
             0
286
             0
287
             3
288
             0
340
215
  0
DIMSTYLE
105
223
100
AcDbSymbolTableRecord
100
AcDbDimStyleTableRecord
  2
ME10_DIM_1
 70
             0
  3
DN<>
  4

  5

  6

  7

 40
1.0
 41
15.0
 42
0.0
 43
0.38
 44
2.0
 45
0.0
 46
0.0
 47
0.0
 48
0.0
 71
             0
 72
             0
 73
             0
 74
             0
 75
             0
 76
             0
 77
             1
 78
             8
140
15.0
141
0.09
142
0.0
143
25.4
144
1.0
145
0.0
146
1.0
147
0.625
170
             0
171
             2
172
             1
173
             1
174
             0
175
             0
176
             4
177
             4
178
             1
270
             2
271
             2
272
             4
273
             2
274
             2
275
             0
280
             0
281
             0
282
             0
283
             1
284
             0
285
             0
286
             0
287
             3
288
             0
340
215
  0
DIMSTYLE
105
22E
100
AcDbSymbolTableRecord
100
AcDbDimStyleTableRecord
  2
ME10_DIM_2
 70
             0
  3
Ø<>
  4

  5

  6

  7

 40
1.0
 41
15.0
 42
0.0
 43
0.38
 44
2.0
 45
0.0
 46
0.0
 47
0.0
 48
0.0
 71
             0
 72
             0
 73
             0
 74
             0
 75
             0
 76
             0
 77
             1
 78
             8
140
15.0
141
0.09
142
0.0
143
25.4
144
1.0
145
0.0
146
1.0
147
0.625
170
             0
171
             2
172
             1
173
             1
174
             0
175
             0
176
             4
177
             4
178
             1
270
             2
271
             2
272
             4
273
             2
274
             2
275
             0
280
             0
281
             0
282
             0
283
             1
284
             0
285
             0
286
             0
287
             3
288
             0
340
215
  0
DIMSTYLE
105
239
100
AcDbSymbolTableRecord
100
AcDbDimStyleTableRecord
  2
ME10_DIM_3
 70
             0
  3

  4

  5

  6

  7

 40
1.0
 41
15.0
 42
0.0
 43
0.38
 44
2.0
 45
0.0
 46
0.0
 47
0.0
 48
0.0
 71
             0
 72
             0
 73
             0
 74
             0
 75
             0
 76
             0
 77
             1
 78
             8
140
15.0
141
0.09
142
0.0
143
25.4
144
1.0
145
0.0
146
1.0
147
0.625
170
             0
171
             2
172
             1
173
             1
174
             0
175
             0
176
             4
177
             4
178
             1
270
             2
271
             2
272
             4
273
             2
274
             2
275
             0
280
             0
281
             0
282
             0
283
             1
284
             0
285
             0
286
             0
287
             3
288
             0
340
215
  0
ENDTAB
  0
TABLE
  2
BLOCK_RECORD
  5
1
100
AcDbSymbolTable
 70
             7
  0
BLOCK_RECORD
  5
A
100
AcDbSymbolTableRecord
100
AcDbBlockTableRecord
  2
*MODEL_SPACE
  0
BLOCK_RECORD
  5
B
100
AcDbSymbolTableRecord
100
AcDbBlockTableRecord
  2
*PAPER_SPACE
  0
BLOCK_RECORD
  5
2C
100
AcDbSymbolTableRecord
100
AcDbBlockTableRecord
  2
062_1E_LAUBFANGKORB
  0
BLOCK_RECORD
  5
2E
100
AcDbSymbolTableRecord
100
AcDbBlockTableRecord
  2
K_RPER
  0
BLOCK_RECORD
  5
30
100
AcDbSymbolTableRecord
100
AcDbBlockTableRecord
  2
HL_62_1_5_DACHABLAUF
  0
BLOCK_RECORD
  5
20E
100
AcDbSymbolTableRecord
100
AcDbBlockTableRecord
  2
*D3
  0
BLOCK_RECORD
  5
21A
100
AcDbSymbolTableRecord
100
AcDbBlockTableRecord
  2
*D4
  0
BLOCK_RECORD
  5
225
100
AcDbSymbolTableRecord
100
AcDbBlockTableRecord
  2
*D5
  0
BLOCK_RECORD
  5
230
100
AcDbSymbolTableRecord
100
AcDbBlockTableRecord
  2
*D6
  0
ENDTAB
  0
ENDSEC
  0
SECTION
  2
BLOCKS
  0
BLOCK
  5
D
100
AcDbEntity
  8
0
100
AcDbBlockBegin
  2
*MODEL_SPACE
 70
             0
 10
0.0
 20
0.0
 30
0.0
  3
*MODEL_SPACE
  1

  0
ENDBLK
  5
E
100
AcDbEntity
  8
0
100
AcDbBlockEnd
  0
BLOCK
  5
F
100
AcDbEntity
 67
             1
  8
0
100
AcDbBlockBegin
  2
*PAPER_SPACE
 70
             0
 10
0.0
 20
0.0
 30
0.0
  3
*PAPER_SPACE
  1

  0
ENDBLK
  5
10
100
AcDbEntity
 67
             1
  8
0
100
AcDbBlockEnd
  0
BLOCK
  5
2D
100
AcDbEntity
  8
0
100
AcDbBlockBegin
  2
062_1E_LAUBFANGKORB
 70
             0
 10
116.4425524146646
 20
-539.02846192851257
 30
0.0
  3
062_1E_LAUBFANGKORB
  1

  0
ARC
  5
86
100
AcDbEntity
  8
LC-002-002-RND-0
  6
CONTINUOUS
 62
             7
100
AcDbCircle
 10
-47.298948
 20
54.66196000000002
 40
15.00000000000016
100
AcDbArc
 50
90.00007899999989
 51
160.00000000000009
  0
ARC
  5
85
100
AcDbEntity
  8
LC-002-002-RND-0
  6
CONTINUOUS
 62
             7
100
AcDbCircle
 10
49.59826299999997
 20
54.66209300000003
 40
14.99999999999988
100
AcDbArc
 50
20.00015699999858
 51
90.00007899999967
  0
LINE
  5
84
100
AcDbEntity
  8
LC-001-002-----0
  6
CONTINUOUS
 62
             7
100
AcDbLine
 10
-2.15567700000003
 20
54.86202199999991
 11
-2.15567700000003
 21
69.66202199999998
  0
LINE
  5
83
100
AcDbEntity
  8
LC-001-002-----0
  6
CONTINUOUS
 62
             7
100
AcDbLine
 10
4.45499100000001
 20
54.862031
 11
4.45495
 21
69.66203099999996
  0
LINE
  5
82
100
AcDbEntity
  8
LC-001-002-----0
  6
CONTINUOUS
 62
             7
100
AcDbLine
 10
59.04229599999997
 20
29.299802
 11
1.14969200000002
 21
29.29964299999995
  0
LINE
  5
81
100
AcDbEntity
  8
LC-001-002-----0
  6
CONTINUOUS
 62
             7
100
AcDbLine
 10
-24.721902
 20
33.96196099999997
 11
-20.26669599999997
 21
54.86199699999997
  0
LINE
  5
80
100
AcDbEntity
  8
LC-001-002-----0
  6
CONTINUOUS
 62
             7
100
AcDbLine
 10
-47.298969
 20
69.66196000000002
 11
1.14963699999998
 21
69.66202599999997
  0
LINE
  5
7F
100
AcDbEntity
  8
LC-001-002-----0
  6
CONTINUOUS
 62
             7
100
AcDbLine
 10
-41.33723099999997
 20
65.57683499999996
 11
-39.85036300000002
 21
69.66197
  0
LINE
  5
7E
100
AcDbEntity
  8
LC-001-002-----0
  6
CONTINUOUS
 62
             7
100
AcDbLine
 10
-43.69009599999998
 20
65.16196100000002
 11
-41.33723099999997
 21
65.57683499999996
  0
LINE
  5
7D
100
AcDbEntity
  8
LC-001-002-----0
  6
CONTINUOUS
 62
             7
100
AcDbLine
 10
27.02127300000001
 20
33.96203200000002
 11
22.56601000000001
 21
54.86205600000005
  0
LINE
  5
7C
100
AcDbEntity
  8
LC-001-002-----0
  6
CONTINUOUS
 62
             7
100
AcDbLine
 10
43.63651600000003
 20
65.57695100000001
 11
42.14963699999998
 21
69.66208199999994
  0
LINE
  5
7B
100
AcDbEntity
  8
LC-001-002-----0
  6
CONTINUOUS
 62
             7
100
AcDbLine
 10
45.98938099999998
 20
65.16208399999994
 11
43.63651600000003
 21
65.57695100000001
  0
LINE
  5
7A
100
AcDbEntity
  8
LC-001-002-----0
  6
CONTINUOUS
 62
             7
100
AcDbLine
 10
47.110815
 20
33.962087
 11
39.39412000000004
 21
54.86207899999999
  0
LINE
  5
79
100
AcDbEntity
  8
LC-001-002-----0
  6
CONTINUOUS
 62
             7
100
AcDbLine
 10
48.26081399999998
 20
33.96208999999999
 11
40.54412000000002
 21
54.86207999999999
  0
LINE
  5
78
100
AcDbEntity
  8
LC-001-002-----0
  6
CONTINUOUS
 62
             7
100
AcDbLine
 10
53.35166900000002
 20
33.96210400000007
 11
44.744823
 21
54.86208599999998
  0
LINE
  5
77
100
AcDbEntity
  8
LC-001-002-----0
  6
CONTINUOUS
 62
             7
100
AcDbLine
 10
0.0
 20
54.86202500000002
 11
0.0
 21
33.96196099999997
  0
LINE
  5
76
100
AcDbEntity
  8
LC-001-002-----0
  6
CONTINUOUS
 62
             7
100
AcDbLine
 10
-55.04596700000002
 20
33.96196099999997
 11
-55.04596700000002
 21
29.59886100000006
  0
LINE
  5
75
100
AcDbEntity
  8
LC-001-002-----0
  6
CONTINUOUS
 62
             7
100
AcDbLine
 10
-36.01299599999999
 20
33.96196099999997
 11
-29.70138800000001
 21
54.86198400000001
  0
LINE
  5
74
100
AcDbEntity
  8
LC-001-002-----0
  6
CONTINUOUS
 62
             7
100
AcDbLine
 10
-56.74291199999999
 20
29.29964299999995
 11
-55.04596700000002
 21
29.59886100000006
  0
LINE
  5
73
100
AcDbEntity
  8
LC-001-002-----0
  6
CONTINUOUS
 62
             7
100
AcDbLine
 10
-37.66002099999997
 20
33.96196099999997
 11
-31.35941100000002
 21
54.86198200000001
  0
LINE
  5
72
100
AcDbEntity
  8
LC-001-002-----0
  6
CONTINUOUS
 62
             7
100
AcDbLine
 10
-47.43898999999999
 20
54.86196000000007
 11
1.14965699999999
 21
54.86202600000001
  0
LINE
  5
71
100
AcDbEntity
  8
LC-001-002-----0
  6
CONTINUOUS
 62
             7
100
AcDbLine
 10
-26.71375999999998
 20
33.96196099999997
 11
-22.258554
 21
54.86199399999998
  0
LINE
  5
70
100
AcDbEntity
  8
LC-001-002-----0
  6
CONTINUOUS
 62
             7
100
AcDbLine
 10
-55.04596700000002
 20
33.96196099999997
 11
1.14968599999997
 21
33.96196099999997
  0
LINE
  5
6F
100
AcDbEntity
  8
LC-001-002-----0
  6
CONTINUOUS
 62
             7
100
AcDbLine
 10
-56.74291199999999
 20
29.29964299999995
 11
1.14969200000002
 21
29.29964299999995
  0
LINE
  5
6E
100
AcDbEntity
  8
LC-001-002-----0
  6
CONTINUOUS
 62
             7
100
AcDbLine
 10
-13.868628
 20
33.96196099999997
 11
-11.56244299999997
 21
54.86200900000006
  0
LINE
  5
6D
100
AcDbEntity
  8
LC-001-002-----0
  6
CONTINUOUS
 62
             7
100
AcDbLine
 10
-11.64699899999999
 20
33.96196099999997
 11
-9.34081399999997
 21
54.86201199999994
  0
LINE
  5
6C
100
AcDbEntity
  8
LC-001-002-----0
  6
CONTINUOUS
 62
             7
100
AcDbLine
 10
52.75638599999996
 20
33.96210299999996
 11
44.149539
 21
54.86208499999998
  0
LINE
  5
6B
100
AcDbEntity
  8
LC-001-002-----0
  6
CONTINUOUS
 62
             7
100
AcDbLine
 10
-50.45701500000001
 20
33.96196099999997
 11
-41.85022500000002
 21
54.86196699999994
  0
LINE
  5
6A
100
AcDbEntity
  8
LC-001-002-----0
  6
CONTINUOUS
 62
             7
100
AcDbLine
 10
-51.05229800000001
 20
33.96196099999997
 11
-42.44550900000002
 21
54.86196600000005
  0
LINE
  5
69
100
AcDbEntity
  8
LC-001-002-----0
  6
CONTINUOUS
 62
             7
100
AcDbLine
 10
-45.96144299999997
 20
33.96196099999997
 11
-38.24480599999998
 21
54.86197200000004
  0
LINE
  5
68
100
AcDbEntity
  8
LC-001-002-----0
  6
CONTINUOUS
 62
             7
100
AcDbLine
 10
-44.811444
 20
33.96196099999997
 11
-37.09480600000001
 21
54.86197400000003
  0
LINE
  5
67
100
AcDbEntity
  8
LC-001-002-----0
  6
CONTINUOUS
 62
             7
100
AcDbLine
 10
2.29931399999998
 20
54.86202800000001
 11
2.29937100000001
 21
33.96196399999997
  0
LINE
  5
66
100
AcDbEntity
  8
LC-001-002-----0
  6
CONTINUOUS
 62
             7
100
AcDbLine
 10
57.34533799999997
 20
33.96211499999993
 11
57.34534999999994
 21
29.59901500000001
  0
LINE
  5
65
100
AcDbEntity
  8
LC-001-002-----0
  6
CONTINUOUS
 62
             7
100
AcDbLine
 10
38.31236799999999
 20
33.96206300000006
 11
32.00070199999999
 21
54.86206900000002
  0
LINE
  5
64
100
AcDbEntity
  8
LC-001-002-----0
  6
CONTINUOUS
 62
             7
100
AcDbLine
 10
59.04229599999997
 20
29.299802
 11
57.34534999999994
 21
29.59901500000001
  0
LINE
  5
63
100
AcDbEntity
  8
LC-001-002-----0
  6
CONTINUOUS
 62
             7
100
AcDbLine
 10
39.95939299999998
 20
33.96206700000005
 11
33.658725
 21
54.86207100000001
  0
LINE
  5
62
100
AcDbEntity
  8
LC-001-002-----0
  6
CONTINUOUS
 62
             7
100
AcDbLine
 10
49.59824200000003
 20
69.66209300000003
 11
1.14963699999998
 21
69.66202599999997
  0
LINE
  5
61
100
AcDbEntity
  8
LC-001-002-----0
  6
CONTINUOUS
 62
             7
100
AcDbLine
 10
29.01313100000004
 20
33.96203700000001
 11
24.55786800000004
 21
54.86205800000005
  0
LINE
  5
60
100
AcDbEntity
  8
LC-001-002-----0
  6
CONTINUOUS
 62
             7
100
AcDbLine
 10
49.73830399999997
 20
54.86209300000007
 11
1.14965699999999
 21
54.86202600000001
  0
LINE
  5
5F
100
AcDbEntity
  8
LC-001-002-----0
  6
CONTINUOUS
 62
             7
100
AcDbLine
 10
57.34533799999997
 20
33.96211499999993
 11
1.14968599999997
 21
33.96196099999997
  0
LINE
  5
5E
100
AcDbEntity
  8
LC-001-002-----0
  6
CONTINUOUS
 62
             7
100
AcDbLine
 10
13.94637
 20
33.961996
 11
11.640128
 21
54.86204099999998
  0
LINE
  5
5D
100
AcDbEntity
  8
LC-001-002-----0
  6
CONTINUOUS
 62
             7
100
AcDbLine
 10
16.16800000000001
 20
33.96200199999998
 11
13.86175700000001
 21
54.86204399999997
  0
LINE
  5
5C
100
AcDbEntity
  8
LC-007-005-----0
  6
CONTINUOUS
 62
             2
100
AcDbLine
 10
-55.10082299999999
 20
33.81124699999998
 11
-55.04596700000002
 21
33.86610299999995
  0
LINE
  5
5B
100
AcDbEntity
  8
LC-007-005-----0
  6
CONTINUOUS
 62
             2
100
AcDbLine
 10
-42.15220499999998
 20
69.38728200000003
 11
-41.87752
 21
69.661967
  0
LINE
  5
5A
100
AcDbEntity
  8
LC-001-002-----0
  6
CONTINUOUS
 62
             7
100
AcDbLine
 10
-78.29611799999999
 20
13.35500200000001
 11
-61.39433800000001
 21
59.79226200000005
  0
LINE
  5
59
100
AcDbEntity
  8
LC-001-002-----0
  6
CONTINUOUS
 62
             7
100
AcDbLine
 10
-67.407201
 20
-0.00024900000005
 11
-42.05222800000001
 21
69.661967
  0
LINE
  5
58
100
AcDbEntity
  8
LC-001-002-----0
  6
CONTINUOUS
 62
             7
100
AcDbLine
 10
69.706549
 20
0.00025799999992
 11
44.35150100000004
 21
69.66208500000005
  0
LINE
  5
57
100
AcDbEntity
  8
LC-001-002-----0
  6
CONTINUOUS
 62
             7
100
AcDbLine
 10
80.59562200000005
 20
13.35501099999999
 11
63.69363799999996
 21
59.79243299999996
  0
LINE
  5
56
100
AcDbEntity
  8
LC-001-002-----0
  6
CONTINUOUS
 62
             7
100
AcDbLine
 10
-58.39289200000002
 20
14.69114100000002
 11
-52.37699400000003
 21
29.29964299999995
  0
LINE
  5
55
100
AcDbEntity
  8
LC-001-002-----0
  6
CONTINUOUS
 62
             7
100
AcDbLine
 10
-59.16318699999999
 20
14.26615900000002
 11
-52.97227799999996
 21
29.29964299999995
  0
LINE
  5
54
100
AcDbEntity
  8
LC-001-002-----0
  6
CONTINUOUS
 62
             7
100
AcDbLine
 10
-53.32755800000001
 20
14.01131700000008
 11
-47.68284999999997
 21
29.29964299999995
  0
LINE
  5
53
100
AcDbEntity
  8
LC-001-002-----0
  6
CONTINUOUS
 62
             7
100
AcDbLine
 10
-52.56683800000002
 20
12.95698000000004
 11
-46.53285
 21
29.29964299999995
  0
LINE
  5
52
100
AcDbEntity
  8
LC-001-002-----0
  6
CONTINUOUS
 62
             7
100
AcDbLine
 10
-44.100619
 20
12.59758099999999
 11
-39.06554399999999
 21
29.29964299999995
  0
LINE
  5
51
100
AcDbEntity
  8
LC-001-002-----0
  6
CONTINUOUS
 62
             7
100
AcDbLine
 10
-42.78053299999999
 20
11.55219299999999
 11
-37.42097200000001
 21
29.29964299999995
  0
LINE
  5
50
100
AcDbEntity
  8
LC-001-002-----0
  6
CONTINUOUS
 62
             7
100
AcDbLine
 10
-31.15247399999998
 20
13.13929300000007
 11
-27.70761399999998
 21
29.29964299999995
  0
LINE
  5
4F
100
AcDbEntity
  8
LC-001-002-----0
  6
CONTINUOUS
 62
             7
100
AcDbLine
 10
-31.96150999999998
 20
-0.00011800000004
 11
-25.715756
 21
29.29964299999995
  0
LINE
  5
4E
100
AcDbEntity
  8
LC-001-002-----0
  6
CONTINUOUS
 62
             7
100
AcDbLine
 10
-17.61611899999997
 20
-0.00006500000006
 11
-14.38308499999999
 21
29.29964299999995
  0
LINE
  5
4D
100
AcDbEntity
  8
LC-001-002-----0
  6
CONTINUOUS
 62
             7
100
AcDbLine
 10
-15.39448799999997
 20
-0.00005700000008
 11
-12.16145599999999
 21
29.29964299999995
  0
LINE
  5
4C
100
AcDbEntity
  8
LC-001-002-----0
  6
CONTINUOUS
 62
             7
100
AcDbLine
 10
0.0
 20
29.29964299999995
 11
0.0
 21
0.0
  0
LINE
  5
4B
100
AcDbEntity
  8
LC-001-002-----0
  6
CONTINUOUS
 62
             7
100
AcDbLine
 10
2.29938400000003
 20
29.29964699999994
 11
2.299464
 21
0.00000899999998
  0
LINE
  5
4A
100
AcDbEntity
  8
LC-001-002-----0
  6
CONTINUOUS
 62
             7
100
AcDbLine
 10
17.69394399999999
 20
0.00006500000006
 11
14.46084000000002
 21
29.29967999999997
  0
LINE
  5
49
100
AcDbEntity
  8
LC-001-002-----0
  6
CONTINUOUS
 62
             7
100
AcDbLine
 10
19.915573
 20
0.00007399999993
 11
16.68246900000003
 21
29.29968599999995
  0
LINE
  5
48
100
AcDbEntity
  8
LC-001-002-----0
  6
CONTINUOUS
 62
             7
100
AcDbLine
 10
34.260941
 20
0.00012700000002
 11
28.01513999999997
 21
29.29971699999999
  0
LINE
  5
47
100
AcDbEntity
  8
LC-001-002-----0
  6
CONTINUOUS
 62
             7
100
AcDbLine
 10
33.44132300000001
 20
13.18901100000005
 11
30.00699800000001
 21
29.29972299999997
  0
LINE
  5
46
100
AcDbEntity
  8
LC-001-002-----0
  6
CONTINUOUS
 62
             7
100
AcDbLine
 10
45.08001200000001
 20
11.55216000000007
 11
39.72035600000004
 21
29.29974900000002
  0
LINE
  5
45
100
AcDbEntity
  8
LC-001-002-----0
  6
CONTINUOUS
 62
             7
100
AcDbLine
 10
46.40008599999999
 20
12.59758099999999
 11
41.36492800000002
 21
29.29975400000001
  0
LINE
  5
44
100
AcDbEntity
  8
LC-001-002-----0
  6
CONTINUOUS
 62
             7
100
AcDbLine
 10
36.25279899999998
 20
0.000134
 11
34.85096699999997
 21
6.57625100000007
  0
LINE
  5
43
100
AcDbEntity
  8
LC-001-002-----0
  6
CONTINUOUS
 62
             7
100
AcDbLine
 10
54.86631899999998
 20
12.95698400000003
 11
48.83223399999997
 21
29.29977399999996
  0
LINE
  5
42
100
AcDbEntity
  8
LC-001-002-----0
  6
CONTINUOUS
 62
             7
100
AcDbLine
 10
55.62703899999997
 20
14.01131900000007
 11
49.98223400000001
 21
29.29977700000006
  0
LINE
  5
41
100
AcDbEntity
  8
LC-001-002-----0
  6
CONTINUOUS
 62
             7
100
AcDbLine
 10
61.46268499999997
 20
14.26614600000005
 11
55.27166199999999
 21
29.29979199999991
  0
LINE
  5
40
100
AcDbEntity
  8
LC-001-002-----0
  6
CONTINUOUS
 62
             7
100
AcDbLine
 10
60.69238600000006
 20
14.69113400000003
 11
54.676378
 21
29.29978999999992
  0
LINE
  5
3F
100
AcDbEntity
  8
LC-001-002-----0
  6
CONTINUOUS
 62
             7
100
AcDbLine
 10
60.80021499999998
 20
0.000225
 11
59.25741500000004
 21
4.178763
  0
LINE
  5
3E
100
AcDbEntity
  8
LC-001-002-----0
  6
CONTINUOUS
 62
             7
100
AcDbLine
 10
59.650215
 20
0.00022100000001
 11
58.45351400000004
 21
3.24138099999993
  0
LINE
  5
3D
100
AcDbEntity
  8
LC-001-002-----0
  6
CONTINUOUS
 62
             7
100
AcDbLine
 10
66.74225799999999
 20
0.00024700000006
 11
63.11306200000001
 21
8.81301399999995
  0
LINE
  5
3C
100
AcDbEntity
  8
LC-001-002-----0
  6
CONTINUOUS
 62
             7
100
AcDbLine
 10
67.33754199999999
 20
0.00024900000005
 11
63.41249300000004
 21
9.53143299999999
  0
LINE
  5
3B
100
AcDbEntity
  8
LC-001-002-----0
  6
CONTINUOUS
 62
             7
100
AcDbLine
 10
-65.03820400000001
 20
-0.00023999999996
 11
-61.11300199999999
 21
9.53139199999998
  0
LINE
  5
3A
100
AcDbEntity
  8
LC-001-002-----0
  6
CONTINUOUS
 62
             7
100
AcDbLine
 10
-64.44291899999996
 20
-0.00023799999997
 11
-60.81356499999998
 21
8.81298200000003
  0
LINE
  5
39
100
AcDbEntity
  8
LC-001-002-----0
  6
CONTINUOUS
 62
             7
100
AcDbLine
 10
-58.50085300000001
 20
-0.00021600000002
 11
-56.95725699999997
 21
4.18051400000002
  0
LINE
  5
38
100
AcDbEntity
  8
LC-001-002-----0
  6
CONTINUOUS
 62
             7
100
AcDbLine
 10
-57.35085099999998
 20
-0.00021200000003
 11
-56.15335499999998
 21
3.24312999999995
  0
LINE
  5
37
100
AcDbEntity
  8
LC-001-002-----0
  6
CONTINUOUS
 62
             7
100
AcDbLine
 10
-33.95337000000001
 20
-0.00012500000003
 11
-32.55150500000002
 21
6.57623100000001
  0
ENDBLK
  5
87
100
AcDbEntity
  8
0
100
AcDbBlockEnd
  0
BLOCK
  5
2F
100
AcDbEntity
  8
0
100
AcDbBlockBegin
  2
K_RPER
 70
             0
 10
477.30868190245559
 20
-539.02703204262298
 30
0.0
  3
K_RPER
  1

  0
ARC
  5
20A
100
AcDbEntity
  8
LC-002-002-RND-0
  6
CONTINUOUS
 62
             7
100
AcDbCircle
 10
101.1532175832812
 20
-26.77422611411043
 40
1.5
100
AcDbArc
 50
-90.0
 51
0.0
  0
ARC
  5
209
100
AcDbEntity
  8
LC-002-002-RND-0
  6
CONTINUOUS
 62
             7
100
AcDbCircle
 10
103.1532175832812
 20
-12.77422611411043
 40
0.5
100
AcDbArc
 50
90.0
 51
180.0
  0
ARC
  5
208
100
AcDbEntity
  8
LC-002-002-RND-0
  6
CONTINUOUS
 62
             7
100
AcDbCircle
 10
-100.8537594167188
 20
-12.77422611411043
 40
0.5
100
AcDbArc
 50
0.0
 51
90.0
  0
ARC
  5
207
100
AcDbEntity
  8
LC-002-002-RND-0
  6
CONTINUOUS
 62
             7
100
AcDbCircle
 10
-98.85375941671883
 20
-26.77422611411043
 40
1.49999999999997
100
AcDbArc
 50
180.0
 51
-90.0
  0
ARC
  5
206
100
AcDbEntity
  8
LC-002-002-RND-0
  6
CONTINUOUS
 62
             7
100
AcDbCircle
 10
-103.1572384167189
 20
10.97666888588958
 40
3.92500000000009
100
AcDbArc
 50
24.10589500000311
 51
90.12740999999978
  0
ARC
  5
205
100
AcDbEntity
  8
LC-001-002-----0
  6
CONTINUOUS
 62
             7
100
AcDbCircle
 10
-103.1660624167189
 20
9.36890088588956
 40
5.57610900000012
100
AcDbArc
 50
89.90861600000025
 51
139.91174899999834
  0
ARC
  5
204
100
AcDbEntity
  8
LC-002-002-RND-0
  6
CONTINUOUS
 62
             7
100
AcDbCircle
 10
-104.4292494167189
 20
10.43215988588958
 40
3.92499999999996
100
AcDbArc
 50
139.91174900000175
 51
-135.50418600000208
  0
ARC
  5
203
100
AcDbEntity
  8
LC-002-002-RND-0
  6
CONTINUOUS
 62
             7
100
AcDbCircle
 10
-81.27829441671891
 20
10.43215988588958
 40
3.92499999999987
100
AcDbArc
 50
-44.49581399999732
 51
40.08825099999865
  0
ARC
  5
202
100
AcDbEntity
  8
LC-002-002-RND-0
  6
CONTINUOUS
 62
             7
100
AcDbCircle
 10
-82.55030641671887
 20
10.97666888588958
 40
3.9250000000003
100
AcDbArc
 50
89.87259000000063
 51
155.89410499999724
  0
ARC
  5
201
100
AcDbEntity
  8
LC-001-002-----0
  6
CONTINUOUS
 62
             7
100
AcDbCircle
 10
-82.54148141671887
 20
9.36890088588956
 40
5.57610900000019
100
AcDbArc
 50
40.08825100000178
 51
90.0913840000002
  0
ARC
  5
200
100
AcDbEntity
  8
LC-002-002-RND-0
  6
CONTINUOUS
 62
             7
100
AcDbCircle
 10
84.84621058328116
 20
10.97666888588958
 40
3.92500000000035
100
AcDbArc
 50
24.10589500000141
 51
90.12740999999939
  0
ARC
  5
1FF
100
AcDbEntity
  8
LC-001-002-----0
  6
CONTINUOUS
 62
             7
100
AcDbCircle
 10
84.83738658328116
 20
9.36890088588956
 40
5.57610900000012
100
AcDbArc
 50
89.90861600000039
 51
139.91174899999825
  0
ARC
  5
1FE
100
AcDbEntity
  8
LC-002-002-RND-0
  6
CONTINUOUS
 62
             7
100
AcDbCircle
 10
83.57419958328114
 20
10.43215988588958
 40
3.92499999999988
100
AcDbArc
 50
139.91174900000081
 51
-135.50418600000208
  0
ARC
  5
1FD
100
AcDbEntity
  8
LC-002-002-RND-0
  6
CONTINUOUS
 62
             7
100
AcDbCircle
 10
106.725154583281
 20
10.43215988588958
 40
3.92499999999991
100
AcDbArc
 50
-44.49581399999674
 51
40.08825100000092
  0
ARC
  5
1FC
100
AcDbEntity
  8
LC-002-002-RND-0
  6
CONTINUOUS
 62
             7
100
AcDbCircle
 10
105.4531435832811
 20
10.97666888588958
 40
3.9250000000003
100
AcDbArc
 50
89.87258999999317
 51
155.89410499999892
  0
ARC
  5
1FB
100
AcDbEntity
  8
LC-001-002-----0
  6
CONTINUOUS
 62
             7
100
AcDbCircle
 10
105.46196758328109
 20
9.36890088588956
 40
5.57610900000012
100
AcDbArc
 50
40.08825100000233
 51
90.09138400000079
  0
ARC
  5
1FA
100
AcDbEntity
  8
LC-002-002-RND-0
  6
CONTINUOUS
 62
             7
100
AcDbCircle
 10
-173.85026341671889
 20
-1.99998511411047
 40
1.99999999999971
100
AcDbArc
 50
90.00021199999625
 51
-179.99975200000372
  0
ARC
  5
1F9
100
AcDbEntity
  8
LC-002-002-RND-0
  6
CONTINUOUS
 62
             7
100
AcDbCircle
 10
176.1497285832811
 20
-1.99869211411044
 40
2.0
100
AcDbArc
 50
0.0
 51
90.00021199999625
  0
ARC
  5
1F8
100
AcDbEntity
  8
LC-002-002-RND-0
  6
CONTINUOUS
 62
             7
100
AcDbCircle
 10
-55.99056641671888
 20
10.97710788588955
 40
3.92500000000015
100
AcDbArc
 50
24.10589500000279
 51
90.12740999999949
  0
ARC
  5
1F7
100
AcDbEntity
  8
LC-001-002-----0
  6
CONTINUOUS
 62
             7
100
AcDbCircle
 10
-55.99939041671888
 20
9.36934088588959
 40
5.57610900000013
100
AcDbArc
 50
89.90861599999981
 51
139.91174899999822
  0
ARC
  5
1F6
100
AcDbEntity
  8
LC-002-002-RND-0
  6
CONTINUOUS
 62
             7
100
AcDbCircle
 10
-57.2625774167189
 20
10.43259988588955
 40
3.92499999999996
100
AcDbArc
 50
139.91174900000067
 51
-135.5041860000027
  0
ARC
  5
1F5
100
AcDbEntity
  8
LC-002-002-RND-0
  6
CONTINUOUS
 62
             7
100
AcDbCircle
 10
-34.11162241671889
 20
10.43259988588955
 40
3.92499999999979
100
AcDbArc
 50
-44.49581399999735
 51
40.08825099999983
  0
ARC
  5
1F4
100
AcDbEntity
  8
LC-002-002-RND-0
  6
CONTINUOUS
 62
             7
100
AcDbCircle
 10
-35.38363341671885
 20
10.97710788588955
 40
3.9250000000003
100
AcDbArc
 50
89.87259000000063
 51
155.89410499999721
  0
ARC
  5
1F3
100
AcDbEntity
  8
LC-001-002-----0
  6
CONTINUOUS
 62
             7
100
AcDbCircle
 10
-35.3748094167189
 20
9.36934088588959
 40
5.57610900000023
100
AcDbArc
 50
40.08825100000149
 51
90.09138399999975
  0
ARC
  5
1F2
100
AcDbEntity
  8
LC-002-002-RND-0
  6
CONTINUOUS
 62
             7
100
AcDbCircle
 10
58.29008958328109
 20
10.97708688588961
 40
3.92499999999988
100
AcDbArc
 50
89.87256799999879
 51
155.89408300000346
  0
ARC
  5
1F1
100
AcDbEntity
  8
LC-001-002-----0
  6
CONTINUOUS
 62
             7
100
AcDbCircle
 10
58.29891358328109
 20
9.36931888588953
 40
5.57610900000012
100
AcDbArc
 50
40.08823000000017
 51
90.09136199999941
  0
ARC
  5
1F0
100
AcDbEntity
  8
LC-002-002-RND-0
  6
CONTINUOUS
 62
             7
100
AcDbCircle
 10
59.56210058328111
 20
10.4325778858896
 40
3.92500000000004
100
AcDbArc
 50
-44.49583499999985
 51
40.0882299999934
  0
ARC
  5
1EF
100
AcDbEntity
  8
LC-002-002-RND-0
  6
CONTINUOUS
 62
             7
100
AcDbCircle
 10
36.41114558328115
 20
10.43258688588958
 40
3.9250000000002
100
AcDbArc
 50
139.91172699999765
 51
-135.50420800000006
  0
ARC
  5
1EE
100
AcDbEntity
  8
LC-002-002-RND-0
  6
CONTINUOUS
 62
             7
100
AcDbCircle
 10
37.68315758328112
 20
10.97709488588959
 40
3.92499999999996
100
AcDbArc
 50
24.10587299999897
 51
90.12738799999956
  0
ARC
  5
1ED
100
AcDbEntity
  8
LC-001-002-----0
  6
CONTINUOUS
 62
             7
100
AcDbCircle
 10
37.67433158328112
 20
9.36932688588956
 40
5.57610900000045
100
AcDbArc
 50
89.90859400000031
 51
139.91172700000081
  0
ARC
  5
1EC
100
AcDbEntity
  8
LC-001-002-----0
  6
CONTINUOUS
 62
             1
100
AcDbCircle
 10
-96.11406341671888
 20
-28.95381011411041
 40
0.37354699999999
100
AcDbArc
 50
0.65755899995093
 51
42.03020200000151
  0
ARC
  5
1EB
100
AcDbEntity
  8
LC-001-002-----0
  6
CONTINUOUS
 62
             1
100
AcDbCircle
 10
-96.49634041671892
 20
-29.28970111411047
 40
0.88240999999989
100
AcDbArc
 50
41.61165799999098
 51
64.78609899999803
  0
ARC
  5
1EA
100
AcDbEntity
  8
LC-001-002-----0
  6
CONTINUOUS
 62
             1
100
AcDbCircle
 10
-96.94797641671887
 20
-30.18653611411042
 40
1.88638100000015
100
AcDbArc
 50
63.97949900000423
 51
77.89818299999752
  0
ARC
  5
1E9
100
AcDbEntity
  8
LC-001-002-----0
  6
CONTINUOUS
 62
             1
100
AcDbCircle
 10
-97.16612141671887
 20
-31.12035611411045
 40
2.84523599999986
100
AcDbArc
 50
77.54533100000117
 51
88.11559499999991
  0
ARC
  5
1E8
100
AcDbEntity
  8
LC-001-002-----0
  6
CONTINUOUS
 62
             1
100
AcDbCircle
 10
-87.46518541671891
 20
-28.95736411411042
 40
0.38519100000006
100
AcDbArc
 50
2.01890900003618
 51
44.42719699996464
  0
ARC
  5
1E7
100
AcDbEntity
  8
LC-001-002-----0
  6
CONTINUOUS
 62
             1
100
AcDbCircle
 10
-87.8812794167189
 20
-29.34991511411045
 40
0.95719000000015
100
AcDbArc
 50
43.7728990000069
 51
66.72101100001055
  0
ARC
  5
1E6
100
AcDbEntity
  8
LC-001-002-----0
  6
CONTINUOUS
 62
             1
100
AcDbCircle
 10
-88.33534041671886
 20
-30.32937011411048
 40
2.03657800000016
100
AcDbArc
 50
65.87678400000314
 51
79.70170400000085
  0
ARC
  5
1E5
100
AcDbEntity
  8
LC-001-002-----0
  6
CONTINUOUS
 62
             1
100
AcDbCircle
 10
-88.51731941671888
 20
-31.22692211411044
 40
2.95226200000022
100
AcDbArc
 50
79.3409280000002
 51
90.12210500000046
  0
ARC
  5
1E4
100
AcDbEntity
  8
LC-001-002-----0
  6
CONTINUOUS
 62
             1
100
AcDbCircle
 10
-89.58113441671891
 20
-32.79106811411043
 40
0.3863259999999
100
AcDbArc
 50
-177.00404000000441
 51
-136.02385800004009
  0
ARC
  5
1E3
100
AcDbEntity
  8
LC-001-002-----0
  6
CONTINUOUS
 62
             1
100
AcDbCircle
 10
-89.17924541671887
 20
-32.41670411411047
 40
0.93552900000029
100
AcDbArc
 50
-136.61497399998649
 51
-114.04075600001333
  0
ARC
  5
1E2
100
AcDbEntity
  8
LC-001-002-----0
  6
CONTINUOUS
 62
             1
100
AcDbCircle
 10
-88.73180141671891
 20
-31.48071511411047
 40
1.97279800000015
100
AcDbArc
 50
-114.8342969999954
 51
-101.15082800000157
  0
ARC
  5
1E1
100
AcDbEntity
  8
LC-001-002-----0
  6
CONTINUOUS
 62
             1
100
AcDbCircle
 10
-88.53481241671888
 20
-30.57173811411047
 40
2.90276399999973
100
AcDbArc
 50
-101.49586600000077
 51
-90.93044799999967
  0
ARC
  5
1E0
100
AcDbEntity
  8
LC-001-002-----0
  6
CONTINUOUS
 62
             1
100
AcDbCircle
 10
-98.24228841671892
 20
-32.79196911411043
 40
0.38518899999999
100
AcDbArc
 50
-177.98132500007705
 51
-135.57295500001709
  0
ARC
  5
1DF
100
AcDbEntity
  8
LC-001-002-----0
  6
CONTINUOUS
 62
             1
100
AcDbCircle
 10
-97.82619541671888
 20
-32.3994201141104
 40
0.95718599999985
100
AcDbArc
 50
-136.22724000000895
 51
-113.27906499999864
  0
ARC
  5
1DE
100
AcDbEntity
  8
LC-001-002-----0
  6
CONTINUOUS
 62
             1
100
AcDbCircle
 10
-97.37213341671891
 20
-31.41996711411048
 40
2.03657299999998
100
AcDbArc
 50
-114.12329499999862
 51
-100.29835200000004
  0
ARC
  5
1DD
100
AcDbEntity
  8
LC-001-002-----0
  6
CONTINUOUS
 62
             1
100
AcDbCircle
 10
-97.1901534167189
 20
-30.52241311411046
 40
2.95225999999983
100
AcDbArc
 50
-100.65912900000109
 51
-89.8779469999987
  0
ARC
  5
1DC
100
AcDbEntity
  8
LC-001-002-----0
  6
CONTINUOUS
 62
             1
100
AcDbCircle
 10
-90.26720941671887
 20
-28.98841211411047
 40
0.30262800000005
100
AcDbArc
 50
7.3837110000392
 51
67.14240800003252
  0
ARC
  5
1DB
100
AcDbEntity
  8
LC-001-002-----0
  6
CONTINUOUS
 62
             1
100
AcDbCircle
 10
-91.15202741671887
 20
-30.50078511411044
 40
2.05262700000009
100
AcDbArc
 50
60.76873700000132
 51
77.01552200000181
  0
ARC
  5
1DA
100
AcDbEntity
  8
LC-001-002-----0
  6
CONTINUOUS
 62
             1
100
AcDbCircle
 10
-92.22886741671887
 20
-34.62466711411042
 40
6.31421000000042
100
AcDbArc
 50
75.90184800000101
 51
83.5434850000003
  0
ARC
  5
1D9
100
AcDbEntity
  8
LC-001-002-----0
  6
CONTINUOUS
 62
             1
100
AcDbCircle
 10
-92.79154741671887
 20
-39.14753711411044
 40
10.87178399999962
100
AcDbArc
 50
83.27724299999993
 51
88.58922300000037
  0
ARC
  5
1D8
100
AcDbEntity
  8
LC-001-002-----0
  6
CONTINUOUS
 62
             1
100
AcDbCircle
 10
-95.41269141671889
 20
-32.74419111411044
 40
0.33348700000007
100
AcDbArc
 50
-169.39993499994958
 51
-110.59143000000516
  0
ARC
  5
1D7
100
AcDbEntity
  8
LC-001-002-----0
  6
CONTINUOUS
 62
             1
100
AcDbCircle
 10
-94.44271741671891
 20
-30.95695611411043
 40
2.36425200000015
100
AcDbArc
 50
-117.37907199999758
 51
-101.87322700000037
  0
ARC
  5
1D6
100
AcDbEntity
  8
LC-001-002-----0
  6
CONTINUOUS
 62
             1
100
AcDbCircle
 10
-93.35323941671892
 20
-26.4070961141104
 40
7.04212699999961
100
AcDbArc
 50
-102.93139100000073
 51
-95.47912400000024
  0
ARC
  5
1D5
100
AcDbEntity
  8
LC-001-002-----0
  6
CONTINUOUS
 62
             1
100
AcDbCircle
 10
-92.8788034167189
 20
-22.0019711141104
 40
11.47254199999956
100
AcDbArc
 50
-95.73709000000029
 51
-90.36163599999999
  0
ARC
  5
1D4
100
AcDbEntity
  8
LC-001-002-----0
  6
CONTINUOUS
 62
             1
100
AcDbCircle
 10
-97.1901534167189
 20
-31.22692011411044
 40
2.95226099999965
100
AcDbArc
 50
89.87792499999949
 51
100.65910499999896
  0
ARC
  5
1D3
100
AcDbEntity
  8
LC-001-002-----0
  6
CONTINUOUS
 62
             1
100
AcDbCircle
 10
-97.37213341671891
 20
-30.32936711411043
 40
2.03657500000046
100
AcDbArc
 50
100.29832799999613
 51
114.12326199999903
  0
ARC
  5
1D2
100
AcDbEntity
  8
LC-001-002-----0
  6
CONTINUOUS
 62
             1
100
AcDbCircle
 10
-97.82619441671888
 20
-29.34991311411045
 40
0.95718699999994
100
AcDbArc
 50
113.27903400000112
 51
136.22718300001128
  0
ARC
  5
1D1
100
AcDbEntity
  8
LC-001-002-----0
  6
CONTINUOUS
 62
             1
100
AcDbCircle
 10
-98.24228741671892
 20
-28.95736311411042
 40
0.38518999999982
100
AcDbArc
 50
135.57289300002543
 51
177.98123099998699
  0
ARC
  5
1D0
100
AcDbEntity
  8
LC-001-002-----0
  6
CONTINUOUS
 62
             1
100
AcDbCircle
 10
-92.8848594167189
 20
-39.63324811411047
 40
11.35831099999981
100
AcDbArc
 50
90.5650959999999
 51
95.95115599999971
  0
ARC
  5
1CF
100
AcDbEntity
  8
LC-001-002-----0
  6
CONTINUOUS
 62
             1
100
AcDbCircle
 10
-93.38240841671889
 20
-35.16558911411045
 40
6.86321699999959
100
AcDbArc
 50
95.68686300000047
 51
103.23288200000086
  0
ARC
  5
1CE
100
AcDbEntity
  8
LC-001-002-----0
  6
CONTINUOUS
 62
             1
100
AcDbCircle
 10
-94.4781354167189
 20
-30.6959791141104
 40
2.26188200000035
100
AcDbArc
 50
102.13100999999855
 51
118.02968499999783
  0
ARC
  5
1CD
100
AcDbEntity
  8
LC-001-002-----0
  6
CONTINUOUS
 62
             1
100
AcDbCircle
 10
-95.4268244167189
 20
-28.9949241141104
 40
0.31682899999952
100
AcDbArc
 50
111.13452400002478
 51
171.76010299991958
  0
ARC
  5
1CC
100
AcDbEntity
  8
LC-001-002-----0
  6
CONTINUOUS
 62
             1
100
AcDbCircle
 10
-88.54298541671888
 20
-31.10856011411045
 40
2.83334599999965
100
AcDbArc
 50
92.16196500000021
 51
102.56848400000158
  0
ARC
  5
1CB
100
AcDbEntity
  8
LC-001-002-----0
  6
CONTINUOUS
 62
             1
100
AcDbCircle
 10
-88.75978841671891
 20
-30.18693511411044
 40
1.8866609999996
100
AcDbArc
 50
102.23272400000333
 51
115.89549300000122
  0
ARC
  5
1CA
100
AcDbEntity
  8
LC-001-002-----0
  6
CONTINUOUS
 62
             1
100
AcDbCircle
 10
-89.20266341671892
 20
-29.30185711411048
 40
0.89711300000028
100
AcDbArc
 50
115.13766899999088
 51
137.63430800001919
  0
ARC
  5
1C9
100
AcDbEntity
  8
LC-001-002-----0
  6
CONTINUOUS
 62
             1
100
AcDbCircle
 10
-89.58547941671885
 20
-28.95704511411043
 40
0.38192400000018
100
AcDbArc
 50
137.15458699998462
 51
177.15170800003972
  0
ARC
  5
1C8
100
AcDbEntity
  8
LC-001-002-----0
  6
CONTINUOUS
 62
             1
100
AcDbCircle
 10
-97.16925041671892
 20
-30.60263111411041
 40
2.87172799999967
100
AcDbArc
 50
-88.53676799999843
 51
-77.97851600000101
  0
ARC
  5
1C7
100
AcDbEntity
  8
LC-001-002-----0
  6
CONTINUOUS
 62
             1
100
AcDbCircle
 10
-96.9607544167189
 20
-31.52550411411045
 40
1.92570499999989
100
AcDbArc
 50
-78.32691199999755
 51
-64.52943100000286
  0
ARC
  5
1C6
100
AcDbEntity
  8
LC-001-002-----0
  6
CONTINUOUS
 62
             1
100
AcDbCircle
 10
-96.51118941671889
 20
-32.43988711411043
 40
0.9069470000002
100
AcDbArc
 50
-65.32808400000829
 51
-42.46043400000689
  0
ARC
  5
1C5
100
AcDbEntity
  8
LC-001-002-----0
  6
CONTINUOUS
 62
             1
100
AcDbCircle
 10
-96.11986641671889
 20
-32.7934671141104
 40
0.37957099999977
100
AcDbArc
 50
-42.96205899996357
 51
-1.82232999997966
  0
ARC
  5
1C4
100
AcDbEntity
  8
LC-001-002-----0
  6
CONTINUOUS
 62
             1
100
AcDbCircle
 10
-92.84592141671887
 20
-21.61427511411046
 40
11.86047599999999
100
AcDbArc
 50
-90.50710500000042
 51
-85.0497280000003
  0
ARC
  5
1C3
100
AcDbEntity
  8
LC-001-002-----0
  6
CONTINUOUS
 62
             1
100
AcDbCircle
 10
-92.44935441671886
 20
-25.80152311411041
 40
7.65470200000028
100
AcDbArc
 50
-85.30246800000047
 51
-77.98609900000125
  0
ARC
  5
1C2
100
AcDbEntity
  8
LC-001-002-----0
  6
CONTINUOUS
 62
             1
100
AcDbCircle
 10
-91.36237841671887
 20
-30.68486611411043
 40
2.65247499999979
100
AcDbArc
 50
-78.99501999999886
 51
-64.09116999999846
  0
ARC
  5
1C1
100
AcDbEntity
  8
LC-001-002-----0
  6
CONTINUOUS
 62
             1
100
AcDbCircle
 10
-90.32151341671887
 20
-32.72583011411041
 40
0.36457400000006
100
AcDbArc
 50
-71.09714100001382
 51
-13.55235300002323
  0
ARC
  5
1C0
100
AcDbEntity
  8
LC-001-002-----0
  6
CONTINUOUS
 62
             1
100
AcDbCircle
 10
-88.51731941671888
 20
-30.52241211411047
 40
2.95226099999959
100
AcDbArc
 50
-90.1220750000016
 51
-79.34089000000184
  0
ARC
  5
1BF
100
AcDbEntity
  8
LC-001-002-----0
  6
CONTINUOUS
 62
             1
100
AcDbCircle
 10
-88.33533841671887
 20
-31.41996611411042
 40
2.03657400000026
100
AcDbArc
 50
-79.70166700000202
 51
-65.87672399999896
  0
ARC
  5
1BE
100
AcDbEntity
  8
LC-001-002-----0
  6
CONTINUOUS
 62
             1
100
AcDbCircle
 10
-87.8812774167189
 20
-32.3994201141104
 40
0.95718599999968
100
AcDbArc
 50
-66.72095399999338
 51
-43.77277800000815
  0
ARC
  5
1BD
100
AcDbEntity
  8
LC-001-002-----0
  6
CONTINUOUS
 62
             1
100
AcDbCircle
 10
-87.46518341671892
 20
-32.79196911411043
 40
0.38519000000017
100
AcDbArc
 50
-44.42706500001219
 51
-2.0186780000424
  0
ARC
  5
1BC
100
AcDbEntity
  8
LC-001-002-----0
  6
CONTINUOUS
 62
             1
100
AcDbCircle
 10
99.46557958328117
 20
-31.12035611411045
 40
2.84523600000043
100
AcDbArc
 50
91.88440500000466
 51
102.45466900001001
  0
ARC
  5
1BB
100
AcDbEntity
  8
LC-001-002-----0
  6
CONTINUOUS
 62
             1
100
AcDbCircle
 10
99.24743458328112
 20
-30.18653611411042
 40
1.88638099999971
100
AcDbArc
 50
102.10181699999913
 51
116.02050099998958
  0
ARC
  5
1BA
100
AcDbEntity
  8
LC-001-002-----0
  6
CONTINUOUS
 62
             1
100
AcDbCircle
 10
98.79579858328111
 20
-29.28970111411047
 40
0.88240999999989
100
AcDbArc
 50
115.21390099997859
 51
138.38834200002862
  0
ARC
  5
1B9
100
AcDbEntity
  8
LC-001-002-----0
  6
CONTINUOUS
 62
             1
100
AcDbCircle
 10
98.41352158328107
 20
-28.95381011411041
 40
0.37354700000026
100
AcDbArc
 50
137.96979800003351
 51
179.34244100004847
  0
ARC
  5
1B8
100
AcDbEntity
  8
LC-001-002-----0
  6
CONTINUOUS
 62
             1
100
AcDbCircle
 10
90.81677758328112
 20
-31.22692211411044
 40
2.95226199999981
100
AcDbArc
 50
89.87789499998962
 51
100.65907200000305
  0
ARC
  5
1B7
100
AcDbEntity
  8
LC-001-002-----0
  6
CONTINUOUS
 62
             1
100
AcDbCircle
 10
90.63479858328117
 20
-30.32937011411048
 40
2.03657799999993
100
AcDbArc
 50
100.29829599999287
 51
114.12321599998519
  0
ARC
  5
1B6
100
AcDbEntity
  8
LC-001-002-----0
  6
CONTINUOUS
 62
             1
100
AcDbCircle
 10
90.18073758328114
 20
-29.34991511411045
 40
0.95719000000051
100
AcDbArc
 50
113.27898900001446
 51
136.22710099999546
  0
ARC
  5
1B5
100
AcDbEntity
  8
LC-001-002-----0
  6
CONTINUOUS
 62
             1
100
AcDbCircle
 10
89.7646435832811
 20
-28.95736411411042
 40
0.38519099999983
100
AcDbArc
 50
135.5728030000472
 51
177.98109099996412
  0
ARC
  5
1B4
100
AcDbEntity
  8
LC-001-002-----0
  6
CONTINUOUS
 62
             1
100
AcDbCircle
 10
90.83427158328107
 20
-30.57173811411047
 40
2.90276399999975
100
AcDbArc
 50
-89.06955200000145
 51
-78.50413399999923
  0
ARC
  5
1B3
100
AcDbEntity
  8
LC-001-002-----0
  6
CONTINUOUS
 62
             1
100
AcDbCircle
 10
91.0312595832811
 20
-31.48071511411047
 40
1.97279799999989
100
AcDbArc
 50
-78.84917199998873
 51
-65.16570300000761
  0
ARC
  5
1B2
100
AcDbEntity
  8
LC-001-002-----0
  6
CONTINUOUS
 62
             1
100
AcDbCircle
 10
91.47870358328112
 20
-32.41670411411047
 40
0.93552899999951
100
AcDbArc
 50
-65.95924399998985
 51
-43.38502600003503
  0
ARC
  5
1B1
100
AcDbEntity
  8
LC-001-002-----0
  6
CONTINUOUS
 62
             1
100
AcDbCircle
 10
91.8805925832811
 20
-32.79106811411043
 40
0.38632599999947
100
AcDbArc
 50
-43.97614199998917
 51
-2.99595999999649
  0
ARC
  5
1B0
100
AcDbEntity
  8
LC-001-002-----0
  6
CONTINUOUS
 62
             1
100
AcDbCircle
 10
99.48961158328109
 20
-30.52241311411046
 40
2.95226000000039
100
AcDbArc
 50
-90.12205299999688
 51
-79.34087099999486
  0
ARC
  5
1AF
100
AcDbEntity
  8
LC-001-002-----0
  6
CONTINUOUS
 62
             1
100
AcDbCircle
 10
99.67159258328115
 20
-31.41996711411048
 40
2.03657299999989
100
AcDbArc
 50
-79.70164799998699
 51
-65.8767050000021
  0
ARC
  5
1AE
100
AcDbEntity
  8
LC-001-002-----0
  6
CONTINUOUS
 62
             1
100
AcDbCircle
 10
100.12565358328121
 20
-32.3994201141104
 40
0.95718600000012
100
AcDbArc
 50
-66.72093500000763
 51
-43.77275999997517
  0
ARC
  5
1AD
100
AcDbEntity
  8
LC-001-002-----0
  6
CONTINUOUS
 62
             1
100
AcDbCircle
 10
100.5417465832811
 20
-32.79196911411043
 40
0.38518899999982
100
AcDbArc
 50
-44.42704499999032
 51
-2.01867499992185
  0
ARC
  5
1AC
100
AcDbEntity
  8
LC-001-002-----0
  6
CONTINUOUS
 62
             1
100
AcDbCircle
 10
95.09100558328112
 20
-39.14753711411044
 40
10.87178399999985
100
AcDbArc
 50
91.41077699999904
 51
96.72275700000158
  0
ARC
  5
1AB
100
AcDbEntity
  8
LC-001-002-----0
  6
CONTINUOUS
 62
             1
100
AcDbCircle
 10
94.52832558328112
 20
-34.62466711411042
 40
6.31420999999951
100
AcDbArc
 50
96.45651499999612
 51
104.098152000002
  0
ARC
  5
1AA
100
AcDbEntity
  8
LC-001-002-----0
  6
CONTINUOUS
 62
             1
100
AcDbCircle
 10
93.45148558328117
 20
-30.50078511411044
 40
2.05262700000047
100
AcDbArc
 50
102.98447800000437
 51
119.23126300000976
  0
ARC
  5
1A9
100
AcDbEntity
  8
LC-001-002-----0
  6
CONTINUOUS
 62
             1
100
AcDbCircle
 10
92.56666758328117
 20
-28.98841211411047
 40
0.30262800000029
100
AcDbArc
 50
112.8575919999179
 51
172.6162889999608
  0
ARC
  5
1A8
100
AcDbEntity
  8
LC-001-002-----0
  6
CONTINUOUS
 62
             1
100
AcDbCircle
 10
95.17826158328114
 20
-22.0019711141104
 40
11.47254199999999
100
AcDbArc
 50
-89.63836400000199
 51
-84.26290999999716
  0
ARC
  5
1A7
100
AcDbEntity
  8
LC-001-002-----0
  6
CONTINUOUS
 62
             1
100
AcDbCircle
 10
95.65269758328111
 20
-26.4070961141104
 40
7.04212699999972
100
AcDbArc
 50
-84.52087600000208
 51
-77.068609000002
  0
ARC
  5
1A6
100
AcDbEntity
  8
LC-001-002-----0
  6
CONTINUOUS
 62
             1
100
AcDbCircle
 10
96.7421755832811
 20
-30.95695611411043
 40
2.36425199999974
100
AcDbArc
 50
-78.1267730000037
 51
-62.62092799999996
  0
ARC
  5
1A5
100
AcDbEntity
  8
LC-001-002-----0
  6
CONTINUOUS
 62
             1
100
AcDbCircle
 10
97.71214958328108
 20
-32.74419111411044
 40
0.33348700000006
100
AcDbArc
 50
-69.40857000003142
 51
-10.60006500003425
  0
ARC
  5
1A4
100
AcDbEntity
  8
LC-001-002-----0
  6
CONTINUOUS
 62
             1
100
AcDbCircle
 10
100.5417465832811
 20
-28.95736311411042
 40
0.38518999999981
100
AcDbArc
 50
2.01876900001374
 51
44.42710699997163
  0
ARC
  5
1A3
100
AcDbEntity
  8
LC-001-002-----0
  6
CONTINUOUS
 62
             1
100
AcDbCircle
 10
100.1256525832811
 20
-29.34991311411045
 40
0.95718699999994
100
AcDbArc
 50
43.7728169999846
 51
66.72096599997779
  0
ARC
  5
1A2
100
AcDbEntity
  8
LC-001-002-----0
  6
CONTINUOUS
 62
             1
100
AcDbCircle
 10
99.67159158328116
 20
-30.32936711411043
 40
2.03657500000016
100
AcDbArc
 50
65.87673799999989
 51
79.70167199999602
  0
ARC
  5
1A1
100
AcDbEntity
  8
LC-001-002-----0
  6
CONTINUOUS
 62
             1
100
AcDbCircle
 10
99.48961158328109
 20
-31.22692011411044
 40
2.95226100000021
100
AcDbArc
 50
79.34089499999104
 51
90.12207500000491
  0
ARC
  5
1A0
100
AcDbEntity
  8
LC-001-002-----0
  6
CONTINUOUS
 62
             1
100
AcDbCircle
 10
97.72628258328109
 20
-28.9949241141104
 40
0.31682900000055
100
AcDbArc
 50
8.23989700006718
 51
68.8654759999944
  0
ARC
  5
19F
100
AcDbEntity
  8
LC-001-002-----0
  6
CONTINUOUS
 62
             1
100
AcDbCircle
 10
96.77759358328115
 20
-30.6959791141104
 40
2.26188200000014
100
AcDbArc
 50
61.97031500000345
 51
77.86899000001131
  0
ARC
  5
19E
100
AcDbEntity
  8
LC-001-002-----0
  6
CONTINUOUS
 62
             1
100
AcDbCircle
 10
95.68186758328113
 20
-35.16558911411045
 40
6.86321699999944
100
AcDbArc
 50
76.7671180000024
 51
84.31313700000284
  0
ARC
  5
19D
100
AcDbEntity
  8
LC-001-002-----0
  6
CONTINUOUS
 62
             1
100
AcDbCircle
 10
95.18431758328109
 20
-39.63324811411047
 40
11.3583110000004
100
AcDbArc
 50
84.04884399999888
 51
89.43490400000097
  0
ARC
  5
19C
100
AcDbEntity
  8
LC-001-002-----0
  6
CONTINUOUS
 62
             1
100
AcDbCircle
 10
91.88493858328116
 20
-28.95704511411043
 40
0.38192400000005
100
AcDbArc
 50
2.84829199996029
 51
42.84541299999219
  0
ARC
  5
19B
100
AcDbEntity
  8
LC-001-002-----0
  6
CONTINUOUS
 62
             1
100
AcDbCircle
 10
91.50212158328111
 20
-29.30185711411048
 40
0.8971129999994
100
AcDbArc
 50
42.36569200000285
 51
64.86233099998943
  0
ARC
  5
19A
100
AcDbEntity
  8
LC-001-002-----0
  6
CONTINUOUS
 62
             1
100
AcDbCircle
 10
91.05924658328115
 20
-30.18693511411044
 40
1.88666100000007
100
AcDbArc
 50
64.10450699999257
 51
77.76727600000511
  0
ARC
  5
199
100
AcDbEntity
  8
LC-001-002-----0
  6
CONTINUOUS
 62
             1
100
AcDbCircle
 10
90.84244458328112
 20
-31.10856011411045
 40
2.83334599999977
100
AcDbArc
 50
77.43151600000292
 51
87.83803499999405
  0
ARC
  5
198
100
AcDbEntity
  8
LC-001-002-----0
  6
CONTINUOUS
 62
             1
100
AcDbCircle
 10
98.41932558328108
 20
-32.7934671141104
 40
0.37957099999988
100
AcDbArc
 50
-178.17767000002007
 51
-137.03794100004228
  0
ARC
  5
197
100
AcDbEntity
  8
LC-001-002-----0
  6
CONTINUOUS
 62
             1
100
AcDbCircle
 10
98.81064758328114
 20
-32.43988711411043
 40
0.90694700000046
100
AcDbArc
 50
-137.53956600001251
 51
-114.67191599999499
  0
ARC
  5
196
100
AcDbEntity
  8
LC-001-002-----0
  6
CONTINUOUS
 62
             1
100
AcDbCircle
 10
99.26021258328115
 20
-31.52550411411045
 40
1.92570500000035
100
AcDbArc
 50
-115.47056900000173
 51
-101.67308799999914
  0
ARC
  5
195
100
AcDbEntity
  8
LC-001-002-----0
  6
CONTINUOUS
 62
             1
100
AcDbCircle
 10
99.46870858328111
 20
-30.60263111411041
 40
2.87172800000047
100
AcDbArc
 50
-102.02148399999345
 51
-91.46323200000383
  0
ARC
  5
194
100
AcDbEntity
  8
LC-001-002-----0
  6
CONTINUOUS
 62
             1
100
AcDbCircle
 10
92.62097158328118
 20
-32.72583011411041
 40
0.36457400000039
100
AcDbArc
 50
-166.44764699999143
 51
-108.90285900000309
  0
ARC
  5
193
100
AcDbEntity
  8
LC-001-002-----0
  6
CONTINUOUS
 62
             1
100
AcDbCircle
 10
93.66183658328112
 20
-30.68486611411043
 40
2.6524750000001
100
AcDbArc
 50
-115.90883000000929
 51
-101.00498000000356
  0
ARC
  5
192
100
AcDbEntity
  8
LC-001-002-----0
  6
CONTINUOUS
 62
             1
100
AcDbCircle
 10
94.74881258328117
 20
-25.80152311411041
 40
7.65470200000037
100
AcDbArc
 50
-102.01390099999875
 51
-94.69753200000207
  0
ARC
  5
191
100
AcDbEntity
  8
LC-001-002-----0
  6
CONTINUOUS
 62
             1
100
AcDbCircle
 10
95.14537958328117
 20
-21.61427511411046
 40
11.86047600000044
100
AcDbArc
 50
-94.95027200000025
 51
-89.49289499999847
  0
ARC
  5
190
100
AcDbEntity
  8
LC-001-002-----0
  6
CONTINUOUS
 62
             1
100
AcDbCircle
 10
89.7646425832811
 20
-32.79196911411043
 40
0.38519000000024
100
AcDbArc
 50
-177.98132199995882
 51
-135.5729350000174
  0
ARC
  5
18F
100
AcDbEntity
  8
LC-001-002-----0
  6
CONTINUOUS
 62
             1
100
AcDbCircle
 10
90.18073558328115
 20
-32.3994201141104
 40
0.95718600000004
100
AcDbArc
 50
-136.2272219999895
 51
-113.27904600003787
  0
ARC
  5
18E
100
AcDbEntity
  8
LC-001-002-----0
  6
CONTINUOUS
 62
             1
100
AcDbCircle
 10
90.63479758328117
 20
-31.41996611411042
 40
2.03657400000005
100
AcDbArc
 50
-114.12327600000106
 51
-100.29833300000901
  0
ARC
  5
18D
100
AcDbEntity
  8
LC-001-002-----0
  6
CONTINUOUS
 62
             1
100
AcDbCircle
 10
90.81677758328112
 20
-30.52241211411047
 40
2.95226100000024
100
AcDbArc
 50
-100.65910999999167
 51
-89.87792499999289
  0
ARC
  5
18C
100
AcDbEntity
  8
LC-001-002-----0
  6
CONTINUOUS
 62
             1
100
AcDbCircle
 10
-48.94739041671886
 20
-28.95337011411044
 40
0.37354699999998
100
AcDbArc
 50
0.65755899996021
 51
42.03020200000839
  0
ARC
  5
18B
100
AcDbEntity
  8
LC-001-002-----0
  6
CONTINUOUS
 62
             1
100
AcDbCircle
 10
-49.32966841671885
 20
-29.28926111411045
 40
0.88240999999981
100
AcDbArc
 50
41.61165799999085
 51
64.78609900000085
  0
ARC
  5
18A
100
AcDbEntity
  8
LC-001-002-----0
  6
CONTINUOUS
 62
             1
100
AcDbCircle
 10
-49.78130441671885
 20
-30.18609611411046
 40
1.88638100000019
100
AcDbArc
 50
63.97949900000518
 51
77.89818299999779
  0
ARC
  5
189
100
AcDbEntity
  8
LC-001-002-----0
  6
CONTINUOUS
 62
             1
100
AcDbCircle
 10
-49.9994494167189
 20
-31.11991611411042
 40
2.84523599999984
100
AcDbArc
 50
77.54533099999756
 51
88.11559499999873
  0
ARC
  5
188
100
AcDbEntity
  8
LC-001-002-----0
  6
CONTINUOUS
 62
             1
100
AcDbCircle
 10
-40.29851241671889
 20
-28.95692411411045
 40
0.38519100000006
100
AcDbArc
 50
2.01890900004516
 51
44.42719699997821
  0
ARC
  5
187
100
AcDbEntity
  8
LC-001-002-----0
  6
CONTINUOUS
 62
             1
100
AcDbCircle
 10
-40.71460741671888
 20
-29.34947511411042
 40
0.95719000000015
100
AcDbArc
 50
43.77289900000659
 51
66.72101100001015
  0
ARC
  5
186
100
AcDbEntity
  8
LC-001-002-----0
  6
CONTINUOUS
 62
             1
100
AcDbCircle
 10
-41.1686674167189
 20
-30.32893011411045
 40
2.03657800000019
100
AcDbArc
 50
65.87678400000027
 51
79.70170399999942
  0
ARC
  5
185
100
AcDbEntity
  8
LC-001-002-----0
  6
CONTINUOUS
 62
             1
100
AcDbCircle
 10
-41.35064641671886
 20
-31.22648211411047
 40
2.95226200000028
100
AcDbArc
 50
79.34092800000043
 51
90.12210499999935
  0
ARC
  5
184
100
AcDbEntity
  8
LC-001-002-----0
  6
CONTINUOUS
 62
             1
100
AcDbCircle
 10
-42.41446241671889
 20
-32.79062811411046
 40
0.38632600000001
100
AcDbArc
 50
-177.00404000000526
 51
-136.02385800004009
  0
ARC
  5
183
100
AcDbEntity
  8
LC-001-002-----0
  6
CONTINUOUS
 62
             1
100
AcDbCircle
 10
-42.01257341671885
 20
-32.41626411411045
 40
0.93552900000033
100
AcDbArc
 50
-136.61497399998396
 51
-114.04075600001032
  0
ARC
  5
182
100
AcDbEntity
  8
LC-001-002-----0
  6
CONTINUOUS
 62
             1
100
AcDbCircle
 10
-41.56512941671889
 20
-31.48027511411044
 40
1.97279800000022
100
AcDbArc
 50
-114.83429699999644
 51
-101.15082800000154
  0
ARC
  5
181
100
AcDbEntity
  8
LC-001-002-----0
  6
CONTINUOUS
 62
             1
100
AcDbCircle
 10
-41.36814041671886
 20
-30.57129811411045
 40
2.9027639999998
100
AcDbArc
 50
-101.49586600000163
 51
-90.93044799999966
  0
ARC
  5
180
100
AcDbEntity
  8
LC-001-002-----0
  6
CONTINUOUS
 62
             1
100
AcDbCircle
 10
-51.07561641671884
 20
-32.7915291141104
 40
0.38518900000005
100
AcDbArc
 50
-177.98132500006997
 51
-135.57295500001621
  0
ARC
  5
17F
100
AcDbEntity
  8
LC-001-002-----0
  6
CONTINUOUS
 62
             1
100
AcDbCircle
 10
-50.65952241671886
 20
-32.39898011411043
 40
0.95718599999981
100
AcDbArc
 50
-136.22724000001139
 51
-113.27906499999982
  0
ARC
  5
17E
100
AcDbEntity
  8
LC-001-002-----0
  6
CONTINUOUS
 62
             1
100
AcDbCircle
 10
-50.20546141671889
 20
-31.41952811411045
 40
2.03657299999998
100
AcDbArc
 50
-114.12329499999868
 51
-100.29835199999974
  0
ARC
  5
17D
100
AcDbEntity
  8
LC-001-002-----0
  6
CONTINUOUS
 62
             1
100
AcDbCircle
 10
-50.02348141671888
 20
-30.52197311411044
 40
2.95225999999981
100
AcDbArc
 50
-100.65912900000113
 51
-89.87794699999884
  0
ARC
  5
17C
100
AcDbEntity
  8
LC-001-002-----0
  6
CONTINUOUS
 62
             1
100
AcDbCircle
 10
-43.10053641671885
 20
-28.98797211411045
 40
0.30262800000004
100
AcDbArc
 50
7.38371100002786
 51
67.14240800003454
  0
ARC
  5
17B
100
AcDbEntity
  8
LC-001-002-----0
  6
CONTINUOUS
 62
             1
100
AcDbCircle
 10
-43.9853554167189
 20
-30.50034611411041
 40
2.05262700000007
100
AcDbArc
 50
60.76873699999915
 51
77.01552200000181
  0
ARC
  5
17A
100
AcDbEntity
  8
LC-001-002-----0
  6
CONTINUOUS
 62
             1
100
AcDbCircle
 10
-45.06219541671885
 20
-34.62422711411045
 40
6.31421000000047
100
AcDbArc
 50
75.90184800000112
 51
83.54348500000029
  0
ARC
  5
179
100
AcDbEntity
  8
LC-001-002-----0
  6
CONTINUOUS
 62
             1
100
AcDbCircle
 10
-45.62487541671885
 20
-39.14709711411047
 40
10.87178399999962
100
AcDbArc
 50
83.27724299999993
 51
88.58922300000037
  0
ARC
  5
178
100
AcDbEntity
  8
LC-001-002-----0
  6
CONTINUOUS
 62
             1
100
AcDbCircle
 10
-48.24601841671887
 20
-32.74375111411041
 40
0.33348700000008
100
AcDbArc
 50
-169.39993499993639
 51
-110.59142999999601
  0
ARC
  5
177
100
AcDbEntity
  8
LC-001-002-----0
  6
CONTINUOUS
 62
             1
100
AcDbCircle
 10
-47.27604541671889
 20
-30.95651711411045
 40
2.3642520000001
100
AcDbArc
 50
-117.37907199999822
 51
-101.87322700000033
  0
ARC
  5
176
100
AcDbEntity
  8
LC-001-002-----0
  6
CONTINUOUS
 62
             1
100
AcDbCircle
 10
-46.18656641671885
 20
-26.40665611411043
 40
7.04212699999963
100
AcDbArc
 50
-102.93139100000117
 51
-95.4791240000008
  0
ARC
  5
175
100
AcDbEntity
  8
LC-001-002-----0
  6
CONTINUOUS
 62
             1
100
AcDbCircle
 10
-45.71213141671888
 20
-22.00153111411044
 40
11.47254199999949
100
AcDbArc
 50
-95.73709000000029
 51
-90.36163599999999
  0
ARC
  5
174
100
AcDbEntity
  8
LC-001-002-----0
  6
CONTINUOUS
 62
             1
100
AcDbCircle
 10
-50.02348141671888
 20
-31.22648011411047
 40
2.95226099999971
100
AcDbArc
 50
89.8779249999984
 51
100.65910499999875
  0
ARC
  5
173
100
AcDbEntity
  8
LC-001-002-----0
  6
CONTINUOUS
 62
             1
100
AcDbCircle
 10
-50.20546141671889
 20
-30.32892711411046
 40
2.03657500000052
100
AcDbArc
 50
100.29832799999764
 51
114.12326199999833
  0
ARC
  5
172
100
AcDbEntity
  8
LC-001-002-----0
  6
CONTINUOUS
 62
             1
100
AcDbCircle
 10
-50.65952141671886
 20
-29.34947311411042
 40
0.95718699999989
100
AcDbArc
 50
113.27903400000255
 51
136.22718300001375
  0
ARC
  5
171
100
AcDbEntity
  8
LC-001-002-----0
  6
CONTINUOUS
 62
             1
100
AcDbCircle
 10
-51.07561541671885
 20
-28.95692411411045
 40
0.38518999999986
100
AcDbArc
 50
135.57289300003134
 51
177.98123099997832
  0
ARC
  5
170
100
AcDbEntity
  8
LC-001-002-----0
  6
CONTINUOUS
 62
             1
100
AcDbCircle
 10
-45.71818741671888
 20
-39.63280811411045
 40
11.35831099999982
100
AcDbArc
 50
90.5650959999999
 51
95.95115599999971
  0
ARC
  5
16F
100
AcDbEntity
  8
LC-001-002-----0
  6
CONTINUOUS
 62
             1
100
AcDbCircle
 10
-46.21573641671887
 20
-35.16515011411048
 40
6.86321699999959
100
AcDbArc
 50
95.68686300000054
 51
103.23288200000086
  0
ARC
  5
16E
100
AcDbEntity
  8
LC-001-002-----0
  6
CONTINUOUS
 62
             1
100
AcDbCircle
 10
-47.31146341671888
 20
-30.69553911411043
 40
2.26188200000041
100
AcDbArc
 50
102.13100999999824
 51
118.02968499999908
  0
ARC
  5
16D
100
AcDbEntity
  8
LC-001-002-----0
  6
CONTINUOUS
 62
             1
100
AcDbCircle
 10
-48.26015141671888
 20
-28.99448511411043
 40
0.31682899999957
100
AcDbArc
 50
111.13452400002227
 51
171.76010299991975
  0
ARC
  5
16C
100
AcDbEntity
  8
LC-001-002-----0
  6
CONTINUOUS
 62
             1
100
AcDbCircle
 10
-41.37631341671886
 20
-31.10812011411042
 40
2.83334599999964
100
AcDbArc
 50
92.16196500000022
 51
102.56848400000158
  0
ARC
  5
16B
100
AcDbEntity
  8
LC-001-002-----0
  6
CONTINUOUS
 62
             1
100
AcDbCircle
 10
-41.59311641671889
 20
-30.18649511411041
 40
1.88666099999959
100
AcDbArc
 50
102.23272400000164
 51
115.89549300000184
  0
ARC
  5
16A
100
AcDbEntity
  8
LC-001-002-----0
  6
CONTINUOUS
 62
             1
100
AcDbCircle
 10
-42.03599041671885
 20
-29.30141711411045
 40
0.89711300000025
100
AcDbArc
 50
115.13766899999578
 51
137.63430800002183
  0
ARC
  5
169
100
AcDbEntity
  8
LC-001-002-----0
  6
CONTINUOUS
 62
             1
100
AcDbCircle
 10
-42.41880741671889
 20
-28.9566051141104
 40
0.3819240000001
100
AcDbArc
 50
137.15458699997492
 51
177.15170800003935
  0
ARC
  5
168
100
AcDbEntity
  8
LC-001-002-----0
  6
CONTINUOUS
 62
             1
100
AcDbCircle
 10
-50.00257841671885
 20
-30.60219111411044
 40
2.87172799999961
100
AcDbArc
 50
-88.53676800000066
 51
-77.97851600000212
  0
ARC
  5
167
100
AcDbEntity
  8
LC-001-002-----0
  6
CONTINUOUS
 62
             1
100
AcDbCircle
 10
-49.79408141671888
 20
-31.52506411411048
 40
1.92570499999982
100
AcDbArc
 50
-78.32691199999715
 51
-64.52943100000286
  0
ARC
  5
166
100
AcDbEntity
  8
LC-001-002-----0
  6
CONTINUOUS
 62
             1
100
AcDbCircle
 10
-49.34451741671887
 20
-32.43944711411047
 40
0.90694700000023
100
AcDbArc
 50
-65.32808400000502
 51
-42.4604340000059
  0
ARC
  5
165
100
AcDbEntity
  8
LC-001-002-----0
  6
CONTINUOUS
 62
             1
100
AcDbCircle
 10
-48.95319441671887
 20
-32.79302711411043
 40
0.37957099999973
100
AcDbArc
 50
-42.96205899995729
 51
-1.82232999997969
  0
ARC
  5
164
100
AcDbEntity
  8
LC-001-002-----0
  6
CONTINUOUS
 62
             1
100
AcDbCircle
 10
-45.6792494167189
 20
-21.61383511411043
 40
11.86047600000004
100
AcDbArc
 50
-90.50710500000018
 51
-85.04972800000033
  0
ARC
  5
163
100
AcDbEntity
  8
LC-001-002-----0
  6
CONTINUOUS
 62
             1
100
AcDbCircle
 10
-45.2826814167189
 20
-25.80108311411044
 40
7.65470200000023
100
AcDbArc
 50
-85.30246799999996
 51
-77.98609900000034
  0
ARC
  5
162
100
AcDbEntity
  8
LC-001-002-----0
  6
CONTINUOUS
 62
             1
100
AcDbCircle
 10
-44.19570541671885
 20
-30.68442611411047
 40
2.65247499999973
100
AcDbArc
 50
-78.99501999999845
 51
-64.09116999999792
  0
ARC
  5
161
100
AcDbEntity
  8
LC-001-002-----0
  6
CONTINUOUS
 62
             1
100
AcDbCircle
 10
-43.15484141671885
 20
-32.72539011411044
 40
0.36457400000001
100
AcDbArc
 50
-71.09714100001092
 51
-13.55235300001454
  0
ARC
  5
160
100
AcDbEntity
  8
LC-001-002-----0
  6
CONTINUOUS
 62
             1
100
AcDbCircle
 10
-41.35064641671886
 20
-30.52197211411044
 40
2.95226099999965
100
AcDbArc
 50
-90.12207500000174
 51
-79.34089000000185
  0
ARC
  5
15F
100
AcDbEntity
  8
LC-001-002-----0
  6
CONTINUOUS
 62
             1
100
AcDbCircle
 10
-41.16866641671885
 20
-31.41952611411045
 40
2.03657400000014
100
AcDbArc
 50
-79.70166700000119
 51
-65.87672400000115
  0
ARC
  5
15E
100
AcDbEntity
  8
LC-001-002-----0
  6
CONTINUOUS
 62
             1
100
AcDbCircle
 10
-40.71460541671888
 20
-32.39898011411043
 40
0.95718599999962
100
AcDbArc
 50
-66.72095399999188
 51
-43.77277800000906
  0
ARC
  5
15D
100
AcDbEntity
  8
LC-001-002-----0
  6
CONTINUOUS
 62
             1
100
AcDbCircle
 10
-40.2985114167189
 20
-32.7915291141104
 40
0.38519000000018
100
AcDbArc
 50
-44.42706500001221
 51
-2.01867800005292
  0
ARC
  5
15C
100
AcDbEntity
  8
LC-001-002-----0
  6
CONTINUOUS
 62
             1
100
AcDbCircle
 10
52.2989565832811
 20
-31.11993611411043
 40
2.84523600000008
100
AcDbArc
 50
91.88438299999943
 51
102.4546479999989
  0
ARC
  5
15B
100
AcDbEntity
  8
LC-001-002-----0
  6
CONTINUOUS
 62
             1
100
AcDbCircle
 10
52.0808115832811
 20
-30.18611511411046
 40
1.88638099999988
100
AcDbArc
 50
102.10179500000065
 51
116.02047899999712
  0
ARC
  5
15A
100
AcDbEntity
  8
LC-001-002-----0
  6
CONTINUOUS
 62
             1
100
AcDbCircle
 10
51.62917658328115
 20
-29.28928111411045
 40
0.8824099999997
100
AcDbArc
 50
115.21387900000613
 51
138.38832000001028
  0
ARC
  5
159
100
AcDbEntity
  8
LC-001-002-----0
  6
CONTINUOUS
 62
             1
100
AcDbCircle
 10
51.24689858328111
 20
-28.95338911411039
 40
0.37354699999986
100
AcDbArc
 50
137.96977700003029
 51
179.34241899993526
  0
ARC
  5
158
100
AcDbEntity
  8
LC-001-002-----0
  6
CONTINUOUS
 62
             1
100
AcDbCircle
 10
43.65015458328111
 20
-31.22649811411043
 40
2.9522619999999
100
AcDbArc
 50
89.87787299999972
 51
100.65904999999951
  0
ARC
  5
157
100
AcDbEntity
  8
LC-001-002-----0
  6
CONTINUOUS
 62
             1
100
AcDbCircle
 10
43.4681755832811
 20
-30.32894611411041
 40
2.03657800000042
100
AcDbArc
 50
100.29827399999679
 51
114.12319400000166
  0
ARC
  5
156
100
AcDbEntity
  8
LC-001-002-----0
  6
CONTINUOUS
 62
             1
100
AcDbCircle
 10
43.01411558328113
 20
-29.34949111411044
 40
0.95718999999961
100
AcDbArc
 50
113.27896700000987
 51
136.22707899999426
  0
ARC
  5
155
100
AcDbEntity
  8
LC-001-002-----0
  6
CONTINUOUS
 62
             1
100
AcDbCircle
 10
42.59802058328114
 20
-28.95694011411047
 40
0.38519100000032
100
AcDbArc
 50
135.57278099994917
 51
177.98106899993758
  0
ARC
  5
154
100
AcDbEntity
  8
LC-001-002-----0
  6
CONTINUOUS
 62
             1
100
AcDbCircle
 10
43.66764858328111
 20
-30.57131411411046
 40
2.90276399999965
100
AcDbArc
 50
-89.06957399999993
 51
-78.50415599999971
  0
ARC
  5
153
100
AcDbEntity
  8
LC-001-002-----0
  6
CONTINUOUS
 62
             1
100
AcDbCircle
 10
43.86463658328114
 20
-31.4802911141104
 40
1.9727980000001
100
AcDbArc
 50
-78.84919300000144
 51
-65.16572499999934
  0
ARC
  5
152
100
AcDbEntity
  8
LC-001-002-----0
  6
CONTINUOUS
 62
             1
100
AcDbCircle
 10
44.3120805832811
 20
-32.41628011411046
 40
0.93552900000027
100
AcDbArc
 50
-65.95926600000855
 51
-43.38504700000838
  0
ARC
  5
151
100
AcDbEntity
  8
LC-001-002-----0
  6
CONTINUOUS
 62
             1
100
AcDbCircle
 10
44.71396858328114
 20
-32.79064411411048
 40
0.3863259999999
100
AcDbArc
 50
-43.97616399998739
 51
-2.99598200001663
  0
ARC
  5
150
100
AcDbEntity
  8
LC-001-002-----0
  6
CONTINUOUS
 62
             1
100
AcDbCircle
 10
52.32298858328113
 20
-30.52199211411045
 40
2.9522600000004
100
AcDbArc
 50
-90.12207499999944
 51
-79.34089300000139
  0
ARC
  5
14F
100
AcDbEntity
  8
LC-001-002-----0
  6
CONTINUOUS
 62
             1
100
AcDbCircle
 10
52.50496858328114
 20
-31.4195471141104
 40
2.03657299999999
100
AcDbArc
 50
-79.70166999999893
 51
-65.87672699999386
  0
ARC
  5
14E
100
AcDbEntity
  8
LC-001-002-----0
  6
CONTINUOUS
 62
             1
100
AcDbCircle
 10
52.95902958328111
 20
-32.39900011411044
 40
0.95718600000039
100
AcDbArc
 50
-66.72095700001042
 51
-43.772782000006
  0
ARC
  5
14D
100
AcDbEntity
  8
LC-001-002-----0
  6
CONTINUOUS
 62
             1
100
AcDbCircle
 10
53.37512258328115
 20
-32.79154911411047
 40
0.38518899999984
100
AcDbArc
 50
-44.42706699997861
 51
-2.01869700004983
  0
ARC
  5
14C
100
AcDbEntity
  8
LC-001-002-----0
  6
CONTINUOUS
 62
             1
100
AcDbCircle
 10
47.92437958328111
 20
-39.14711511411042
 40
10.87178400000045
100
AcDbArc
 50
91.41075499999992
 51
96.72273499999996
  0
ARC
  5
14B
100
AcDbEntity
  8
LC-001-002-----0
  6
CONTINUOUS
 62
             1
100
AcDbCircle
 10
47.36170058328111
 20
-34.62424511411041
 40
6.31421000000012
100
AcDbArc
 50
96.4564929999998
 51
104.09813099999924
  0
ARC
  5
14A
100
AcDbEntity
  8
LC-001-002-----0
  6
CONTINUOUS
 62
             1
100
AcDbCircle
 10
46.2848625832811
 20
-30.50036311411043
 40
2.05262699999992
100
AcDbArc
 50
102.98445599999775
 51
119.23124099999782
  0
ARC
  5
149
100
AcDbEntity
  8
LC-001-002-----0
  6
CONTINUOUS
 62
             1
100
AcDbCircle
 10
45.4000445832811
 20
-28.98798911411046
 40
0.30262799999985
100
AcDbArc
 50
112.85757100000254
 51
172.61626800000454
  0
ARC
  5
148
100
AcDbEntity
  8
LC-001-002-----0
  6
CONTINUOUS
 62
             1
100
AcDbCircle
 10
48.01164158328112
 20
-22.00154911411045
 40
11.47254199999996
100
AcDbArc
 50
-89.6383860000003
 51
-84.26293199999998
  0
ARC
  5
147
100
AcDbEntity
  8
LC-001-002-----0
  6
CONTINUOUS
 62
             1
100
AcDbCircle
 10
48.48607558328115
 20
-26.40667411411044
 40
7.04212700000022
100
AcDbArc
 50
-84.52089700000012
 51
-77.06863099999907
  0
ARC
  5
146
100
AcDbEntity
  8
LC-001-002-----0
  6
CONTINUOUS
 62
             1
100
AcDbCircle
 10
49.57555258328114
 20
-30.95653511411047
 40
2.36425200000024
100
AcDbArc
 50
-78.12679400000089
 51
-62.62094999999757
  0
ARC
  5
145
100
AcDbEntity
  8
LC-001-002-----0
  6
CONTINUOUS
 62
             1
100
AcDbCircle
 10
50.54552558328112
 20
-32.74377011411048
 40
0.33348699999978
100
AcDbArc
 50
-69.40859199997375
 51
-10.60008699993209
  0
ARC
  5
144
100
AcDbEntity
  8
LC-001-002-----0
  6
CONTINUOUS
 62
             1
100
AcDbCircle
 10
53.37512358328115
 20
-28.9569431141104
 40
0.38518999999998
100
AcDbArc
 50
2.01874699994206
 51
44.42708499999485
  0
ARC
  5
143
100
AcDbEntity
  8
LC-001-002-----0
  6
CONTINUOUS
 62
             1
100
AcDbCircle
 10
52.95902958328111
 20
-29.34949311411043
 40
0.95718700000035
100
AcDbArc
 50
43.77279500001929
 51
66.72094500000397
  0
ARC
  5
142
100
AcDbEntity
  8
LC-001-002-----0
  6
CONTINUOUS
 62
             1
100
AcDbCircle
 10
52.50496858328114
 20
-30.32894611411041
 40
2.0365749999999
100
AcDbArc
 50
65.87671599999906
 51
79.70165000000317
  0
ARC
  5
141
100
AcDbEntity
  8
LC-001-002-----0
  6
CONTINUOUS
 62
             1
100
AcDbCircle
 10
52.32298858328113
 20
-31.22650011411042
 40
2.95226100000043
100
AcDbArc
 50
79.34087300000043
 51
90.12205299999975
  0
ARC
  5
140
100
AcDbEntity
  8
LC-001-002-----0
  6
CONTINUOUS
 62
             1
100
AcDbCircle
 10
50.55965958328113
 20
-28.99450311411044
 40
0.31682900000005
100
AcDbArc
 50
8.2398750000323
 51
68.86545399999207
  0
ARC
  5
13F
100
AcDbEntity
  8
LC-001-002-----0
  6
CONTINUOUS
 62
             1
100
AcDbCircle
 10
49.61097158328113
 20
-30.69555811411044
 40
2.26188199999987
100
AcDbArc
 50
61.9702929999989
 51
77.86896799999846
  0
ARC
  5
13E
100
AcDbEntity
  8
LC-001-002-----0
  6
CONTINUOUS
 62
             1
100
AcDbCircle
 10
48.51524258328112
 20
-35.16516811411043
 40
6.86321700000019
100
AcDbArc
 50
76.76709600000061
 51
84.31311499999956
  0
ARC
  5
13D
100
AcDbEntity
  8
LC-001-002-----0
  6
CONTINUOUS
 62
             1
100
AcDbCircle
 10
48.01769158328114
 20
-39.63282611411046
 40
11.35831100000021
100
AcDbArc
 50
84.04882199999999
 51
89.4348820000002
  0
ARC
  5
13C
100
AcDbEntity
  8
LC-001-002-----0
  6
CONTINUOUS
 62
             1
100
AcDbCircle
 10
44.71831558328114
 20
-28.95662211411047
 40
0.38192399999994
100
AcDbArc
 50
2.84826999998604
 51
42.845391000059
  0
ARC
  5
13B
100
AcDbEntity
  8
LC-001-002-----0
  6
CONTINUOUS
 62
             1
100
AcDbCircle
 10
44.33549858328115
 20
-29.30143311411041
 40
0.89711299999991
100
AcDbArc
 50
42.36566999999769
 51
64.86230999999246
  0
ARC
  5
13A
100
AcDbEntity
  8
LC-001-002-----0
  6
CONTINUOUS
 62
             1
100
AcDbCircle
 10
43.89262358328114
 20
-30.18651211411043
 40
1.88666100000029
100
AcDbArc
 50
64.10448500000437
 51
77.76725400000284
  0
ARC
  5
139
100
AcDbEntity
  8
LC-001-002-----0
  6
CONTINUOUS
 62
             1
100
AcDbCircle
 10
43.67582058328111
 20
-31.10813611411044
 40
2.83334599999986
100
AcDbArc
 50
77.43149399999798
 51
87.83801299999941
  0
ARC
  5
138
100
AcDbEntity
  8
LC-001-002-----0
  6
CONTINUOUS
 62
             1
100
AcDbCircle
 10
51.25270158328112
 20
-32.79304611411044
 40
0.37957099999997
100
AcDbArc
 50
-178.17769200001251
 51
-137.03796299995346
  0
ARC
  5
137
100
AcDbEntity
  8
LC-001-002-----0
  6
CONTINUOUS
 62
             1
100
AcDbCircle
 10
51.64402358328113
 20
-32.43946711411041
 40
0.90694700000003
100
AcDbArc
 50
-137.53958799999572
 51
-114.67193700000126
  0
ARC
  5
136
100
AcDbEntity
  8
LC-001-002-----0
  6
CONTINUOUS
 62
             1
100
AcDbCircle
 10
52.09358958328113
 20
-31.52508311411043
 40
1.92570500000023
100
AcDbArc
 50
-115.47058999999744
 51
-101.6731099999961
  0
ARC
  5
135
100
AcDbEntity
  8
LC-001-002-----0
  6
CONTINUOUS
 62
             1
100
AcDbCircle
 10
52.30208558328116
 20
-30.60221011411045
 40
2.87172799999989
100
AcDbArc
 50
-102.02150600000083
 51
-91.46325399999962
  0
ARC
  5
134
100
AcDbEntity
  8
LC-001-002-----0
  6
CONTINUOUS
 62
             1
100
AcDbCircle
 10
45.4543485832811
 20
-32.72540711411045
 40
0.36457399999988
100
AcDbArc
 50
-166.44766900004245
 51
-108.90288100001031
  0
ARC
  5
133
100
AcDbEntity
  8
LC-001-002-----0
  6
CONTINUOUS
 62
             1
100
AcDbCircle
 10
46.49521358328116
 20
-30.68444411411042
 40
2.652475
100
AcDbArc
 50
-115.90885200000163
 51
-101.00500199999875
  0
ARC
  5
132
100
AcDbEntity
  8
LC-001-002-----0
  6
CONTINUOUS
 62
             1
100
AcDbCircle
 10
47.58219158328114
 20
-25.80110011411045
 40
7.65470200000031
100
AcDbArc
 50
-102.01392299999968
 51
-94.69755400000054
  0
ARC
  5
131
100
AcDbEntity
  8
LC-001-002-----0
  6
CONTINUOUS
 62
             1
100
AcDbCircle
 10
47.97876058328114
 20
-21.61385311411044
 40
11.86047600000021
100
AcDbArc
 50
-94.950294
 51
-89.49291699999988
  0
ARC
  5
130
100
AcDbEntity
  8
LC-001-002-----0
  6
CONTINUOUS
 62
             1
100
AcDbCircle
 10
42.59801858328115
 20
-32.79154411411042
 40
0.38519
100
AcDbArc
 50
-177.9813440000176
 51
-135.57295599995985
  0
ARC
  5
12F
100
AcDbEntity
  8
LC-001-002-----0
  6
CONTINUOUS
 62
             1
100
AcDbCircle
 10
43.01411258328113
 20
-32.39899611411045
 40
0.9571860000003
100
AcDbArc
 50
-136.22724299997824
 51
-113.27906799999292
  0
ARC
  5
12E
100
AcDbEntity
  8
LC-001-002-----0
  6
CONTINUOUS
 62
             1
100
AcDbCircle
 10
43.4681735832811
 20
-31.41954211411041
 40
2.03657399999974
100
AcDbArc
 50
-114.12329800000111
 51
-100.29835499999716
  0
ARC
  5
12D
100
AcDbEntity
  8
LC-001-002-----0
  6
CONTINUOUS
 62
             1
100
AcDbCircle
 10
43.65015458328111
 20
-30.5219881141104
 40
2.95226099999987
100
AcDbArc
 50
-100.65913200000061
 51
-89.87794699999903
  0
LINE
  5
12C
100
AcDbEntity
  8
LC-001-002-----0
  6
CONTINUOUS
 62
             7
100
AcDbLine
 10
-100.3537594167188
 20
-26.77422611411043
 11
-100.3537594167188
 21
-12.77422611411043
  0
LINE
  5
12B
100
AcDbEntity
  8
LC-001-002-----0
  6
CONTINUOUS
 62
             7
100
AcDbLine
 10
-98.85375941671883
 20
-28.27422611411043
 11
-96.35375941671886
 21
-28.27422611411043
  0
LINE
  5
12A
100
AcDbEntity
  8
LC-001-002-----0
  6
CONTINUOUS
 62
             7
100
AcDbLine
 10
102.6532175832812
 20
-26.77422611411043
 11
102.6532175832812
 21
-12.77422611411043
  0
LINE
  5
129
100
AcDbEntity
  8
LC-001-002-----0
  6
CONTINUOUS
 62
             7
100
AcDbLine
 10
101.1532175832812
 20
-28.27422611411043
 11
88.10261258328114
 21
-28.27422611411043
  0
LINE
  5
128
100
AcDbEntity
  8
LC-001-002-----0
  6
CONTINUOUS
 62
             7
100
AcDbLine
 10
-126.8629644167189
 20
-2.99979611411044
 11
-123.29019941671891
 21
-4.30017611411046
  0
LINE
  5
127
100
AcDbEntity
  8
LC-001-002-----0
  6
CONTINUOUS
 62
             7
100
AcDbLine
 10
103.1532175832812
 20
-12.27422611411043
 11
-103.89364641671889
 21
-12.27422611411043
  0
LINE
  5
126
100
AcDbEntity
  8
LC-001-002-----0
  6
CONTINUOUS
 62
             7
100
AcDbLine
 10
-123.5840444167189
 20
-5.10750711411043
 11
-103.89364641671889
 21
-12.27422611411043
  0
LINE
  5
125
100
AcDbEntity
  8
LC-001-002-----0
  6
CONTINUOUS
 62
             7
100
AcDbLine
 10
125.8835025832812
 20
-5.10750711411043
 11
106.1931045832811
 21
-12.27422611411043
  0
LINE
  5
124
100
AcDbEntity
  8
LC-001-002-----0
  6
CONTINUOUS
 62
             7
100
AcDbLine
 10
-123.5840444167189
 20
-5.10750711411043
 11
-123.29019941671891
 21
-4.30017611411046
  0
LINE
  5
123
100
AcDbEntity
  8
LC-001-002-----0
  6
CONTINUOUS
 62
             7
100
AcDbLine
 10
103.1532175832812
 20
-12.27422611411043
 11
106.1931045832811
 21
-12.27422611411043
  0
LINE
  5
122
100
AcDbEntity
  8
LC-001-002-----0
  6
CONTINUOUS
 62
             7
100
AcDbLine
 10
125.8835025832812
 20
-5.10750711411043
 11
125.5896575832811
 21
-4.30017611411046
  0
LINE
  5
121
100
AcDbEntity
  8
LC-004-005-----0
  6
CONTINUOUS
 62
             2
100
AcDbLine
 10
-123.24403241671889
 20
-5.23126211411045
 11
-123.3026984167188
 21
-5.17259611411043
  0
LINE
  5
120
100
AcDbEntity
  8
LC-001-002-----0
  6
CONTINUOUS
 62
             7
100
AcDbLine
 10
-87.85377241671888
 20
6.90165888588956
 11
-97.85377241671888
 21
6.90165888588956
  0
LINE
  5
11F
100
AcDbEntity
  8
LC-001-002-----0
  6
CONTINUOUS
 62
             7
100
AcDbLine
 10
-99.54167141671893
 20
12.58948488588953
 11
-97.85377241671888
 21
6.90165888588956
  0
LINE
  5
11E
100
AcDbEntity
  8
LC-001-002-----0
  6
CONTINUOUS
 62
             7
100
AcDbLine
 10
-87.08695841671887
 20
0.00033488588957
 11
-87.85377241671888
 21
6.90165888588956
  0
LINE
  5
11D
100
AcDbEntity
  8
LC-001-002-----0
  6
CONTINUOUS
 62
             7
100
AcDbLine
 10
-97.85377241671888
 20
6.90165888588956
 11
-98.62059041671888
 21
0.00029288588956
  0
LINE
  5
11C
100
AcDbEntity
  8
LC-001-002-----0
  6
CONTINUOUS
 62
             7
100
AcDbLine
 10
-86.16587241671887
 20
12.58948488588953
 11
-87.85377241671888
 21
6.90165888588956
  0
LINE
  5
11B
100
AcDbEntity
  8
LC-001-002-----0
  6
CONTINUOUS
 62
             7
100
AcDbLine
 10
-78.29888841671892
 20
7.87701588588953
 11
-85.05393741671891
 21
0.00034288588955
  0
LINE
  5
11A
100
AcDbEntity
  8
LC-001-002-----0
  6
CONTINUOUS
 62
             7
100
AcDbLine
 10
-107.4086564167189
 20
7.87701588588953
 11
-100.6535574167188
 21
0.00028488588953
  0
LINE
  5
119
100
AcDbEntity
  8
LC-001-002-----0
  6
CONTINUOUS
 62
             7
100
AcDbLine
 10
100.14967658328111
 20
6.90165888588956
 11
98.1531955832811
 21
6.90165888588956
  0
LINE
  5
118
100
AcDbEntity
  8
LC-001-002-----0
  6
CONTINUOUS
 62
             7
100
AcDbLine
 10
88.46177758328111
 20
12.58948488588953
 11
90.14967658328112
 21
6.90165888588956
  0
LINE
  5
117
100
AcDbEntity
  8
LC-001-002-----0
  6
CONTINUOUS
 62
             7
100
AcDbLine
 10
100.9164135832812
 20
0.00102988588952
 11
100.14967658328111
 21
6.90165888588956
  0
LINE
  5
116
100
AcDbEntity
  8
LC-001-002-----0
  6
CONTINUOUS
 62
             7
100
AcDbLine
 10
90.14967658328112
 20
6.90165888588956
 11
89.3829355832811
 21
0.00098688588957
  0
LINE
  5
115
100
AcDbEntity
  8
LC-001-002-----0
  6
CONTINUOUS
 62
             7
100
AcDbLine
 10
101.8375765832812
 20
12.58948488588953
 11
100.14967658328111
 21
6.90165888588956
  0
LINE
  5
114
100
AcDbEntity
  8
LC-001-002-----0
  6
CONTINUOUS
 62
             7
100
AcDbLine
 10
109.70456058328119
 20
7.87701588588953
 11
102.9501075832811
 21
0.00103788588956
  0
LINE
  5
113
100
AcDbEntity
  8
LC-001-002-----0
  6
CONTINUOUS
 62
             7
100
AcDbLine
 10
80.59479258328111
 20
7.87701588588953
 11
87.34929558328111
 21
0.00097988588954
  0
LINE
  5
112
100
AcDbEntity
  8
LC-001-002-----0
  6
CONTINUOUS
 62
             7
100
AcDbLine
 10
-43.28838341671889
 20
6.90209888588959
 11
-43.18706241671885
 21
7.23760888588959
  0
LINE
  5
111
100
AcDbEntity
  8
LC-001-002-----0
  6
CONTINUOUS
 62
             7
100
AcDbLine
 10
-95.85373541671892
 20
-34.75484711411048
 11
-95.85373541671892
 21
-33.47466611411045
  0
LINE
  5
110
100
AcDbEntity
  8
LC-001-002-----0
  6
CONTINUOUS
 62
             7
100
AcDbLine
 10
-90.35373541671892
 20
-35.25484711411048
 11
-95.35373541671892
 21
-35.25484711411048
  0
LINE
  5
10F
100
AcDbEntity
  8
LC-001-002-----0
  6
CONTINUOUS
 62
             7
100
AcDbLine
 10
-89.85373541671892
 20
-34.75484711411048
 11
-89.85373541671892
 21
-33.47466611411045
  0
LINE
  5
10E
100
AcDbEntity
  8
LC-001-002-----0
  6
CONTINUOUS
 62
             7
100
AcDbLine
 10
-95.35373541671892
 20
16.24515288588958
 11
-90.35373541671892
 21
16.24515288588958
  0
LINE
  5
10D
100
AcDbEntity
  8
LC-001-002-----0
  6
CONTINUOUS
 62
             7
100
AcDbLine
 10
-95.35373541671892
 20
16.24515288588958
 11
-95.85373541671892
 21
15.74515288588958
  0
LINE
  5
10C
100
AcDbEntity
  8
LC-001-002-----0
  6
CONTINUOUS
 62
             7
100
AcDbLine
 10
-90.35373541671892
 20
16.24515288588958
 11
-89.85373541671892
 21
15.74515288588958
  0
LINE
  5
10B
100
AcDbEntity
  8
LC-001-002-----0
  6
CONTINUOUS
 62
             7
100
AcDbLine
 10
-95.85373541671892
 20
15.74515288588958
 11
-89.85373541671892
 21
15.74515288588958
  0
LINE
  5
10A
100
AcDbEntity
  8
LC-001-002-----0
  6
CONTINUOUS
 62
             7
100
AcDbLine
 10
-90.35373541671892
 20
-35.25484711411048
 11
-89.85373541671892
 21
-34.75484711411048
  0
LINE
  5
109
100
AcDbEntity
  8
LC-001-002-----0
  6
CONTINUOUS
 62
             7
100
AcDbLine
 10
-95.35373541671892
 20
-35.25484711411048
 11
-95.85373541671892
 21
-34.75484711411048
  0
LINE
  5
108
100
AcDbEntity
  8
LC-001-002-----0
  6
CONTINUOUS
 62
             7
100
AcDbLine
 10
-89.85373541671892
 20
-34.75484711411048
 11
-95.85373541671892
 21
-34.75484711411048
  0
LINE
  5
107
100
AcDbEntity
  8
LC-006-003-----0
  6
CONTINUOUS
 62
             2
100
AcDbLine
 10
-95.35373541671892
 20
-35.25484711411048
 11
-95.35373541671892
 21
-33.47466611411045
  0
LINE
  5
106
100
AcDbEntity
  8
LC-006-003-----0
  6
CONTINUOUS
 62
             2
100
AcDbLine
 10
-90.35373541671892
 20
-35.25484711411048
 11
-90.35373541671892
 21
-33.47466611411045
  0
LINE
  5
105
100
AcDbEntity
  8
LC-001-002-----0
  6
CONTINUOUS
 62
             7
100
AcDbLine
 10
92.1531955832811
 20
-34.75488211411044
 11
92.1531955832811
 21
-33.47466611411045
  0
LINE
  5
104
100
AcDbEntity
  8
LC-001-002-----0
  6
CONTINUOUS
 62
             7
100
AcDbLine
 10
97.6531955832811
 20
16.24515288588958
 11
98.1531955832811
 21
15.74515288588958
  0
LINE
  5
103
100
AcDbEntity
  8
LC-001-002-----0
  6
CONTINUOUS
 62
             7
100
AcDbLine
 10
92.6531955832811
 20
16.24515288588958
 11
92.1531955832811
 21
15.74515288588958
  0
LINE
  5
102
100
AcDbEntity
  8
LC-001-002-----0
  6
CONTINUOUS
 62
             7
100
AcDbLine
 10
98.1531955832811
 20
15.74515288588958
 11
92.1531955832811
 21
15.74515288588958
  0
LINE
  5
101
100
AcDbEntity
  8
LC-006-003-----0
  6
CONTINUOUS
 62
             2
100
AcDbLine
 10
97.6531955832811
 20
-35.25488411411044
 11
97.6531955832811
 21
-33.47466611411045
  0
LINE
  5
100
100
AcDbEntity
  8
LC-006-003-----0
  6
CONTINUOUS
 62
             2
100
AcDbLine
 10
92.6531955832811
 20
-35.25488211411044
 11
92.6531955832811
 21
-33.47466611411045
  0
LINE
  5
FF
100
AcDbEntity
  8
LC-001-002-----0
  6
CONTINUOUS
 62
             7
100
AcDbLine
 10
-97.18386441671886
 20
-33.47466611411045
 11
-88.52360941671886
 21
-33.47466611411045
  0
LINE
  5
FE
100
AcDbEntity
  8
LC-001-002-----0
  6
CONTINUOUS
 62
             7
100
AcDbLine
 10
-97.18386441671886
 20
-28.2746661141104
 11
-88.52361041671891
 21
-28.2746661141104
  0
LINE
  5
FD
100
AcDbEntity
  8
LC-001-002-----0
  6
CONTINUOUS
 62
             7
100
AcDbLine
 10
-98.62723841671892
 20
-28.9437941141104
 11
-98.62723841671892
 21
-32.80553711411045
  0
LINE
  5
FC
100
AcDbEntity
  8
LC-001-002-----0
  6
CONTINUOUS
 62
             7
100
AcDbLine
 10
-87.08023341671891
 20
-28.9437941141104
 11
-87.08023341671891
 21
-32.80553711411045
  0
LINE
  5
FB
100
AcDbEntity
  8
LC-001-002-----0
  6
CONTINUOUS
 62
             7
100
AcDbLine
 10
-95.74048741671892
 20
-32.80558911411043
 11
-95.74048741671892
 21
-28.93806611411043
  0
LINE
  5
FA
100
AcDbEntity
  8
LC-001-002-----0
  6
CONTINUOUS
 62
             7
100
AcDbLine
 10
-89.96698441671892
 20
-32.80553811411045
 11
-89.96698441671892
 21
-28.94382111411045
  0
LINE
  5
F9
100
AcDbEntity
  8
LC-001-002-----0
  6
CONTINUOUS
 62
             7
100
AcDbLine
 10
99.48332258328117
 20
-33.47466611411045
 11
90.82306758328116
 21
-33.47466611411045
  0
LINE
  5
F8
100
AcDbEntity
  8
LC-001-002-----0
  6
CONTINUOUS
 62
             7
100
AcDbLine
 10
99.48332258328117
 20
-28.2746661141104
 11
90.82306958328115
 21
-28.2746661141104
  0
LINE
  5
F7
100
AcDbEntity
  8
LC-001-002-----0
  6
CONTINUOUS
 62
             7
100
AcDbLine
 10
100.9266975832811
 20
-28.9437941141104
 11
100.9266975832811
 21
-32.80553711411045
  0
LINE
  5
F6
100
AcDbEntity
  8
LC-001-002-----0
  6
CONTINUOUS
 62
             7
100
AcDbLine
 10
89.3796915832811
 20
-28.9437941141104
 11
89.3796915832811
 21
-32.80553711411045
  0
LINE
  5
F5
100
AcDbEntity
  8
LC-001-002-----0
  6
CONTINUOUS
 62
             7
100
AcDbLine
 10
98.03994558328111
 20
-32.80558911411043
 11
98.03994558328111
 21
-28.93806611411043
  0
LINE
  5
F4
100
AcDbEntity
  8
LC-001-002-----0
  6
CONTINUOUS
 62
             7
100
AcDbLine
 10
92.2664435832811
 20
-32.80553811411045
 11
92.2664435832811
 21
-28.94382111411045
  0
LINE
  5
F3
100
AcDbEntity
  8
LC-001-002-----0
  6
DASHDOT
 62
             2
100
AcDbLine
 10
1.1497295832811
 20
-159.9999851141105
 11
1.14977258328111
 21
69.27304188588954
  0
LINE
  5
F2
100
AcDbEntity
  8
LC-001-002-----0
  6
CONTINUOUS
 62
             7
100
AcDbLine
 10
79.54203358328107
 20
-159.9999851141105
 11
81.21677158328112
 21
-153.74978111411039
  0
LINE
  5
F1
100
AcDbEntity
  8
LC-001-002-----0
  6
CONTINUOUS
 62
             7
100
AcDbLine
 10
-77.24257541671888
 20
-159.9999851141105
 11
-78.85027041671891
 21
-153.9999851141105
  0
LINE
  5
F0
100
AcDbEntity
  8
LC-001-002-----0
  6
CONTINUOUS
 62
             7
100
AcDbLine
 10
-75.35027041671891
 20
-159.9999851141105
 11
-77.24257541671888
 21
-159.9999851141105
  0
LINE
  5
EF
100
AcDbEntity
  8
LC-001-002-----0
  6
CONTINUOUS
 62
             7
100
AcDbLine
 10
77.6497295832811
 20
-159.9999851141105
 11
79.54203358328107
 21
-159.9999851141105
  0
LINE
  5
EE
100
AcDbEntity
  8
LC-001-002-----0
  6
CONTINUOUS
 62
             7
100
AcDbLine
 10
-75.35027041671891
 20
-159.9999851141105
 11
77.6497295832811
 21
-159.9999851141105
  0
LINE
  5
ED
100
AcDbEntity
  8
LC-009-006-MLN-0
  6
DASHDOT
 62
             2
100
AcDbLine
 10
95.15803358328117
 20
25.74515288588958
 11
95.15191658328115
 21
-43.75484711411048
  0
LINE
  5
EC
100
AcDbEntity
  8
LC-001-002-----0
  6
CONTINUOUS
 62
             7
100
AcDbLine
 10
81.1497295832811
 20
-153.9999851141105
 11
81.14943158328117
 21
-28.27422611411043
  0
LINE
  5
EB
100
AcDbEntity
  8
LC-001-002-----0
  6
CONTINUOUS
 62
             7
100
AcDbLine
 10
-78.84995041671887
 20
-28.27422611411043
 11
-78.85008041671888
 21
-79.11183211411043
  0
LINE
  5
EA
100
AcDbEntity
  8
LC-001-002-----0
  6
CONTINUOUS
 62
             7
100
AcDbLine
 10
-173.8502704167189
 20
0.00001488588953
 11
-100.6535574167188
 21
0.00028488588953
  0
LINE
  5
E9
100
AcDbEntity
  8
LC-001-002-----0
  6
CONTINUOUS
 62
             7
100
AcDbLine
 10
-175.85025841671879
 20
-2.99999311411045
 11
-126.86297041671889
 21
-2.99981211411045
  0
LINE
  5
E8
100
AcDbEntity
  8
LC-001-002-----0
  6
CONTINUOUS
 62
             7
100
AcDbLine
 10
-175.85026341671889
 20
-1.99999411411045
 11
-175.85025841671879
 21
-3.00788311411043
  0
LINE
  5
E7
100
AcDbEntity
  8
LC-001-002-----0
  6
CONTINUOUS
 62
             7
100
AcDbLine
 10
178.1497285832811
 20
-1.99869211411044
 11
178.1497285832811
 21
-2.99838211411043
  0
LINE
  5
E6
100
AcDbEntity
  8
LC-001-002-----0
  6
CONTINUOUS
 62
             7
100
AcDbLine
 10
129.15942658328109
 20
-2.99886711411045
 11
178.1497285832811
 21
-2.99868611411046
  0
LINE
  5
E5
100
AcDbEntity
  8
LC-001-002-----0
  6
CONTINUOUS
 62
             7
100
AcDbLine
 10
128.66650158328119
 20
0.00113288588955
 11
176.14972058328121
 21
0.00130788588956
  0
LINE
  5
E4
100
AcDbEntity
  8
LC-001-002-----0
  6
CONTINUOUS
 62
             7
100
AcDbLine
 10
-95.85373541671892
 20
-28.27422611411043
 11
-89.85373541671892
 21
-28.27422611411043
  0
LINE
  5
E3
100
AcDbEntity
  8
LC-001-002-----0
  6
CONTINUOUS
 62
             7
100
AcDbLine
 10
-89.35375941671886
 20
-28.27422611411043
 11
88.10261258328114
 21
-28.27422611411043
  0
LINE
  5
E2
100
AcDbEntity
  8
LC-001-002-----0
  6
CONTINUOUS
 62
             7
100
AcDbLine
 10
-100.6535574167188
 20
0.00028488588953
 11
128.66763758328119
 21
0.00113288588955
  0
LINE
  5
E1
100
AcDbEntity
  8
LC-001-002-----0
  6
CONTINUOUS
 62
             7
100
AcDbLine
 10
98.1531955832811
 20
6.90165888588956
 11
90.14967658328112
 21
6.90165888588956
  0
LINE
  5
E0
100
AcDbEntity
  8
LC-001-002-----0
  6
CONTINUOUS
 62
             7
100
AcDbLine
 10
92.6531955832811
 20
16.24515288588958
 11
97.6531955832811
 21
16.24515288588958
  0
LINE
  5
DF
100
AcDbEntity
  8
LC-001-002-----0
  6
CONTINUOUS
 62
             7
100
AcDbLine
 10
-78.85008041671888
 20
-79.11183111411043
 11
-78.85027041671891
 21
-153.9999851141105
  0
LINE
  5
DE
100
AcDbEntity
  8
LC-001-002-----0
  6
CONTINUOUS
 62
             7
100
AcDbLine
 10
-78.85027041671891
 20
-153.9999851141105
 11
81.21677158328112
 21
-153.9999851141105
  0
LINE
  5
DD
100
AcDbEntity
  8
LC-001-002-----0
  6
CONTINUOUS
 62
             7
100
AcDbLine
 10
92.1531955832811
 20
6.90165888588956
 11
92.1531955832811
 21
15.74515288588958
  0
LINE
  5
DC
100
AcDbEntity
  8
LC-006-003-----0
  6
CONTINUOUS
 62
             2
100
AcDbLine
 10
92.6531955832811
 20
6.90165888588956
 11
92.6531955832811
 21
16.24515288588958
  0
LINE
  5
DB
100
AcDbEntity
  8
LC-006-003-----0
  6
CONTINUOUS
 62
             2
100
AcDbLine
 10
97.6531955832811
 20
6.90165888588956
 11
97.6531955832811
 21
16.24515288588958
  0
LINE
  5
DA
100
AcDbEntity
  8
LC-001-002-----0
  6
CONTINUOUS
 62
             7
100
AcDbLine
 10
98.1531955832811
 20
6.90165888588956
 11
98.1531955832811
 21
15.74515288588958
  0
LINE
  5
D9
100
AcDbEntity
  8
LC-001-002-----0
  6
CONTINUOUS
 62
             7
100
AcDbLine
 10
-95.85373541671892
 20
6.90165888588956
 11
-95.85373541671892
 21
15.74515288588958
  0
LINE
  5
D8
100
AcDbEntity
  8
LC-006-003-----0
  6
CONTINUOUS
 62
             2
100
AcDbLine
 10
-95.35373541671892
 20
6.90165888588956
 11
-95.35373541671892
 21
16.24515288588958
  0
LINE
  5
D7
100
AcDbEntity
  8
LC-006-003-----0
  6
CONTINUOUS
 62
             2
100
AcDbLine
 10
-90.35373541671892
 20
6.90165888588956
 11
-90.35373541671892
 21
16.24515288588958
  0
LINE
  5
D6
100
AcDbEntity
  8
LC-001-002-----0
  6
CONTINUOUS
 62
             7
100
AcDbLine
 10
-89.85373541671892
 20
6.90165888588956
 11
-89.85373541671892
 21
15.74515288588958
  0
LINE
  5
D5
100
AcDbEntity
  8
LC-001-002-----0
  6
CONTINUOUS
 62
             7
100
AcDbLine
 10
-123.5840444167189
 20
-5.10750711411043
 11
125.6022035832812
 21
-5.10750711411043
  0
LINE
  5
D4
100
AcDbEntity
  8
LC-001-002-----0
  6
CONTINUOUS
 62
             7
100
AcDbLine
 10
-123.29019941671891
 20
-4.30017611411046
 11
125.5897175832812
 21
-4.30017611411046
  0
LINE
  5
D3
100
AcDbEntity
  8
LC-001-002-----0
  6
CONTINUOUS
 62
             7
100
AcDbLine
 10
-126.8629644167189
 20
-2.99979611411044
 11
129.15942658328109
 21
-2.99979611411044
  0
LINE
  5
D2
100
AcDbEntity
  8
LC-001-002-----0
  6
CONTINUOUS
 62
             7
100
AcDbLine
 10
129.1624825832811
 20
-2.99984511411043
 11
125.5897175832812
 21
-4.30022411411045
  0
LINE
  5
D1
100
AcDbEntity
  8
LC-009-006-MLN-0
  6
DASHDOT
 62
             2
100
AcDbLine
 10
-92.85850441671887
 20
25.74518888588955
 11
-92.8524134167189
 21
-43.75481111411045
  0
LINE
  5
D0
100
AcDbEntity
  8
LC-001-002-----0
  6
CONTINUOUS
 62
             7
100
AcDbLine
 10
92.6532405832811
 20
-35.25488211411044
 11
97.6532405832811
 21
-35.25488411411044
  0
LINE
  5
CF
100
AcDbEntity
  8
LC-001-002-----0
  6
CONTINUOUS
 62
             7
100
AcDbLine
 10
92.6532405832811
 20
-35.25488211411044
 11
92.1532415832811
 21
-34.75488211411044
  0
LINE
  5
CE
100
AcDbEntity
  8
LC-001-002-----0
  6
CONTINUOUS
 62
             7
100
AcDbLine
 10
97.6532405832811
 20
-35.25488411411044
 11
98.1532415832811
 21
-34.75488411411044
  0
LINE
  5
CD
100
AcDbEntity
  8
LC-001-002-----0
  6
CONTINUOUS
 62
             7
100
AcDbLine
 10
92.1532415832811
 20
-34.75488211411044
 11
98.1532415832811
 21
-34.75488411411044
  0
LINE
  5
CC
100
AcDbEntity
  8
LC-001-002-----0
  6
CONTINUOUS
 62
             7
100
AcDbLine
 10
98.1532415832811
 20
-34.75488411411044
 11
98.1532415832811
 21
-33.47466611411045
  0
LINE
  5
CB
100
AcDbEntity
  8
LC-001-002-----0
  6
CONTINUOUS
 62
             7
100
AcDbLine
 10
-48.68706241671885
 20
-34.75440711411045
 11
-48.68706241671885
 21
-33.47422611411042
  0
LINE
  5
CA
100
AcDbEntity
  8
LC-001-002-----0
  6
CONTINUOUS
 62
             7
100
AcDbLine
 10
-43.18706241671885
 20
-35.25440711411045
 11
-48.18706241671885
 21
-35.25440711411045
  0
LINE
  5
C9
100
AcDbEntity
  8
LC-001-002-----0
  6
CONTINUOUS
 62
             7
100
AcDbLine
 10
-42.68706241671885
 20
-34.75440711411045
 11
-42.68706241671885
 21
-33.47422611411042
  0
LINE
  5
C8
100
AcDbEntity
  8
LC-001-002-----0
  6
CONTINUOUS
 62
             7
100
AcDbLine
 10
-43.18706241671885
 20
-35.25440711411045
 11
-42.68706241671885
 21
-34.75440711411045
  0
LINE
  5
C7
100
AcDbEntity
  8
LC-001-002-----0
  6
CONTINUOUS
 62
             7
100
AcDbLine
 10
-48.18706241671885
 20
-35.25440711411045
 11
-48.68706241671885
 21
-34.75440711411045
  0
LINE
  5
C6
100
AcDbEntity
  8
LC-001-002-----0
  6
CONTINUOUS
 62
             7
100
AcDbLine
 10
-42.68706241671885
 20
-34.75440711411045
 11
-48.68706241671885
 21
-34.75440711411045
  0
LINE
  5
C5
100
AcDbEntity
  8
LC-006-003-----0
  6
CONTINUOUS
 62
             2
100
AcDbLine
 10
-48.18706241671885
 20
-35.25440711411045
 11
-48.18706241671885
 21
-33.47422611411042
  0
LINE
  5
C4
100
AcDbEntity
  8
LC-006-003-----0
  6
CONTINUOUS
 62
             2
100
AcDbLine
 10
-43.18706241671885
 20
-35.25440711411045
 11
-43.18706241671885
 21
-33.47422611411042
  0
LINE
  5
C3
100
AcDbEntity
  8
LC-001-002-----0
  6
CONTINUOUS
 62
             7
100
AcDbLine
 10
-50.0171914167189
 20
-33.47422611411042
 11
-41.35693741671889
 21
-33.47422611411042
  0
LINE
  5
C2
100
AcDbEntity
  8
LC-001-002-----0
  6
CONTINUOUS
 62
             7
100
AcDbLine
 10
-50.0171924167189
 20
-28.27422611411043
 11
-41.35693841671889
 21
-28.27422611411043
  0
LINE
  5
C1
100
AcDbEntity
  8
LC-001-002-----0
  6
CONTINUOUS
 62
             7
100
AcDbLine
 10
-51.46056641671885
 20
-28.94335511411043
 11
-51.46056641671885
 21
-32.80509711411042
  0
LINE
  5
C0
100
AcDbEntity
  8
LC-001-002-----0
  6
CONTINUOUS
 62
             7
100
AcDbLine
 10
-39.91356141671889
 20
-28.94335411411043
 11
-39.91356141671889
 21
-32.80509711411042
  0
LINE
  5
BF
100
AcDbEntity
  8
LC-001-002-----0
  6
CONTINUOUS
 62
             7
100
AcDbLine
 10
-48.57381541671884
 20
-32.80514911411046
 11
-48.57381541671884
 21
-28.93762611411046
  0
LINE
  5
BE
100
AcDbEntity
  8
LC-001-002-----0
  6
CONTINUOUS
 62
             7
100
AcDbLine
 10
-42.8003124167189
 20
-32.80509911411048
 11
-42.8003124167189
 21
-28.94338111411042
  0
LINE
  5
BD
100
AcDbEntity
  8
LC-001-002-----0
  6
CONTINUOUS
 62
             7
100
AcDbLine
 10
-40.68710041671886
 20
6.90209888588959
 11
-50.68710041671886
 21
6.90209888588959
  0
LINE
  5
BC
100
AcDbEntity
  8
LC-001-002-----0
  6
CONTINUOUS
 62
             7
100
AcDbLine
 10
-52.37499941671888
 20
12.58992488588956
 11
-50.68710041671886
 21
6.90209888588959
  0
LINE
  5
BB
100
AcDbEntity
  8
LC-001-002-----0
  6
CONTINUOUS
 62
             7
100
AcDbLine
 10
-39.92028641671885
 20
0.00077488588954
 11
-40.68710041671886
 21
6.90209888588959
  0
LINE
  5
BA
100
AcDbEntity
  8
LC-001-002-----0
  6
CONTINUOUS
 62
             7
100
AcDbLine
 10
-50.68710041671886
 20
6.90209888588959
 11
-51.45391841671886
 21
0.00073288588953
  0
LINE
  5
B9
100
AcDbEntity
  8
LC-001-002-----0
  6
CONTINUOUS
 62
             7
100
AcDbLine
 10
-38.99920041671885
 20
12.58992488588956
 11
-40.68710041671886
 21
6.90209888588959
  0
LINE
  5
B8
100
AcDbEntity
  8
LC-001-002-----0
  6
CONTINUOUS
 62
             7
100
AcDbLine
 10
-31.13221541671885
 20
7.87745588588956
 11
-37.88726441671889
 21
0.00078288588958
  0
LINE
  5
B7
100
AcDbEntity
  8
LC-001-002-----0
  6
CONTINUOUS
 62
             7
100
AcDbLine
 10
-60.24198441671888
 20
7.87745588588956
 11
-53.48688541671891
 21
0.00072488588955
  0
LINE
  5
B6
100
AcDbEntity
  8
LC-001-002-----0
  6
CONTINUOUS
 62
             7
100
AcDbLine
 10
-48.18706241671885
 20
16.24559288588955
 11
-43.18706241671885
 21
16.24559288588955
  0
LINE
  5
B5
100
AcDbEntity
  8
LC-001-002-----0
  6
CONTINUOUS
 62
             7
100
AcDbLine
 10
-48.18706241671885
 20
16.24559288588955
 11
-48.68706241671885
 21
15.74559288588955
  0
LINE
  5
B4
100
AcDbEntity
  8
LC-001-002-----0
  6
CONTINUOUS
 62
             7
100
AcDbLine
 10
-43.18706241671885
 20
16.24559288588955
 11
-42.68706241671885
 21
15.74559288588955
  0
LINE
  5
B3
100
AcDbEntity
  8
LC-001-002-----0
  6
CONTINUOUS
 62
             7
100
AcDbLine
 10
-48.68706241671885
 20
15.74559288588955
 11
-42.68706241671885
 21
15.74559288588955
  0
LINE
  5
B2
100
AcDbEntity
  8
LC-001-002-----0
  6
CONTINUOUS
 62
             7
100
AcDbLine
 10
-48.68706241671885
 20
6.90209888588959
 11
-48.68706241671885
 21
15.74559288588955
  0
LINE
  5
B1
100
AcDbEntity
  8
LC-006-003-----0
  6
CONTINUOUS
 62
             2
100
AcDbLine
 10
-48.18706241671885
 20
6.90209888588959
 11
-48.18706241671885
 21
16.24559288588955
  0
LINE
  5
B0
100
AcDbEntity
  8
LC-006-003-----0
  6
CONTINUOUS
 62
             2
100
AcDbLine
 10
-43.18706241671885
 20
6.90209888588959
 11
-43.18706241671885
 21
16.24559288588955
  0
LINE
  5
AF
100
AcDbEntity
  8
LC-001-002-----0
  6
CONTINUOUS
 62
             7
100
AcDbLine
 10
-42.68706241671885
 20
6.90209888588959
 11
-42.68706241671885
 21
15.74559288588955
  0
LINE
  5
AE
100
AcDbEntity
  8
LC-001-002-----0
  6
DASHDOT
 62
             2
100
AcDbLine
 10
-45.68935541671885
 20
16.24559288588955
 11
-45.6867044167189
 21
-35.25440711411045
  0
LINE
  5
AD
100
AcDbEntity
  8
LC-001-002-----0
  6
CONTINUOUS
 62
             7
100
AcDbLine
 10
50.98656858328116
 20
-34.7544261141104
 11
50.98656958328115
 21
-33.47424511411043
  0
LINE
  5
AC
100
AcDbEntity
  8
LC-001-002-----0
  6
CONTINUOUS
 62
             7
100
AcDbLine
 10
45.48656858328116
 20
-35.25442411411041
 11
50.48656858328116
 21
-35.2544261141104
  0
LINE
  5
AB
100
AcDbEntity
  8
LC-001-002-----0
  6
CONTINUOUS
 62
             7
100
AcDbLine
 10
44.98656858328116
 20
-34.75442411411046
 11
44.98656958328115
 21
-33.47424311411044
  0
LINE
  5
AA
100
AcDbEntity
  8
LC-001-002-----0
  6
CONTINUOUS
 62
             7
100
AcDbLine
 10
45.48656858328116
 20
-35.25442411411041
 11
44.98656858328116
 21
-34.75442411411046
  0
LINE
  5
A9
100
AcDbEntity
  8
LC-001-002-----0
  6
CONTINUOUS
 62
             7
100
AcDbLine
 10
50.48656858328116
 20
-35.2544261141104
 11
50.98656858328116
 21
-34.7544261141104
  0
LINE
  5
A8
100
AcDbEntity
  8
LC-001-002-----0
  6
CONTINUOUS
 62
             7
100
AcDbLine
 10
44.98656858328116
 20
-34.75442411411046
 11
50.98656858328116
 21
-34.7544261141104
  0
LINE
  5
A7
100
AcDbEntity
  8
LC-006-003-----0
  6
CONTINUOUS
 62
             2
100
AcDbLine
 10
50.48656858328116
 20
-35.2544261141104
 11
50.48656958328115
 21
-33.47424511411043
  0
LINE
  5
A6
100
AcDbEntity
  8
LC-006-003-----0
  6
CONTINUOUS
 62
             2
100
AcDbLine
 10
45.48656858328116
 20
-35.25442411411041
 11
45.48656958328115
 21
-33.47424311411044
  0
LINE
  5
A5
100
AcDbEntity
  8
LC-001-002-----0
  6
CONTINUOUS
 62
             7
100
AcDbLine
 10
52.3166985832811
 20
-33.47424511411043
 11
43.65644358328115
 21
-33.47424211411044
  0
LINE
  5
A4
100
AcDbEntity
  8
LC-001-002-----0
  6
CONTINUOUS
 62
             7
100
AcDbLine
 10
52.31670058328109
 20
-28.27424511411044
 11
43.65644658328114
 21
-28.27424211411045
  0
LINE
  5
A3
100
AcDbEntity
  8
LC-001-002-----0
  6
CONTINUOUS
 62
             7
100
AcDbLine
 10
53.76007458328115
 20
-28.94337511411044
 11
53.76007358328116
 21
-32.80511711411043
  0
LINE
  5
A2
100
AcDbEntity
  8
LC-001-002-----0
  6
CONTINUOUS
 62
             7
100
AcDbLine
 10
42.21306958328114
 20
-28.94337011411039
 11
42.21306758328115
 21
-32.80511311411044
  0
LINE
  5
A1
100
AcDbEntity
  8
LC-001-002-----0
  6
CONTINUOUS
 62
             7
100
AcDbLine
 10
50.87332158328115
 20
-32.80516811411047
 11
50.87332358328115
 21
-28.93764511411041
  0
LINE
  5
A0
100
AcDbEntity
  8
LC-001-002-----0
  6
CONTINUOUS
 62
             7
100
AcDbLine
 10
45.09981958328115
 20
-32.80511511411044
 11
45.09982058328114
 21
-28.94339811411044
  0
LINE
  5
9F
100
AcDbEntity
  8
LC-001-002-----0
  6
DASHDOT
 62
             2
100
AcDbLine
 10
47.98888158328111
 20
16.24557488588954
 11
47.98621058328115
 21
-35.2544251141104
  0
LINE
  5
9E
100
AcDbEntity
  8
LC-001-002-----0
  6
CONTINUOUS
 62
             7
100
AcDbLine
 10
42.98662158328114
 20
6.90208288588957
 11
52.98662158328114
 21
6.90207888588952
  0
LINE
  5
9D
100
AcDbEntity
  8
LC-001-002-----0
  6
CONTINUOUS
 62
             7
100
AcDbLine
 10
54.67452358328114
 20
12.58990388588956
 11
52.98662158328114
 21
6.90207888588952
  0
LINE
  5
9C
100
AcDbEntity
  8
LC-001-002-----0
  6
CONTINUOUS
 62
             7
100
AcDbLine
 10
42.21980558328113
 20
0.00075988588952
 11
42.98662158328114
 21
6.90208288588957
  0
LINE
  5
9B
100
AcDbEntity
  8
LC-001-002-----0
  6
CONTINUOUS
 62
             7
100
AcDbLine
 10
52.98662158328114
 20
6.90207888588952
 11
53.75343758328114
 21
0.00071288588953
  0
LINE
  5
9A
100
AcDbEntity
  8
LC-001-002-----0
  6
CONTINUOUS
 62
             7
100
AcDbLine
 10
41.29872458328111
 20
12.5899098858896
 11
42.98662158328114
 21
6.90208288588957
  0
LINE
  5
99
100
AcDbEntity
  8
LC-001-002-----0
  6
CONTINUOUS
 62
             7
100
AcDbLine
 10
33.43173858328112
 20
7.87744388588953
 11
40.18678458328111
 21
0.00076788588956
  0
LINE
  5
98
100
AcDbEntity
  8
LC-001-002-----0
  6
CONTINUOUS
 62
             7
100
AcDbLine
 10
62.54150658328115
 20
7.87743288588956
 11
55.78640458328107
 21
0.00070388588955
  0
LINE
  5
97
100
AcDbEntity
  8
LC-001-002-----0
  6
CONTINUOUS
 62
             7
100
AcDbLine
 10
50.48658858328111
 20
16.24557388588954
 11
45.48658858328111
 21
16.24557588588954
  0
LINE
  5
96
100
AcDbEntity
  8
LC-001-002-----0
  6
CONTINUOUS
 62
             7
100
AcDbLine
 10
50.48658858328111
 20
16.24557388588954
 11
50.98658858328111
 21
15.74557388588954
  0
LINE
  5
95
100
AcDbEntity
  8
LC-001-002-----0
  6
CONTINUOUS
 62
             7
100
AcDbLine
 10
45.48658858328111
 20
16.24557588588954
 11
44.98658858328111
 21
15.74557588588954
  0
LINE
  5
94
100
AcDbEntity
  8
LC-001-002-----0
  6
CONTINUOUS
 62
             7
100
AcDbLine
 10
50.98658858328111
 20
15.74557388588954
 11
44.98658858328111
 21
15.74557588588954
  0
LINE
  5
93
100
AcDbEntity
  8
LC-001-002-----0
  6
CONTINUOUS
 62
             7
100
AcDbLine
 10
50.98658458328112
 20
6.90207988588958
 11
50.98658858328111
 21
15.74557388588954
  0
LINE
  5
92
100
AcDbEntity
  8
LC-006-003-----0
  6
CONTINUOUS
 62
             2
100
AcDbLine
 10
50.48658458328112
 20
6.90207988588958
 11
50.48658858328111
 21
16.24557388588954
  0
LINE
  5
91
100
AcDbEntity
  8
LC-006-003-----0
  6
CONTINUOUS
 62
             2
100
AcDbLine
 10
45.48658458328112
 20
6.90208188588957
 11
45.48658858328111
 21
16.24557588588954
  0
LINE
  5
90
100
AcDbEntity
  8
LC-001-002-----0
  6
CONTINUOUS
 62
             7
100
AcDbLine
 10
44.98658458328112
 20
6.90208188588957
 11
44.98658858328111
 21
15.74557588588954
  0
POINT
  5
8F
100
AcDbEntity
  8
LC-006-003-----0
 62
             7
100
AcDbPoint
 10
-78.85027041671891
 20
-153.9999851141105
  0
POINT
  5
8E
100
AcDbEntity
  8
LC-006-003-----0
 62
             7
100
AcDbPoint
 10
81.1497295832811
 20
-153.9999851141105
  0
POINT
  5
8D
100
AcDbEntity
  8
LC-006-003-----0
 62
             7
100
AcDbPoint
 10
-175.85025841671879
 20
-3.00788311411043
  0
POINT
  5
8C
100
AcDbEntity
  8
LC-006-003-----0
 62
             7
100
AcDbPoint
 10
178.1497285832811
 20
-2.99868611411046
  0
POINT
  5
8B
100
AcDbEntity
  8
LC-006-003-----0
 62
             7
100
AcDbPoint
 10
-175.85025841671879
 20
-3.00788311411043
  0
POINT
  5
8A
100
AcDbEntity
  8
LC-006-003-----0
 62
             7
100
AcDbPoint
 10
-77.24257541671888
 20
-159.9999851141105
  0
POINT
  5
89
100
AcDbEntity
  8
LC-006-003-----0
 62
             7
100
AcDbPoint
 10
-100.3537594167188
 20
-22.46468011411042
  0
POINT
  5
88
100
AcDbEntity
  8
LC-006-003-----0
 62
             7
100
AcDbPoint
 10
102.6532175832812
 20
-21.82490411411044
  0
ENDBLK
  5
20B
100
AcDbEntity
  8
0
100
AcDbBlockEnd
  0
BLOCK
  5
31
100
AcDbEntity
  8
0
100
AcDbBlockBegin
  2
HL_62_1_5_DACHABLAUF
 70
             0
 10
194.738651386105
 20
-379.02654181440198
 30
0.0
  3
HL_62_1_5_DACHABLAUF
  1

  0
INSERT
  5
32
100
AcDbEntity
  8
1
100
AcDbBlockReference
  2
062_1E_LAUBFANGKORB
 10
116.4425524146646
 20
-539.02846192851257
  0
INSERT
  5
33
100
AcDbEntity
  8
1
100
AcDbBlockReference
  2
K_RPER
 10
477.30868190245559
 20
-539.02703204262298
  0
ENDBLK
  5
20C
100
AcDbEntity
  8
0
100
AcDbBlockEnd
  0
BLOCK
  5
20F
100
AcDbEntity
  8
0
100
AcDbBlockBegin
  2
*D3
 70
             1
 10
0.0
 20
0.0
 30
0.0
  3
*D3
  1

  0
LINE
  5
210
100
AcDbEntity
  8
0
  6
CONTINUOUS
 62
             4
100
AcDbLine
 10
-100.353796837209
 20
-226.29769246180928
 11
102.65318016278385
 21
-226.29773053562946
  0
LINE
  5
211
100
AcDbEntity
  8
0
  6
CONTINUOUS
 62
             4
100
AcDbLine
 10
102.65321758328115
 20
-26.77422611411038
 11
102.65317978768515
 21
-228.29773053562946
  0
LINE
  5
212
100
AcDbEntity
  8
0
  6
CONTINUOUS
 62
             4
100
AcDbLine
 10
-100.35375941671883
 20
-26.77422611411038
 11
-100.35379721230764
 21
-228.29769246180928
  0
SOLID
  5
213
100
AcDbEntity
  8
0
 62
             4
100
AcDbTrace
 10
-85.35379646683923
 20
-224.32290781123817
 11
-85.35379720757931
 21
-228.27248273885996
 12
-100.353796837209
 22
-226.29769246180928
 13
-100.353796837209
 23
-226.29769246180928
  0
SOLID
  5
214
100
AcDbEntity
  8
0
 62
             4
100
AcDbTrace
 10
87.65317979241408
 20
-228.27251518620059
 11
87.65318053315416
 21
-224.32294025857877
 12
102.65318016278385
 22
-226.29773053562946
 13
102.65318016278385
 23
-226.29773053562946
  0
MTEXT
  5
216
100
AcDbEntity
  8
0
 62
             1
100
AcDbMText
 10
-22.58527056755554
 20
-224.29773917014126
 30
0.0
 40
15.0
 41
0.0
 71
             7
 72
             1
  1
\C1;Ø\C1;203
  7
CONVERTER_1
 11
0.99999999999706
 21
0.00000242406841
 31
0.0
  0
ENDBLK
  5
217
100
AcDbEntity
  8
0
100
AcDbBlockEnd
  0
BLOCK
  5
21B
100
AcDbEntity
  8
0
100
AcDbBlockBegin
  2
*D4
 70
             1
 10
0.0
 20
0.0
 30
0.0
  3
*D4
  1

  0
LINE
  5
21C
100
AcDbEntity
  8
0
  6
CONTINUOUS
 62
             4
100
AcDbLine
 10
-78.8502777381304
 20
-193.03724499375278
 11
81.14972226186399
 21
-193.03727500164382
  0
LINE
  5
21D
100
AcDbEntity
  8
0
  6
CONTINUOUS
 62
             4
100
AcDbLine
 10
81.1497295832811
 20
-153.99998511411047
 11
81.14972188676535
 21
-195.03727500164382
  0
LINE
  5
21E
100
AcDbEntity
  8
0
  6
CONTINUOUS
 62
             4
100
AcDbLine
 10
-78.85027041671891
 20
-153.99998511411047
 11
-78.85027811322904
 21
-195.03724499375278
  0
SOLID
  5
21F
100
AcDbEntity
  8
0
 62
             4
100
AcDbTrace
 10
-63.85027736776063
 20
-191.06246034318167
 11
-63.85027810850071
 21
-195.01203527080347
 12
-78.8502777381304
 22
-193.03724499375278
 13
-78.8502777381304
 23
-193.03724499375278
  0
SOLID
  5
220
100
AcDbEntity
  8
0
 62
             4
100
AcDbTrace
 10
66.14972189149421
 20
-195.01205965221496
 11
66.14972263223429
 21
-191.06248472459313
 12
81.14972226186399
 22
-193.03727500164382
 13
81.14972226186399
 23
-193.03727500164382
  0
MTEXT
  5
221
100
AcDbEntity
  8
0
 62
             1
100
AcDbMText
 10
-24.44234449728851
 20
-191.03731944371953
 30
0.0
 40
15.0
 41
0.0
 71
             7
 72
             1
  1
\C1;DN\C1;160
  7
CONVERTER_1
 11
0.99999999999706
 21
0.00000242406841
 31
0.0
  0
ENDBLK
  5
222
100
AcDbEntity
  8
0
100
AcDbBlockEnd
  0
BLOCK
  5
226
100
AcDbEntity
  8
0
100
AcDbBlockBegin
  2
*D5
 70
             1
 10
0.0
 20
0.0
 30
0.0
  3
*D5
  1

  0
LINE
  5
227
100
AcDbEntity
  8
0
  6
CONTINUOUS
 62
             4
100
AcDbLine
 10
-175.85024025405843
 20
93.83416640395294
 11
178.14974674420418
 21
93.83410001149659
  0
LINE
  5
228
100
AcDbEntity
  8
0
  6
CONTINUOUS
 62
             4
100
AcDbLine
 10
178.14972858328107
 20
-2.9986861141104
 11
178.14974711930279
 21
95.83410001149653
  0
LINE
  5
229
100
AcDbEntity
  8
0
  6
CONTINUOUS
 62
             4
100
AcDbLine
 10
-175.85025841671882
 20
-3.0078831141104
 11
-175.85023987895971
 21
95.83416640395288
  0
SOLID
  5
22A
100
AcDbEntity
  8
0
 62
             4
100
AcDbTrace
 10
-160.85023988368866
 20
95.80895105452406
 11
-160.85024062442875
 21
91.85937612690226
 12
-175.85024025405843
 22
93.83416640395294
 13
-175.85024025405843
 23
93.83416640395294
  0
SOLID
  5
22B
100
AcDbEntity
  8
0
 62
             4
100
AcDbTrace
 10
163.1497463738344
 20
91.85931536092546
 11
163.1497471145745
 21
95.80889028854726
 12
178.14974674420418
 22
93.83410001149659
 13
178.14974674420418
 23
93.83410001149659
  0
MTEXT
  5
22C
100
AcDbEntity
  8
0
 62
             1
100
AcDbMText
 10
-21.19941842709452
 20
95.83410527639872
 30
0.0
 40
15.0
 41
0.0
 71
             7
 72
             1
  1
\C1;Ø\C1;354
  7
CONVERTER_1
 11
0.99999999999706
 21
0.00000242406841
 31
0.0
  0
ENDBLK
  5
22D
100
AcDbEntity
  8
0
100
AcDbBlockEnd
  0
BLOCK
  5
231
100
AcDbEntity
  8
0
100
AcDbBlockBegin
  2
*D6
 70
             1
 10
0.0
 20
0.0
 30
0.0
  3
*D6
  1

  0
LINE
  5
232
100
AcDbEntity
  8
0
  6
CONTINUOUS
 62
             4
100
AcDbLine
 10
-185.85028786195676
 20
-159.99996474480804
 11
-185.8502584167187
 21
-2.99999123861727
  0
LINE
  5
233
100
AcDbEntity
  8
0
  6
CONTINUOUS
 62
             4
100
AcDbLine
 10
-175.85025841671879
 20
-2.99999311411045
 11
-187.85025841671865
 21
-2.99999086351863
  0
LINE
  5
234
100
AcDbEntity
  8
0
  6
CONTINUOUS
 62
             4
100
AcDbLine
 10
-77.24257541671889
 20
-159.99998511411047
 11
-187.85028786195673
 21
-159.99996436970935
  0
SOLID
  5
235
100
AcDbEntity
  8
0
 62
             4
100
AcDbTrace
 10
-187.8250725125279
 20
-144.99996437443826
 11
-183.87549758490607
 21
-144.99996511517836
 12
-185.85028786195676
 22
-159.99996474480804
 13
-185.85028786195676
 23
-159.99996474480804
  0
SOLID
  5
236
100
AcDbEntity
  8
0
 62
             4
100
AcDbTrace
 10
-183.87547376614759
 20
-17.99999160898705
 11
-187.82504869376939
 21
-17.99999086824696
 12
-185.8502584167187
 22
-2.99999123861727
 13
-185.8502584167187
 23
-2.99999123861727
  0
MTEXT
  5
237
100
AcDbEntity
  8
0
 62
             1
100
AcDbMText
 10
-187.8502752167586
 20
-92.57664222481776
 30
0.0
 40
15.0
 41
0.0
 71
             7
 72
             1
  1
157
  7
CONVERTER_1
 11
0.00000018754932
 21
0.99999999999998
 31
0.0
  0
ENDBLK
  5
238
100
AcDbEntity
  8
0
100
AcDbBlockEnd
  0
ENDSEC
  0
SECTION
  2
ENTITIES
  0
DIMENSION
  5
23A
100
AcDbEntity
  8
1
100
AcDbDimension
  2
*D6
 10
-185.85028786195676
 20
-159.99996474480804
 11
-195.35027226285669
 21
-76.82664081819814
 31
0.0
 53
89.99998925421559
  1
<>
  3
ME10_DIM_3
100
AcDbAlignedDimension
 13
-175.85025841671879
 23
-2.99999311411045
 14
-77.24257541671888
 24
-159.9999851141105
 50
89.99998925421559
100
AcDbRotatedDimension
  0
DIMENSION
  5
22F
100
AcDbEntity
  8
1
100
AcDbDimension
  2
*D5
 10
-175.85024025405843
 20
93.83416640395294
 11
0.10058297948908
 21
103.3341334044961
 31
0.0
 53
179.99998925421559
  1
<>
  3
ME10_DIM_2
100
AcDbAlignedDimension
 13
178.1497285832811
 23
-2.99868611411046
 14
-175.85025841671879
 24
-3.00788311411043
 50
179.99998925421559
100
AcDbRotatedDimension
  0
DIMENSION
  5
224
100
AcDbEntity
  8
1
100
AcDbDimension
  2
*D4
 10
-78.8502777381304
 20
-193.03724499375278
 11
-0.59234309074088
 21
-183.53725967097489
 31
0.0
 53
179.99998925421559
  1
<>
  3
ME10_DIM_1
100
AcDbAlignedDimension
 13
81.1497295832811
 23
-153.9999851141105
 14
-78.85027041671891
 24
-153.9999851141105
 50
179.99998925421559
100
AcDbRotatedDimension
  0
DIMENSION
  5
219
100
AcDbEntity
  8
1
100
AcDbDimension
  2
*D3
 10
-100.353796837209
 20
-226.29769246180928
 11
-1.28526916097195
 21
-216.79771104204389
 31
0.0
 53
179.99998925421559
  1
Ø203
  3
ME10_DIM_0
100
AcDbAlignedDimension
 13
102.6532175832812
 23
-26.77422611411043
 14
-100.3537594167188
 24
-26.77422611411043
 50
179.99998925421559
100
AcDbRotatedDimension
  0
INSERT
  5
36
100
AcDbEntity
  8
0
100
AcDbBlockReference
  2
HL_62_1_5_DACHABLAUF
 10
194.738651386105
 20
-379.02654181440198
  0
ENDSEC
  0
SECTION
  2
OBJECTS
  0
DICTIONARY
  5
19
100
AcDbDictionary
  3
ACAD_GROUP
350
1A
  3
ACAD_MLINESTYLE
350
1B
  0
DICTIONARY
  5
1A
102
{ACAD_REACTORS
330
19
102
}
100
AcDbDictionary
  0
DICTIONARY
  5
1B
102
{ACAD_REACTORS
330
19
102
}
100
AcDbDictionary
  3
STANDARD
350
1C
  0
MLINESTYLE
  5
1C
102
{ACAD_REACTORS
330
1B
102
}
100
AcDbMlineStyle
  2
STANDARD
 70
             0
  3

 62
             0
 51
90.0
 52
90.0
 71
             2
 49
0.5
 62
           256
  6
BYLAYER
 49
-0.5
 62
           256
  6
BYLAYER
  0
ENDSEC
  0
EOF
