  0
SECTION
  2
HEADER
  9
$ACADVER
  1
AC1015
  9
$ACADMAINTVER
 70
     6
  9
$DWGCODEPAGE
  3
ANSI_1252
  9
$INSBASE
 10
0.0
 20
0.0
 30
0.0
  9
$EXTMIN
 10
-204.8234320736774
 20
-908.1247340371046
 30
0.0
  9
$EXTMAX
 10
258.841794440571
 20
209.9265893886004
 30
0.0
  9
$LIMMIN
 10
0.0
 20
0.0
  9
$LIMMAX
 10
12.0
 20
9.0
  9
$ORTHOMODE
 70
     0
  9
$REGENMODE
 70
     1
  9
$FILLMODE
 70
     1
  9
$QTEXTMODE
 70
     0
  9
$MIRRTEXT
 70
     1
  9
$LTSCALE
 40
1.0
  9
$ATTMODE
 70
     1
  9
$TEXTSIZE
 40
0.2
  9
$TRACEWID
 40
0.05
  9
$TEXTSTYLE
  7
Standard
  9
$CLAYER
  8
0
  9
$CELTYPE
  6
ByLayer
  9
$CECOLOR
 62
   256
  9
$CELTSCALE
 40
1.0
  9
$DISPSILH
 70
     0
  9
$DIMSCALE
 40
1.0
  9
$DIMASZ
 40
0.18
  9
$DIMEXO
 40
0.0625
  9
$DIMDLI
 40
0.38
  9
$DIMRND
 40
0.0
  9
$DIMDLE
 40
0.0
  9
$DIMEXE
 40
0.18
  9
$DIMTP
 40
0.0
  9
$DIMTM
 40
0.0
  9
$DIMTXT
 40
0.18
  9
$DIMCEN
 40
0.09
  9
$DIMTSZ
 40
0.0
  9
$DIMTOL
 70
     0
  9
$DIMLIM
 70
     0
  9
$DIMTIH
 70
     1
  9
$DIMTOH
 70
     1
  9
$DIMSE1
 70
     0
  9
$DIMSE2
 70
     0
  9
$DIMTAD
 70
     0
  9
$DIMZIN
 70
     0
  9
$DIMBLK
  1

  9
$DIMASO
 70
     1
  9
$DIMSHO
 70
     1
  9
$DIMPOST
  1

  9
$DIMAPOST
  1

  9
$DIMALT
 70
     0
  9
$DIMALTD
 70
     2
  9
$DIMALTF
 40
25.4
  9
$DIMLFAC
 40
1.0
  9
$DIMTOFL
 70
     0
  9
$DIMTVP
 40
0.0
  9
$DIMTIX
 70
     0
  9
$DIMSOXD
 70
     0
  9
$DIMSAH
 70
     0
  9
$DIMBLK1
  1

  9
$DIMBLK2
  1

  9
$DIMSTYLE
  2
Standard
  9
$DIMCLRD
 70
     0
  9
$DIMCLRE
 70
     0
  9
$DIMCLRT
 70
     0
  9
$DIMTFAC
 40
1.0
  9
$DIMGAP
 40
0.09
  9
$DIMJUST
 70
     0
  9
$DIMSD1
 70
     0
  9
$DIMSD2
 70
     0
  9
$DIMTOLJ
 70
     1
  9
$DIMTZIN
 70
     0
  9
$DIMALTZ
 70
     0
  9
$DIMALTTZ
 70
     0
  9
$DIMUPT
 70
     0
  9
$DIMDEC
 70
     4
  9
$DIMTDEC
 70
     4
  9
$DIMALTU
 70
     2
  9
$DIMALTTD
 70
     2
  9
$DIMTXSTY
  7
Standard
  9
$DIMAUNIT
 70
     0
  9
$DIMADEC
 70
     0
  9
$DIMALTRND
 40
0.0
  9
$DIMAZIN
 70
     0
  9
$DIMDSEP
 70
    46
  9
$DIMATFIT
 70
     3
  9
$DIMFRAC
 70
     0
  9
$DIMLDRBLK
  1

  9
$DIMLUNIT
 70
     2
  9
$DIMLWD
 70
    -2
  9
$DIMLWE
 70
    -2
  9
$DIMTMOVE
 70
     0
  9
$LUNITS
 70
     2
  9
$LUPREC
 70
     4
  9
$SKETCHINC
 40
0.1
  9
$FILLETRAD
 40
0.5
  9
$AUNITS
 70
     0
  9
$AUPREC
 70
     0
  9
$MENU
  1
.
  9
$ELEVATION
 40
0.0
  9
$PELEVATION
 40
0.0
  9
$THICKNESS
 40
0.0
  9
$LIMCHECK
 70
     0
  9
$CHAMFERA
 40
0.5
  9
$CHAMFERB
 40
0.5
  9
$CHAMFERC
 40
1.0
  9
$CHAMFERD
 40
0.0
  9
$SKPOLY
 70
     0
  9
$TDCREATE
 40
2454727.320657535
  9
$TDUCREATE
 40
2454727.237324202
  9
$TDUPDATE
 40
2454727.320657546
  9
$TDUUPDATE
 40
2454727.237324213
  9
$TDINDWG
 40
0.0000000116
  9
$TDUSRTIMER
 40
0.0000000116
  9
$USRTIMER
 70
     1
  9
$ANGBASE
 50
0.0
  9
$ANGDIR
 70
     0
  9
$PDMODE
 70
     0
  9
$PDSIZE
 40
0.0
  9
$PLINEWID
 40
0.0
  9
$SPLFRAME
 70
     0
  9
$SPLINETYPE
 70
     6
  9
$SPLINESEGS
 70
     8
  9
$HANDSEED
  5
3AB
  9
$SURFTAB1
 70
     6
  9
$SURFTAB2
 70
     6
  9
$SURFTYPE
 70
     6
  9
$SURFU
 70
     6
  9
$SURFV
 70
     6
  9
$UCSBASE
  2

  9
$UCSNAME
  2

  9
$UCSORG
 10
0.0
 20
0.0
 30
0.0
  9
$UCSXDIR
 10
1.0
 20
0.0
 30
0.0
  9
$UCSYDIR
 10
0.0
 20
1.0
 30
0.0
  9
$UCSORTHOREF
  2

  9
$UCSORTHOVIEW
 70
     0
  9
$UCSORGTOP
 10
0.0
 20
0.0
 30
0.0
  9
$UCSORGBOTTOM
 10
0.0
 20
0.0
 30
0.0
  9
$UCSORGLEFT
 10
0.0
 20
0.0
 30
0.0
  9
$UCSORGRIGHT
 10
0.0
 20
0.0
 30
0.0
  9
$UCSORGFRONT
 10
0.0
 20
0.0
 30
0.0
  9
$UCSORGBACK
 10
0.0
 20
0.0
 30
0.0
  9
$PUCSBASE
  2

  9
$PUCSNAME
  2

  9
$PUCSORG
 10
0.0
 20
0.0
 30
0.0
  9
$PUCSXDIR
 10
1.0
 20
0.0
 30
0.0
  9
$PUCSYDIR
 10
0.0
 20
1.0
 30
0.0
  9
$PUCSORTHOREF
  2

  9
$PUCSORTHOVIEW
 70
     0
  9
$PUCSORGTOP
 10
0.0
 20
0.0
 30
0.0
  9
$PUCSORGBOTTOM
 10
0.0
 20
0.0
 30
0.0
  9
$PUCSORGLEFT
 10
0.0
 20
0.0
 30
0.0
  9
$PUCSORGRIGHT
 10
0.0
 20
0.0
 30
0.0
  9
$PUCSORGFRONT
 10
0.0
 20
0.0
 30
0.0
  9
$PUCSORGBACK
 10
0.0
 20
0.0
 30
0.0
  9
$USERI1
 70
     0
  9
$USERI2
 70
     0
  9
$USERI3
 70
     0
  9
$USERI4
 70
     0
  9
$USERI5
 70
     0
  9
$USERR1
 40
15.5
  9
$USERR2
 40
0.0
  9
$USERR3
 40
0.0
  9
$USERR4
 40
0.0
  9
$USERR5
 40
0.0
  9
$WORLDVIEW
 70
     1
  9
$SHADEDGE
 70
     3
  9
$SHADEDIF
 70
    70
  9
$TILEMODE
 70
     1
  9
$MAXACTVP
 70
    64
  9
$PINSBASE
 10
0.0
 20
0.0
 30
0.0
  9
$PLIMCHECK
 70
     0
  9
$PEXTMIN
 10
1.00000000000000E+20
 20
1.00000000000000E+20
 30
1.00000000000000E+20
  9
$PEXTMAX
 10
-1.00000000000000E+20
 20
-1.00000000000000E+20
 30
-1.00000000000000E+20
  9
$PLIMMIN
 10
0.0
 20
0.0
  9
$PLIMMAX
 10
12.0
 20
9.0
  9
$UNITMODE
 70
     0
  9
$VISRETAIN
 70
     1
  9
$PLINEGEN
 70
     0
  9
$PSLTSCALE
 70
     1
  9
$TREEDEPTH
 70
  3020
  9
$CMLSTYLE
  2
Standard
  9
$CMLJUST
 70
     0
  9
$CMLSCALE
 40
1.0
  9
$PROXYGRAPHICS
 70
     1
  9
$MEASUREMENT
 70
     1
  9
$CELWEIGHT
370
    -1
  9
$ENDCAPS
280
     0
  9
$JOINSTYLE
280
     0
  9
$LWDISPLAY
290
     0
  9
$INSUNITS
 70
     1
  9
$HYPERLINKBASE
  1

  9
$STYLESHEET
  1

  9
$XEDIT
290
     1
  9
$CEPSNTYPE
380
     0
  9
$PSTYLEMODE
290
     1
  9
$FINGERPRINTGUID
  2
{1FE058F2-3C99-4074-BBBA-62BB86AE28B6}
  9
$VERSIONGUID
  2
{FAEB1C32-E019-11D5-929B-00C0DF256EC4}
  9
$EXTNAMES
290
     1
  9
$PSVPSCALE
 40
0.0
  9
$OLESTARTUP
290
     0
  0
ENDSEC
  0
SECTION
  2
CLASSES
  0
CLASS
  1
ACDBDICTIONARYWDFLT
  2
AcDbDictionaryWithDefault
  3
ObjectDBX Classes
 90
        0
280
     0
281
     0
  0
CLASS
  1
VISUALSTYLE
  2
AcDbVisualStyle
  3
ObjectDBX Classes
 90
     4095
280
     0
281
     0
  0
CLASS
  1

  2
exOdDbCircle
  3

 90
        0
280
     0
281
     1
  0
CLASS
  1
ACDBPLACEHOLDER
  2
AcDbPlaceHolder
  3
ObjectDBX Classes
 90
        0
280
     0
281
     0
  0
CLASS
  1
LAYOUT
  2
AcDbLayout
  3
ObjectDBX Classes
 90
        0
280
     0
281
     0
  0
ENDSEC
  0
SECTION
  2
TABLES
  0
TABLE
  2
VPORT
  5
8
330
0
100
AcDbSymbolTable
 70
     1
  0
VPORT
  5
29
330
8
100
AcDbSymbolTableRecord
100
AcDbViewportTableRecord
  2
*Active
 70
     0
 10
0.0
 20
0.0
 11
1.0
 21
1.0
 12
27.0091811834468
 22
-349.0990723242521
 13
0.0
 23
0.0
 14
0.5
 24
0.5
 15
0.5
 25
0.5
 16
0.0
 26
0.0
 36
1.0
 17
0.0
 27
0.0
 37
0.0
 40
1229.856455768276
 41
1.60267857142857
 42
50.0
 43
0.0
 44
0.0
 50
0.0
 51
0.0
 71
     0
 72
   100
 73
     1
 74
     3
 75
     0
 76
     0
 77
     0
 78
     0
281
     0
 65
     1
110
0.0
120
0.0
130
0.0
111
1.0
121
0.0
131
0.0
112
0.0
122
1.0
132
0.0
 79
     0
146
0.0
  0
ENDTAB
  0
TABLE
  2
LTYPE
  5
5
330
0
100
AcDbSymbolTable
 70
     9
  0
LTYPE
  5
14
330
5
100
AcDbSymbolTableRecord
100
AcDbLinetypeTableRecord
  2
ByBlock
 70
     0
  3

 72
    65
 73
     0
 40
0.0
  0
LTYPE
  5
15
330
5
100
AcDbSymbolTableRecord
100
AcDbLinetypeTableRecord
  2
ByLayer
 70
     0
  3

 72
    65
 73
     0
 40
0.0
  0
LTYPE
  5
16
330
5
100
AcDbSymbolTableRecord
100
AcDbLinetypeTableRecord
  2
Continuous
 70
     0
  3
Solid line
 72
    65
 73
     0
 40
0.0
  0
LTYPE
  5
3B
330
5
100
AcDbSymbolTableRecord
100
AcDbLinetypeTableRecord
  2
DASHED
 70
     0
  3
Dashed
 72
    65
 73
     2
 40
15.0
 49
7.0
 74
     0
 49
-8.0
 74
     0
  0
LTYPE
  5
3C
330
5
100
AcDbSymbolTableRecord
100
AcDbLinetypeTableRecord
  2
DOTTED
 70
     0
  3
Dotted
 72
    65
 73
     2
 40
1.0
 49
0.0
 74
     0
 49
-1.0
 74
     0
  0
LTYPE
  5
3D
330
5
100
AcDbSymbolTableRecord
100
AcDbLinetypeTableRecord
  2
DOT_CENTER
 70
     0
  3
Dot_Center
 72
    65
 73
     4
 40
14.0
 49
12.0
 74
     0
 49
-1.0
 74
     0
 49
0.0
 74
     0
 49
-1.0
 74
     0
  0
LTYPE
  5
3E
330
5
100
AcDbSymbolTableRecord
100
AcDbLinetypeTableRecord
  2
LONG_DASHED
 70
     0
  3
Long_Dashed
 72
    65
 73
     2
 40
15.0
 49
10.0
 74
     0
 49
-5.0
 74
     0
  0
LTYPE
  5
3F
330
5
100
AcDbSymbolTableRecord
100
AcDbLinetypeTableRecord
  2
DASH_CENTER
 70
     0
  3
Dash_Center
 72
    65
 73
     4
 40
14.0
 49
11.0
 74
     0
 49
-1.0
 74
     0
 49
1.0
 74
     0
 49
-1.0
 74
     0
  0
LTYPE
  5
40
330
5
100
AcDbSymbolTableRecord
100
AcDbLinetypeTableRecord
  2
PHANTOM
 70
     0
  3
Phantom
 72
    65
 73
     6
 40
13.0
 49
10.0
 74
     0
 49
-1.0
 74
     0
 49
0.0
 74
     0
 49
-1.0
 74
     0
 49
0.0
 74
     0
 49
-1.0
 74
     0
  0
LTYPE
  5
41
330
5
100
AcDbSymbolTableRecord
100
AcDbLinetypeTableRecord
  2
CENTER_DASH_DASH
 70
     0
  3
Center_Dash_Dash
 72
    65
 73
     6
 40
14.0
 49
9.0
 74
     0
 49
-1.0
 74
     0
 49
1.0
 74
     0
 49
-1.0
 74
     0
 49
1.0
 74
     0
 49
-1.0
 74
     0
  0
LTYPE
  5
42
330
5
100
AcDbSymbolTableRecord
100
AcDbLinetypeTableRecord
  2
DASHDOT
 70
     0
  3
DASHDOT
 72
    65
 73
     4
 40
16.0
 49
10.0
 74
     0
 49
-3.0
 74
     0
 49
0.0
 74
     0
 49
-3.0
 74
     0
  0
ENDTAB
  0
TABLE
  2
LAYER
  5
2
330
0
100
AcDbSymbolTable
 70
    11
  0
LAYER
  5
10
330
2
100
AcDbSymbolTableRecord
100
AcDbLayerTableRecord
  2
0
 70
     0
 62
     7
  6
Continuous
370
    -3
390
F
  0
LAYER
  5
43
330
2
100
AcDbSymbolTableRecord
100
AcDbLayerTableRecord
  2
1
 70
     0
 62
     7
  6
Continuous
370
    -3
390
F
  0
LAYER
  5
44
330
2
100
AcDbSymbolTableRecord
100
AcDbLayerTableRecord
  2
LC-001-002-----0
 70
     0
 62
     7
  6
Continuous
370
    -3
390
F
  0
LAYER
  5
45
330
2
100
AcDbSymbolTableRecord
100
AcDbLayerTableRecord
  2
LC-001-003-----0
 70
     0
 62
     7
  6
Continuous
370
    -3
390
F
  0
LAYER
  5
46
330
2
100
AcDbSymbolTableRecord
100
AcDbLayerTableRecord
  2
LC-002-002-RND-0
 70
     0
 62
     7
  6
Continuous
370
    -3
390
F
  0
LAYER
  5
47
330
2
100
AcDbSymbolTableRecord
100
AcDbLayerTableRecord
  2
LC-004-002-RND-0
 70
     0
 62
     7
  6
Continuous
370
    -3
390
F
  0
LAYER
  5
48
330
2
100
AcDbSymbolTableRecord
100
AcDbLayerTableRecord
  2
LC-005-002-----0
 70
     0
 62
     7
  6
Continuous
370
    -3
390
F
  0
LAYER
  5
49
330
2
100
AcDbSymbolTableRecord
100
AcDbLayerTableRecord
  2
LC-006-002-----0
 70
     0
 62
     7
  6
Continuous
370
    -3
390
F
  0
LAYER
  5
4A
330
2
100
AcDbSymbolTableRecord
100
AcDbLayerTableRecord
  2
LC-007-007-KH--0
 70
     0
 62
     7
  6
Continuous
370
    -3
390
F
  0
LAYER
  5
4B
330
2
100
AcDbSymbolTableRecord
100
AcDbLayerTableRecord
  2
LC-010-006-MLN-0
 70
     0
 62
     7
  6
Continuous
370
    -3
390
F
  0
LAYER
  5
4C
330
2
100
AcDbSymbolTableRecord
100
AcDbLayerTableRecord
  2
LC-013-200-----0
 70
     0
 62
     7
  6
Continuous
370
    -3
390
F
  0
ENDTAB
  0
TABLE
  2
STYLE
  5
3
330
0
100
AcDbSymbolTable
 70
     2
  0
STYLE
  5
11
330
3
100
AcDbSymbolTableRecord
100
AcDbTextStyleTableRecord
  2
Standard
 70
     0
 40
0.0
 41
1.0
 50
0.0
 71
     0
 42
0.2
  3
txt
  4

  0
STYLE
  5
357
330
3
100
AcDbSymbolTableRecord
100
AcDbTextStyleTableRecord
  2
CONVERTER_11
 70
     0
 40
0.0
 41
0.9
 50
0.0
 71
     0
 42
0.2
  3
txt.shx
  4

  0
ENDTAB
  0
TABLE
  2
VIEW
  5
6
330
0
100
AcDbSymbolTable
 70
     0
  0
ENDTAB
  0
TABLE
  2
UCS
  5
7
330
0
100
AcDbSymbolTable
 70
     0
  0
ENDTAB
  0
TABLE
  2
APPID
  5
9
330
0
100
AcDbSymbolTable
 70
     1
  0
APPID
  5
12
330
9
100
AcDbSymbolTableRecord
100
AcDbRegAppTableRecord
  2
ACAD
 70
     0
  0
ENDTAB
  0
TABLE
  2
DIMSTYLE
  5
A
330
0
100
AcDbSymbolTable
 70
     9
100
AcDbDimStyleTable
  0
DIMSTYLE
105
27
330
A
100
AcDbSymbolTableRecord
100
AcDbDimStyleTableRecord
  2
Standard
 70
     0
340
11
  0
DIMSTYLE
105
35B
102
{ACAD_REACTORS
330
35C
102
}
330
A
100
AcDbSymbolTableRecord
100
AcDbDimStyleTableRecord
  2
ME10_DIM_10
 70
     0
  3
Ø<>
 41
12.0
 42
0.0
 44
2.0
 73
     0
 74
     0
 77
     1
 78
     8
140
12.0
147
2.0
172
     1
173
     1
176
     4
177
     4
178
     1
271
     2
340
357
  0
DIMSTYLE
105
366
102
{ACAD_REACTORS
330
367
102
}
330
A
100
AcDbSymbolTableRecord
100
AcDbDimStyleTableRecord
  2
ME10_DIM_11
 70
     0
  3
Ø<>
 41
12.0
 42
0.0
 44
2.0
 73
     0
 74
     0
 77
     1
 78
     8
140
12.0
147
2.0
172
     1
173
     1
176
     4
177
     4
178
     1
271
     2
340
357
  0
DIMSTYLE
105
371
102
{ACAD_REACTORS
330
372
102
}
330
A
100
AcDbSymbolTableRecord
100
AcDbDimStyleTableRecord
  2
ME10_DIM_12
 70
     0
  3
DN<>
 41
12.0
 42
0.0
 44
2.0
 73
     0
 74
     0
 77
     1
 78
     8
140
12.0
147
2.0
172
     1
173
     1
176
     4
177
     4
178
     1
271
     2
340
357
  0
DIMSTYLE
105
37C
102
{ACAD_REACTORS
330
37D
102
}
330
A
100
AcDbSymbolTableRecord
100
AcDbDimStyleTableRecord
  2
ME10_DIM_13
 70
     0
  3
(<>)
 41
12.0
 42
0.0
 44
2.0
 73
     0
 74
     0
 77
     1
 78
     8
140
12.0
147
2.0
172
     1
173
     1
176
     4
177
     4
178
     1
271
     2
340
357
  0
DIMSTYLE
105
387
102
{ACAD_REACTORS
330
388
102
}
330
A
100
AcDbSymbolTableRecord
100
AcDbDimStyleTableRecord
  2
ME10_DIM_14
 70
     0
 41
12.0
 42
0.0
 44
2.0
 73
     0
 74
     0
 77
     1
 78
     8
140
12.0
147
2.0
172
     1
173
     1
176
     4
177
     4
178
     1
271
     2
340
357
  0
DIMSTYLE
105
392
102
{ACAD_REACTORS
330
393
102
}
330
A
100
AcDbSymbolTableRecord
100
AcDbDimStyleTableRecord
  2
ME10_DIM_15
 70
     0
  3
284x<>
 41
12.0
 42
0.0
 44
2.0
 73
     0
 74
     0
 77
     1
 78
     8
140
12.0
147
2.0
172
     1
173
     1
176
     4
177
     4
178
     1
271
     2
340
357
  0
DIMSTYLE
105
39D
102
{ACAD_REACTORS
330
39E
102
}
330
A
100
AcDbSymbolTableRecord
100
AcDbDimStyleTableRecord
  2
ME10_DIM_16
 70
     0
  3
378x<>
 41
12.0
 42
0.0
 44
2.0
 73
     0
 74
     0
 77
     1
 78
     8
140
12.0
147
2.0
172
     1
173
     1
176
     4
177
     4
178
     1
271
     2
340
357
  0
DIMSTYLE
105
3A8
102
{ACAD_REACTORS
330
3A9
102
}
330
A
100
AcDbSymbolTableRecord
100
AcDbDimStyleTableRecord
  2
ME10_DIM_17
 70
     0
 41
12.0
 42
0.0
 44
2.0
 73
     0
 74
     0
 77
     1
 78
     8
140
12.0
147
2.0
172
     1
173
     1
176
     4
177
     4
178
     1
271
     2
340
357
  0
ENDTAB
  0
TABLE
  2
BLOCK_RECORD
  5
1
330
0
100
AcDbSymbolTable
 70
    15
  0
BLOCK_RECORD
  5
1F
330
1
100
AcDbSymbolTableRecord
100
AcDbBlockTableRecord
  2
*Model_Space
340
22
  0
BLOCK_RECORD
  5
1B
330
1
100
AcDbSymbolTableRecord
100
AcDbBlockTableRecord
  2
*Paper_Space
340
1E
  0
BLOCK_RECORD
  5
23
330
1
100
AcDbSymbolTableRecord
100
AcDbBlockTableRecord
  2
*Paper_Space0
340
26
  0
BLOCK_RECORD
  5
4D
330
1
100
AcDbSymbolTableRecord
100
AcDbBlockTableRecord
  2
Senkschraube_M_6x25_DIN_965
340
0
102
{BLKREFS
331
5F
102
}
  0
BLOCK_RECORD
  5
50
330
1
100
AcDbSymbolTableRecord
100
AcDbBlockTableRecord
  2
Bauschutz_062_9E
340
0
102
{BLKREFS
331
60
102
}
  0
BLOCK_RECORD
  5
53
330
1
100
AcDbSymbolTableRecord
100
AcDbBlockTableRecord
  2
PVC_Manschette
340
0
102
{BLKREFS
331
61
102
}
  0
BLOCK_RECORD
  5
56
330
1
100
AcDbSymbolTableRecord
100
AcDbBlockTableRecord
  2
060_1E_Laubfangkorb
340
0
102
{BLKREFS
331
62
102
}
  0
BLOCK_RECORD
  5
59
330
1
100
AcDbSymbolTableRecord
100
AcDbBlockTableRecord
  2
Außenansicht
340
0
102
{BLKREFS
331
63
102
}
  0
BLOCK_RECORD
  5
5C
330
1
100
AcDbSymbolTableRecord
100
AcDbBlockTableRecord
  2
Körper
340
0
102
{BLKREFS
331
64
102
}
  0
BLOCK_RECORD
  5
351
330
1
100
AcDbSymbolTableRecord
100
AcDbBlockTableRecord
  2
*D7
340
0
  0
BLOCK_RECORD
  5
35D
330
1
100
AcDbSymbolTableRecord
100
AcDbBlockTableRecord
  2
*D8
340
0
  0
BLOCK_RECORD
  5
368
330
1
100
AcDbSymbolTableRecord
100
AcDbBlockTableRecord
  2
*D9
340
0
  0
BLOCK_RECORD
  5
373
330
1
100
AcDbSymbolTableRecord
100
AcDbBlockTableRecord
  2
*D10
340
0
  0
BLOCK_RECORD
  5
37E
330
1
100
AcDbSymbolTableRecord
100
AcDbBlockTableRecord
  2
*D11
340
0
  0
BLOCK_RECORD
  5
389
330
1
100
AcDbSymbolTableRecord
100
AcDbBlockTableRecord
  2
*D12
340
0
  0
BLOCK_RECORD
  5
394
330
1
100
AcDbSymbolTableRecord
100
AcDbBlockTableRecord
  2
*D13
340
0
  0
BLOCK_RECORD
  5
39F
330
1
100
AcDbSymbolTableRecord
100
AcDbBlockTableRecord
  2
*D14
340
0
  0
ENDTAB
  0
ENDSEC
  0
SECTION
  2
BLOCKS
  0
BLOCK
  5
20
330
1F
100
AcDbEntity
  8
0
100
AcDbBlockBegin
  2
*Model_Space
 70
     0
 71
     0
 10
0.0
 20
0.0
 30
0.0
  3
*Model_Space
  1

  0
ENDBLK
  5
21
330
1F
100
AcDbEntity
  8
0
100
AcDbBlockEnd
  0
BLOCK
  5
1C
330
1B
100
AcDbEntity
 67
     1
  8
0
100
AcDbBlockBegin
  2
*Paper_Space
 70
     0
 71
     0
 10
0.0
 20
0.0
 30
0.0
  3
*Paper_Space
  1

  0
ENDBLK
  5
1D
330
1B
100
AcDbEntity
 67
     1
  8
0
100
AcDbBlockEnd
  0
BLOCK
  5
24
330
23
100
AcDbEntity
  8
0
100
AcDbBlockBegin
  2
*Paper_Space0
 70
     0
 71
     0
 10
0.0
 20
0.0
 30
0.0
  3
*Paper_Space0
  1

  0
ENDBLK
  5
25
330
23
100
AcDbEntity
  8
0
100
AcDbBlockEnd
  0
BLOCK
  5
4E
330
4D
100
AcDbEntity
  8
0
100
AcDbBlockBegin
  2
Senkschraube_M_6x25_DIN_965
 70
     0
 71
     0
 10
6.05062919496666
 20
-837.0285292033035
 30
0.0
  3
Senkschraube_M_6x25_DIN_965
  1

  0
LINE
  5
65
330
4D
100
AcDbEntity
  8
1
  6
PHANTOM
 62
     2
100
AcDbLine
 10
-86.64531406819788
 20
-760.7330921211865
 30
0.0
 11
-76.16640668240746
 21
-754.6830921211872
 31
0.0
  0
LINE
  5
66
330
4D
100
AcDbEntity
  8
1
  6
PHANTOM
 62
     2
100
AcDbLine
 10
-78.38086037529933
 20
-762.9475458140885
 30
0.0
 11
-84.43086037530225
 21
-752.4686384282917
 31
0.0
  0
LINE
  5
67
330
4D
100
AcDbEntity
  8
1
  6
Continuous
 62
     7
100
AcDbLine
 10
-84.35223785684309
 20
-758.7048166248807
 30
0.0
 11
-82.92129160011382
 21
-757.8786594183622
 31
0.0
  0
LINE
  5
68
330
4D
100
AcDbEntity
  8
1
  6
Continuous
 62
     7
100
AcDbLine
 10
-83.74223785684251
 20
-759.7613676174988
 30
0.0
 11
-84.35223785684309
 21
-758.7048166248807
 31
0.0
  0
LINE
  5
69
330
4D
100
AcDbEntity
  8
1
  6
Continuous
 62
     7
100
AcDbLine
 10
-82.31129160011324
 20
-758.9352104109803
 30
0.0
 11
-83.74223785684251
 21
-759.7613676174988
 31
0.0
  0
LINE
  5
6A
330
4D
100
AcDbEntity
  8
1
  6
Continuous
 62
     7
100
AcDbLine
 10
-80.40913587160844
 20
-760.6544696027354
 30
0.0
 11
-81.23529307813055
 21
-759.2235233459999
 31
0.0
  0
LINE
  5
6B
330
4D
100
AcDbEntity
  8
1
  6
Continuous
 62
     7
100
AcDbLine
 10
-79.35258487899034
 20
-760.0444696027348
 30
0.0
 11
-80.40913587160844
 21
-760.6544696027354
 31
0.0
  0
LINE
  5
6C
330
4D
100
AcDbEntity
  8
1
  6
Continuous
 62
     7
100
AcDbLine
 10
-80.17874208551245
 20
-758.6135233459993
 30
0.0
 11
-79.35258487899034
 21
-760.0444696027348
 31
0.0
  0
LINE
  5
6D
330
4D
100
AcDbEntity
  8
1
  6
Continuous
 62
     7
100
AcDbLine
 10
-78.4594828937586
 20
-756.7113676174995
 30
0.0
 11
-79.89042915048776
 21
-757.537524824018
 31
0.0
  0
LINE
  5
6E
330
4D
100
AcDbEntity
  8
1
  6
Continuous
 62
     7
100
AcDbLine
 10
-79.06948289375919
 20
-755.6548166248814
 30
0.0
 11
-78.4594828937586
 21
-756.7113676174995
 31
0.0
  0
LINE
  5
6F
330
4D
100
AcDbEntity
  8
1
  6
Continuous
 62
     7
100
AcDbLine
 10
-80.50042915048834
 20
-756.4809738313999
 30
0.0
 11
-79.06948289375919
 21
-755.6548166248814
 31
0.0
  0
LINE
  5
70
330
4D
100
AcDbEntity
  8
1
  6
Continuous
 62
     7
100
AcDbLine
 10
-82.63297866509106
 20
-756.8026608963776
 30
0.0
 11
-83.45913587161135
 21
-755.3717146396452
 31
0.0
  0
LINE
  5
71
330
4D
100
AcDbEntity
  8
1
  6
Continuous
 62
     7
100
AcDbLine
 10
-83.45913587161135
 20
-755.3717146396452
 30
0.0
 11
-82.40258487899325
 21
-754.7617146396447
 31
0.0
  0
LINE
  5
72
330
4D
100
AcDbEntity
  8
1
  6
Continuous
 62
     7
100
AcDbLine
 10
-82.40258487899325
 20
-754.7617146396447
 30
0.0
 11
-81.57642767247296
 21
-756.192660896377
 31
0.0
  0
LINE
  5
73
330
4D
100
AcDbEntity
  8
1
  6
PHANTOM
 62
     2
100
AcDbLine
 10
-86.64551729724792
 20
-660.6830921211872
 30
0.0
 11
-76.1666099114575
 21
-666.7330921211865
 31
0.0
  0
LINE
  5
74
330
4D
100
AcDbEntity
  8
1
  6
PHANTOM
 62
     2
100
AcDbLine
 10
-84.43106360435604
 20
-668.9475458140885
 30
0.0
 11
-78.38106360435313
 21
-658.4686384282917
 31
0.0
  0
LINE
  5
75
330
4D
100
AcDbEntity
  8
1
  6
Continuous
 62
     7
100
AcDbLine
 10
-83.74244108589619
 20
-661.6548166248814
 30
0.0
 11
-82.31149482916703
 21
-662.4809738313999
 31
0.0
  0
LINE
  5
76
330
4D
100
AcDbEntity
  8
1
  6
Continuous
 62
     7
100
AcDbLine
 10
-84.35244108589677
 20
-662.7113676174995
 30
0.0
 11
-83.74244108589619
 21
-661.6548166248814
 31
0.0
  0
LINE
  5
77
330
4D
100
AcDbEntity
  8
1
  6
Continuous
 62
     7
100
AcDbLine
 10
-82.92149482916761
 20
-663.537524824018
 30
0.0
 11
-84.35244108589677
 21
-662.7113676174995
 31
0.0
  0
LINE
  5
78
330
4D
100
AcDbEntity
  8
1
  6
Continuous
 62
     7
100
AcDbLine
 10
-83.45933910066503
 20
-666.0444696027348
 30
0.0
 11
-82.63318189414292
 21
-664.6135233459993
 31
0.0
  0
LINE
  5
79
330
4D
100
AcDbEntity
  8
1
  6
Continuous
 62
     7
100
AcDbLine
 10
-82.40278810804705
 20
-666.6544696027354
 30
0.0
 11
-83.45933910066503
 21
-666.0444696027348
 31
0.0
  0
LINE
  5
7A
330
4D
100
AcDbEntity
  8
1
  6
Continuous
 62
     7
100
AcDbLine
 10
-81.57663090152494
 20
-665.2235233459999
 30
0.0
 11
-82.40278810804705
 21
-666.6544696027354
 31
0.0
  0
LINE
  5
7B
330
4D
100
AcDbEntity
  8
1
  6
Continuous
 62
     7
100
AcDbLine
 10
-79.06968612281298
 20
-665.7613676174988
 30
0.0
 11
-80.50063237954214
 21
-664.9352104109803
 31
0.0
  0
LINE
  5
7C
330
4D
100
AcDbEntity
  8
1
  6
Continuous
 62
     7
100
AcDbLine
 10
-78.4596861228124
 20
-664.7048166248807
 30
0.0
 11
-79.06968612281298
 21
-665.7613676174988
 31
0.0
  0
LINE
  5
7D
330
4D
100
AcDbEntity
  8
1
  6
Continuous
 62
     7
100
AcDbLine
 10
-79.89063237954156
 20
-663.8786594183622
 30
0.0
 11
-78.4596861228124
 21
-664.7048166248807
 31
0.0
  0
LINE
  5
7E
330
4D
100
AcDbEntity
  8
1
  6
Continuous
 62
     7
100
AcDbLine
 10
-81.23549630718242
 20
-662.192660896377
 30
0.0
 11
-80.40933910066212
 21
-660.7617146396447
 31
0.0
  0
LINE
  5
7F
330
4D
100
AcDbEntity
  8
1
  6
Continuous
 62
     7
100
AcDbLine
 10
-80.40933910066212
 20
-660.7617146396447
 30
0.0
 11
-79.35278810804414
 21
-661.3717146396452
 31
0.0
  0
LINE
  5
80
330
4D
100
AcDbEntity
  8
1
  6
Continuous
 62
     7
100
AcDbLine
 10
-79.35278810804414
 20
-661.3717146396452
 30
0.0
 11
-80.17894531456443
 21
-662.8026608963776
 31
0.0
  0
LINE
  5
81
330
4D
100
AcDbEntity
  8
1
  6
PHANTOM
 62
     2
100
AcDbLine
 10
0.00022273685926
 20
-610.6579161196672
 30
0.0
 11
0.00022273685925
 21
-622.7579161196658
 31
0.0
  0
LINE
  5
82
330
4D
100
AcDbEntity
  8
1
  6
PHANTOM
 62
     2
100
AcDbLine
 10
-6.04977726314729
 20
-616.7079161196665
 30
0.0
 11
6.05022273685853
 21
-616.7079161196665
 31
0.0
  0
LINE
  5
83
330
4D
100
AcDbEntity
  8
1
  6
Continuous
 62
     7
100
AcDbLine
 10
0.6102227368562
 20
-613.6579161196672
 30
0.0
 11
0.6102227368562
 21
-615.3102305327042
 31
0.0
  0
LINE
  5
84
330
4D
100
AcDbEntity
  8
1
  6
Continuous
 62
     7
100
AcDbLine
 10
-0.60977726314496
 20
-613.6579161196672
 30
0.0
 11
0.6102227368562
 21
-613.6579161196672
 31
0.0
  0
LINE
  5
85
330
4D
100
AcDbEntity
  8
1
  6
Continuous
 62
     7
100
AcDbLine
 10
-0.60977726314496
 20
-615.3102305327042
 30
0.0
 11
-0.60977726314496
 21
-613.6579161196672
 31
0.0
  0
LINE
  5
86
330
4D
100
AcDbEntity
  8
1
  6
Continuous
 62
     7
100
AcDbLine
 10
-3.04977726314729
 20
-616.0979161196659
 30
0.0
 11
-1.39746285010307
 21
-616.0979161196659
 31
0.0
  0
LINE
  5
87
330
4D
100
AcDbEntity
  8
1
  6
Continuous
 62
     7
100
AcDbLine
 10
-3.04977726314729
 20
-617.3179161196671
 30
0.0
 11
-3.04977726314729
 21
-616.0979161196659
 31
0.0
  0
LINE
  5
88
330
4D
100
AcDbEntity
  8
1
  6
Continuous
 62
     7
100
AcDbLine
 10
-1.39746285010307
 20
-617.3179161196671
 30
0.0
 11
-3.04977726314729
 21
-617.3179161196671
 31
0.0
  0
LINE
  5
89
330
4D
100
AcDbEntity
  8
1
  6
Continuous
 62
     7
100
AcDbLine
 10
-0.60977726314496
 20
-619.7579161196658
 30
0.0
 11
-0.60977726314496
 21
-618.1056017066288
 31
0.0
  0
LINE
  5
8A
330
4D
100
AcDbEntity
  8
1
  6
Continuous
 62
     7
100
AcDbLine
 10
0.6102227368562
 20
-619.7579161196658
 30
0.0
 11
-0.60977726314496
 21
-619.7579161196658
 31
0.0
  0
LINE
  5
8B
330
4D
100
AcDbEntity
  8
1
  6
Continuous
 62
     7
100
AcDbLine
 10
0.6102227368562
 20
-618.1056017066288
 30
0.0
 11
0.6102227368562
 21
-619.7579161196658
 31
0.0
  0
LINE
  5
8C
330
4D
100
AcDbEntity
  8
1
  6
Continuous
 62
     7
100
AcDbLine
 10
1.39790832381794
 20
-616.0979161196659
 30
0.0
 11
3.05022273685853
 21
-616.0979161196659
 31
0.0
  0
LINE
  5
8D
330
4D
100
AcDbEntity
  8
1
  6
Continuous
 62
     7
100
AcDbLine
 10
3.05022273685853
 20
-616.0979161196659
 30
0.0
 11
3.05022273685853
 21
-617.3179161196671
 31
0.0
  0
LINE
  5
8E
330
4D
100
AcDbEntity
  8
1
  6
Continuous
 62
     7
100
AcDbLine
 10
3.05022273685853
 20
-617.3179161196671
 30
0.0
 11
1.39790832381794
 21
-617.3179161196671
 31
0.0
  0
LINE
  5
8F
330
4D
100
AcDbEntity
  8
1
  6
PHANTOM
 62
     2
100
AcDbLine
 10
86.64616600001693
 20
-660.6827401181464
 30
0.0
 11
76.16725861422651
 21
-666.7327401181457
 31
0.0
  0
LINE
  5
90
330
4D
100
AcDbEntity
  8
1
  6
PHANTOM
 62
     2
100
AcDbLine
 10
78.3817123071185
 20
-658.4682864252445
 30
0.0
 11
84.43171230712142
 21
-668.9471938110412
 31
0.0
  0
LINE
  5
91
330
4D
100
AcDbEntity
  8
1
  6
Continuous
 62
     7
100
AcDbLine
 10
84.35308978866215
 20
-662.7110156144522
 30
0.0
 11
82.92214353193299
 21
-663.5371728209707
 31
0.0
  0
LINE
  5
92
330
4D
100
AcDbEntity
  8
1
  6
Continuous
 62
     7
100
AcDbLine
 10
83.74308978866156
 20
-661.6544646218342
 30
0.0
 11
84.35308978866215
 21
-662.7110156144522
 31
0.0
  0
LINE
  5
93
330
4D
100
AcDbEntity
  8
1
  6
Continuous
 62
     7
100
AcDbLine
 10
82.3121435319324
 20
-662.4806218283527
 30
0.0
 11
83.74308978866156
 21
-661.6544646218342
 31
0.0
  0
LINE
  5
94
330
4D
100
AcDbEntity
  8
1
  6
Continuous
 62
     7
100
AcDbLine
 10
80.4099878034275
 20
-660.7613626365976
 30
0.0
 11
81.23614500994961
 21
-662.192308893333
 31
0.0
  0
LINE
  5
95
330
4D
100
AcDbEntity
  8
1
  6
Continuous
 62
     7
100
AcDbLine
 10
79.35343681080951
 20
-661.3713626365982
 30
0.0
 11
80.4099878034275
 21
-660.7613626365976
 31
0.0
  0
LINE
  5
96
330
4D
100
AcDbEntity
  8
1
  6
Continuous
 62
     7
100
AcDbLine
 10
80.17959401733162
 20
-662.8023088933336
 30
0.0
 11
79.35343681080951
 21
-661.3713626365982
 31
0.0
  0
LINE
  5
97
330
4D
100
AcDbEntity
  8
1
  6
Continuous
 62
     7
100
AcDbLine
 10
78.46033482557777
 20
-664.7044646218335
 30
0.0
 11
79.89128108230693
 21
-663.878307415315
 31
0.0
  0
LINE
  5
98
330
4D
100
AcDbEntity
  8
1
  6
Continuous
 62
     7
100
AcDbLine
 10
79.07033482557836
 20
-665.7610156144515
 30
0.0
 11
78.46033482557777
 21
-664.7044646218335
 31
0.0
  0
LINE
  5
99
330
4D
100
AcDbEntity
  8
1
  6
Continuous
 62
     7
100
AcDbLine
 10
80.50128108230751
 20
-664.934858407933
 30
0.0
 11
79.07033482557836
 21
-665.7610156144515
 31
0.0
  0
LINE
  5
9A
330
4D
100
AcDbEntity
  8
1
  6
Continuous
 62
     7
100
AcDbLine
 10
82.63383059691012
 20
-664.6131713429553
 30
0.0
 11
83.45998780343041
 21
-666.0441175996876
 31
0.0
  0
LINE
  5
9B
330
4D
100
AcDbEntity
  8
1
  6
Continuous
 62
     7
100
AcDbLine
 10
83.45998780343041
 20
-666.0441175996876
 30
0.0
 11
82.40343681081242
 21
-666.6541175996882
 31
0.0
  0
LINE
  5
9C
330
4D
100
AcDbEntity
  8
1
  6
Continuous
 62
     7
100
AcDbLine
 10
82.40343681081242
 20
-666.6541175996882
 30
0.0
 11
81.57727960429213
 21
-665.2231713429559
 31
0.0
  0
LINE
  5
9D
330
4D
100
AcDbEntity
  8
1
  6
PHANTOM
 62
     2
100
AcDbLine
 10
86.64636922906732
 20
-760.7327401181458
 30
0.0
 11
76.1674618432769
 21
-754.6827401181465
 31
0.0
  0
LINE
  5
9E
330
4D
100
AcDbEntity
  8
1
  6
PHANTOM
 62
     2
100
AcDbLine
 10
84.43191553617532
 20
-752.4682864252446
 30
0.0
 11
78.38191553617241
 21
-762.9471938110414
 31
0.0
  0
LINE
  5
9F
330
4D
100
AcDbEntity
  8
1
  6
Continuous
 62
     7
100
AcDbLine
 10
83.74329301771547
 20
-759.7610156144517
 30
0.0
 11
82.31234676098632
 21
-758.9348584079332
 31
0.0
  0
LINE
  5
A0
330
4D
100
AcDbEntity
  8
1
  6
Continuous
 62
     7
100
AcDbLine
 10
84.35329301771606
 20
-758.7044646218336
 30
0.0
 11
83.74329301771547
 21
-759.7610156144517
 31
0.0
  0
LINE
  5
A1
330
4D
100
AcDbEntity
  8
1
  6
Continuous
 62
     7
100
AcDbLine
 10
82.9223467609869
 20
-757.8783074153151
 30
0.0
 11
84.35329301771606
 21
-758.7044646218336
 31
0.0
  0
LINE
  5
A2
330
4D
100
AcDbEntity
  8
1
  6
Continuous
 62
     7
100
AcDbLine
 10
83.46019103248432
 20
-755.3713626365982
 30
0.0
 11
82.6340338259622
 21
-756.8023088933337
 31
0.0
  0
LINE
  5
A3
330
4D
100
AcDbEntity
  8
1
  6
Continuous
 62
     7
100
AcDbLine
 10
82.40364003986633
 20
-754.7613626365976
 30
0.0
 11
83.46019103248432
 21
-755.3713626365982
 31
0.0
  0
LINE
  5
A4
330
4D
100
AcDbEntity
  8
1
  6
Continuous
 62
     7
100
AcDbLine
 10
81.57748283334422
 20
-756.1923088933331
 30
0.0
 11
82.40364003986633
 21
-754.7613626365976
 31
0.0
  0
LINE
  5
A5
330
4D
100
AcDbEntity
  8
1
  6
Continuous
 62
     7
100
AcDbLine
 10
79.07053805463227
 20
-755.6544646218343
 30
0.0
 11
80.50148431136142
 21
-756.4806218283528
 31
0.0
  0
LINE
  5
A6
330
4D
100
AcDbEntity
  8
1
  6
Continuous
 62
     7
100
AcDbLine
 10
78.46053805463168
 20
-756.7110156144524
 30
0.0
 11
79.07053805463227
 21
-755.6544646218343
 31
0.0
  0
LINE
  5
A7
330
4D
100
AcDbEntity
  8
1
  6
Continuous
 62
     7
100
AcDbLine
 10
79.89148431136084
 20
-757.5371728209709
 30
0.0
 11
78.46053805463168
 21
-756.7110156144524
 31
0.0
  0
LINE
  5
A8
330
4D
100
AcDbEntity
  8
1
  6
Continuous
 62
     7
100
AcDbLine
 10
81.2363482390017
 20
-759.223171342956
 30
0.0
 11
80.4101910324814
 21
-760.6541175996883
 31
0.0
  0
LINE
  5
A9
330
4D
100
AcDbEntity
  8
1
  6
Continuous
 62
     7
100
AcDbLine
 10
80.4101910324814
 20
-760.6541175996883
 30
0.0
 11
79.35364003986342
 21
-760.0441175996878
 31
0.0
  0
LINE
  5
AA
330
4D
100
AcDbEntity
  8
1
  6
Continuous
 62
     7
100
AcDbLine
 10
79.35364003986342
 20
-760.0441175996878
 30
0.0
 11
80.17979724638371
 21
-758.6131713429554
 31
0.0
  0
LINE
  5
AB
330
4D
100
AcDbEntity
  8
1
  6
Continuous
 62
     7
100
AcDbLine
 10
-3.04937080503916
 20
-804.0979161196659
 30
0.0
 11
-1.39705639199858
 21
-804.0979161196659
 31
0.0
  0
LINE
  5
AC
330
4D
100
AcDbEntity
  8
1
  6
Continuous
 62
     7
100
AcDbLine
 10
-3.04937080503916
 20
-805.3179161196671
 30
0.0
 11
-3.04937080503916
 21
-804.0979161196659
 31
0.0
  0
LINE
  5
AD
330
4D
100
AcDbEntity
  8
1
  6
Continuous
 62
     7
100
AcDbLine
 10
-1.39705639199858
 20
-805.3179161196671
 30
0.0
 11
-3.04937080503916
 21
-805.3179161196671
 31
0.0
  0
LINE
  5
AE
330
4D
100
AcDbEntity
  8
1
  6
Continuous
 62
     7
100
AcDbLine
 10
-0.60937080503683
 20
-803.3102305327042
 30
0.0
 11
-0.60937080503683
 21
-801.6579161196672
 31
0.0
  0
LINE
  5
AF
330
4D
100
AcDbEntity
  8
1
  6
Continuous
 62
     7
100
AcDbLine
 10
-0.60937080503683
 20
-801.6579161196672
 30
0.0
 11
0.61062919496433
 21
-801.6579161196672
 31
0.0
  0
LINE
  5
B0
330
4D
100
AcDbEntity
  8
1
  6
Continuous
 62
     7
100
AcDbLine
 10
0.61062919496433
 20
-801.6579161196672
 30
0.0
 11
0.61062919496433
 21
-803.3102305327042
 31
0.0
  0
LINE
  5
B1
330
4D
100
AcDbEntity
  8
1
  6
Continuous
 62
     7
100
AcDbLine
 10
1.39831478192244
 20
-804.0979161196659
 30
0.0
 11
3.05062919496666
 21
-804.0979161196659
 31
0.0
  0
LINE
  5
B2
330
4D
100
AcDbEntity
  8
1
  6
Continuous
 62
     7
100
AcDbLine
 10
3.05062919496666
 20
-804.0979161196659
 30
0.0
 11
3.05062919496666
 21
-805.3179161196671
 31
0.0
  0
LINE
  5
B3
330
4D
100
AcDbEntity
  8
1
  6
Continuous
 62
     7
100
AcDbLine
 10
3.05062919496666
 20
-805.3179161196671
 30
0.0
 11
1.39831478192244
 21
-805.3179161196671
 31
0.0
  0
LINE
  5
B4
330
4D
100
AcDbEntity
  8
1
  6
Continuous
 62
     7
100
AcDbLine
 10
0.61062919496433
 20
-806.1056017066288
 30
0.0
 11
0.61062919496433
 21
-807.7579161196658
 31
0.0
  0
LINE
  5
B5
330
4D
100
AcDbEntity
  8
1
  6
Continuous
 62
     7
100
AcDbLine
 10
0.61062919496433
 20
-807.7579161196658
 30
0.0
 11
-0.60937080503683
 21
-807.7579161196658
 31
0.0
  0
LINE
  5
B6
330
4D
100
AcDbEntity
  8
1
  6
Continuous
 62
     7
100
AcDbLine
 10
-0.60937080503683
 20
-807.7579161196658
 30
0.0
 11
-0.60937080503683
 21
-806.1056017066288
 31
0.0
  0
LINE
  5
B7
330
4D
100
AcDbEntity
  8
1
  6
PHANTOM
 62
     2
100
AcDbLine
 10
6.05062919496666
 20
-804.7079161196665
 30
0.0
 11
-6.04937080503916
 21
-804.7079161196665
 31
0.0
  0
LINE
  5
B8
330
4D
100
AcDbEntity
  8
1
  6
PHANTOM
 62
     2
100
AcDbLine
 10
0.00062919496011
 20
-810.7579161196658
 30
0.0
 11
0.00062919496011
 21
-798.6579161196672
 31
0.0
  0
CIRCLE
  5
B9
330
4D
100
AcDbEntity
  8
1
  6
Continuous
 62
     7
100
AcDbCircle
 10
-81.40586037530261
 20
-757.7080921211868
 30
0.0
 40
1.524999999997797
  0
CIRCLE
  5
BA
330
4D
100
AcDbEntity
  8
1
  6
Continuous
 62
     7
100
AcDbCircle
 10
-81.40586037530261
 20
-757.7080921211868
 30
0.0
 40
5.499999999999959
  0
CIRCLE
  5
BB
330
4D
100
AcDbEntity
  8
1
  6
Continuous
 62
     7
100
AcDbCircle
 10
-81.40606360435277
 20
-663.7080921211868
 30
0.0
 40
1.524999999997797
  0
CIRCLE
  5
BC
330
4D
100
AcDbEntity
  8
1
  6
Continuous
 62
     7
100
AcDbCircle
 10
-81.40606360435277
 20
-663.7080921211868
 30
0.0
 40
5.499999999999959
  0
CIRCLE
  5
BD
330
4D
100
AcDbEntity
  8
1
  6
Continuous
 62
     7
100
AcDbCircle
 10
0.00022273685926
 20
-616.7079161196665
 30
0.0
 40
1.524999999997817
  0
CIRCLE
  5
BE
330
4D
100
AcDbEntity
  8
1
  6
Continuous
 62
     7
100
AcDbCircle
 10
0.00022273685926
 20
-616.7079161196665
 30
0.0
 40
5.5
  0
CIRCLE
  5
BF
330
4D
100
AcDbEntity
  8
1
  6
Continuous
 62
     7
100
AcDbCircle
 10
81.40671230712178
 20
-663.707740118146
 30
0.0
 40
1.524999999997797
  0
CIRCLE
  5
C0
330
4D
100
AcDbEntity
  8
1
  6
Continuous
 62
     7
100
AcDbCircle
 10
81.40671230712178
 20
-663.707740118146
 30
0.0
 40
5.499999999999959
  0
CIRCLE
  5
C1
330
4D
100
AcDbEntity
  8
1
  6
Continuous
 62
     7
100
AcDbCircle
 10
81.40691553617205
 20
-757.7077401181461
 30
0.0
 40
1.524999999997797
  0
CIRCLE
  5
C2
330
4D
100
AcDbEntity
  8
1
  6
Continuous
 62
     7
100
AcDbCircle
 10
81.40691553617205
 20
-757.7077401181461
 30
0.0
 40
5.500000000000058
  0
CIRCLE
  5
C3
330
4D
100
AcDbEntity
  8
1
  6
Continuous
 62
     7
100
AcDbCircle
 10
0.00062919496011
 20
-804.7079161196665
 30
0.0
 40
5.5
  0
CIRCLE
  5
C4
330
4D
100
AcDbEntity
  8
1
  6
Continuous
 62
     7
100
AcDbCircle
 10
0.00062919496011
 20
-804.7079161196665
 30
0.0
 40
1.524999999997817
  0
ENDBLK
  5
4F
330
4D
100
AcDbEntity
  8
0
100
AcDbBlockEnd
  0
BLOCK
  5
51
330
50
100
AcDbEntity
  8
0
100
AcDbBlockBegin
  2
Bauschutz_062_9E
 70
     0
 71
     0
 10
-646.596795999998
 20
-265.067673686026
 30
0.0
  3
Bauschutz_062_9E
  1

  0
LINE
  5
C5
330
50
100
AcDbEntity
  8
1
  6
Continuous
 62
     7
100
AcDbLine
 10
68.0
 20
205.990326313975
 30
0.0
 11
-68.0
 21
205.990326313975
 31
0.0
  0
LINE
  5
C6
330
50
100
AcDbEntity
  8
1
  6
Continuous
 62
     7
100
AcDbLine
 10
-78.75
 20
203.990326313975
 30
0.0
 11
78.75
 21
203.990326313975
 31
0.0
  0
LINE
  5
C7
330
50
100
AcDbEntity
  8
LC-006-002-----0
  6
Continuous
 62
     7
100
AcDbLine
 10
111.5
 20
205.990326313975
 30
0.0
 11
111.5
 21
203.990326313975
 31
0.0
  0
LINE
  5
C8
330
50
100
AcDbEntity
  8
LC-006-002-----0
  6
Continuous
 62
     7
100
AcDbLine
 10
111.5
 20
205.990326313975
 30
0.0
 11
68.0
 21
205.990326313975
 31
0.0
  0
LINE
  5
C9
330
50
100
AcDbEntity
  8
LC-006-002-----0
  6
Continuous
 62
     7
100
AcDbLine
 10
111.5
 20
203.990326313975
 30
0.0
 11
78.75
 21
203.990326313975
 31
0.0
  0
LINE
  5
CA
330
50
100
AcDbEntity
  8
LC-006-002-----0
  6
Continuous
 62
     7
100
AcDbLine
 10
78.75
 20
189.490326313975
 30
0.0
 11
0.0
 21
189.490326313975
 31
0.0
  0
LINE
  5
CB
330
50
100
AcDbEntity
  8
LC-006-002-----0
  6
Continuous
 62
     7
100
AcDbLine
 10
78.75
 20
189.490326313975
 30
0.0
 11
78.75
 21
203.990326313975
 31
0.0
  0
LINE
  5
CC
330
50
100
AcDbEntity
  8
LC-006-002-----0
  6
Continuous
 62
     7
100
AcDbLine
 10
-111.5
 20
205.990326313975
 30
0.0
 11
-111.5
 21
203.990326313975
 31
0.0
  0
LINE
  5
CD
330
50
100
AcDbEntity
  8
LC-006-002-----0
  6
Continuous
 62
     7
100
AcDbLine
 10
-111.5
 20
205.990326313975
 30
0.0
 11
-68.0
 21
205.990326313975
 31
0.0
  0
LINE
  5
CE
330
50
100
AcDbEntity
  8
LC-006-002-----0
  6
Continuous
 62
     7
100
AcDbLine
 10
-111.5
 20
203.990326313975
 30
0.0
 11
-78.75
 21
203.990326313975
 31
0.0
  0
LINE
  5
CF
330
50
100
AcDbEntity
  8
LC-006-002-----0
  6
Continuous
 62
     7
100
AcDbLine
 10
-78.75
 20
189.490326313975
 30
0.0
 11
0.0
 21
189.490326313975
 31
0.0
  0
LINE
  5
D0
330
50
100
AcDbEntity
  8
LC-006-002-----0
  6
Continuous
 62
     7
100
AcDbLine
 10
-78.75
 20
189.490326313975
 30
0.0
 11
-78.75
 21
203.990326313975
 31
0.0
  0
LINE
  5
D1
330
50
100
AcDbEntity
  8
LC-006-002-----0
  6
Continuous
 62
     7
100
AcDbLine
 10
68.0
 20
205.990326313975
 30
0.0
 11
66.25
 21
207.990326313975
 31
0.0
  0
LINE
  5
D2
330
50
100
AcDbEntity
  8
LC-006-002-----0
  6
Continuous
 62
     7
100
AcDbLine
 10
-68.0
 20
205.990326313975
 30
0.0
 11
-66.25
 21
207.990326313975
 31
0.0
  0
LINE
  5
D3
330
50
100
AcDbEntity
  8
1
  6
Continuous
 62
     7
100
AcDbLine
 10
-66.25
 20
207.990326313975
 30
0.0
 11
0.0
 21
207.990326313975
 31
0.0
  0
LINE
  5
D4
330
50
100
AcDbEntity
  8
1
  6
Continuous
 62
     7
100
AcDbLine
 10
66.25
 20
207.990326313975
 30
0.0
 11
0.0
 21
207.990326313975
 31
0.0
  0
LINE
  5
D5
330
50
100
AcDbEntity
  8
1
  6
PHANTOM
 62
     2
100
AcDbLine
 10
0.0
 20
186.6329919007039
 30
0.0
 11
0.0
 21
209.9265893886004
 31
0.0
  0
ENDBLK
  5
52
330
50
100
AcDbEntity
  8
0
100
AcDbBlockEnd
  0
BLOCK
  5
54
330
53
100
AcDbEntity
  8
0
100
AcDbBlockBegin
  2
PVC_Manschette
 70
     0
 71
     0
 10
-1177.000000000001
 20
-77.67209328386544
 30
0.0
  3
PVC_Manschette
  1

  0
LINE
  5
D6
330
53
100
AcDbEntity
  8
1
  6
Continuous
 62
     7
100
AcDbLine
 10
174.9999999999986
 20
-0.00000000000001
 30
0.0
 11
-0.00000000000142
 21
0.0
 31
0.0
  0
LINE
  5
D7
330
53
100
AcDbEntity
  8
1
  6
Continuous
 62
     7
100
AcDbLine
 10
176.9999999999986
 20
-2.00000000000001
 30
0.0
 11
176.9999999999986
 21
-2.5
 31
0.0
  0
LINE
  5
D8
330
53
100
AcDbEntity
  8
1
  6
Continuous
 62
     7
100
AcDbLine
 10
-0.00000000000142
 20
-2.5
 30
0.0
 11
176.9999999999986
 21
-2.5
 31
0.0
  0
LINE
  5
D9
330
53
100
AcDbEntity
  8
1
  6
Continuous
 62
     7
100
AcDbLine
 10
-177.0000000000013
 20
-2.5
 30
0.0
 11
-0.00000000000142
 21
-2.5
 31
0.0
  0
LINE
  5
DA
330
53
100
AcDbEntity
  8
1
  6
Continuous
 62
     7
100
AcDbLine
 10
-177.0000000000013
 20
-2.5
 30
0.0
 11
-177.0000000000013
 21
-2.00000000000001
 31
0.0
  0
LINE
  5
DB
330
53
100
AcDbEntity
  8
1
  6
Continuous
 62
     7
100
AcDbLine
 10
-0.00000000000142
 20
0.0
 30
0.0
 11
-175.0000000000013
 21
-0.00000000000001
 31
0.0
  0
ARC
  5
DC
330
53
100
AcDbEntity
  8
1
  6
Continuous
 62
     7
100
AcDbCircle
 10
174.9999999999986
 20
-2.00000000000001
 30
0.0
 40
2.0
100
AcDbArc
 50
0.0
 51
90.0
  0
ARC
  5
DD
330
53
100
AcDbEntity
  8
1
  6
Continuous
 62
     7
100
AcDbCircle
 10
-175.0000000000013
 20
-2.00000000000001
 30
0.0
 40
2.0
100
AcDbArc
 50
90.0
 51
180.0
  0
ENDBLK
  5
55
330
53
100
AcDbEntity
  8
0
100
AcDbBlockEnd
  0
BLOCK
  5
57
330
56
100
AcDbEntity
  8
0
100
AcDbBlockBegin
  2
060_1E_Laubfangkorb
 70
     0
 71
     0
 10
17.77195867930509
 20
-743.2796355232712
 30
0.0
  3
060_1E_Laubfangkorb
  1

  0
LINE
  5
DE
330
56
100
AcDbEntity
  8
1
  6
PHANTOM
 62
     2
100
AcDbLine
 10
-0.00000000000273
 20
-39.36322111758071
 30
0.0
 11
-0.00016028714071
 21
77.34181633069069
 31
0.0
  0
LINE
  5
DF
330
56
100
AcDbEntity
  8
LC-001-002-----0
  6
Continuous
 62
     7
100
AcDbLine
 10
-3.30546762249923
 20
58.1997475885202
 30
0.0
 11
-3.30546762249923
 21
72.99974758851945
 31
0.0
  0
LINE
  5
E0
330
56
100
AcDbEntity
  8
LC-001-002-----0
  6
Continuous
 62
     7
100
AcDbLine
 10
3.30519937750159
 20
58.19975658851961
 30
0.0
 11
3.3051593775026
 21
72.99975658852252
 31
0.0
  0
LINE
  5
E1
330
56
100
AcDbEntity
  8
LC-001-002-----0
  6
Continuous
 62
     7
100
AcDbLine
 10
-85.52127507241238
 20
0.00079678909032
 30
0.0
 11
-62.54412862249861
 21
63.12998858852203
 31
0.0
  0
LINE
  5
E2
330
56
100
AcDbEntity
  8
LC-001-002-----0
  6
Continuous
 62
     7
100
AcDbLine
 10
85.52125244724002
 20
0.00079678909032
 30
0.0
 11
62.5438473775002
 21
63.13015958852171
 31
0.0
  0
LINE
  5
E3
330
56
100
AcDbEntity
  8
LC-001-002-----0
  6
Continuous
 62
     7
100
AcDbLine
 10
-48.44875962249986
 20
72.9996855885203
 30
0.0
 11
47.56149637750148
 21
72.99981758852132
 31
0.0
  0
LINE
  5
E4
330
56
100
AcDbEntity
  8
LC-001-002-----0
  6
Continuous
 62
     7
100
AcDbLine
 10
69.77140537234649
 20
0.00079678909032
 30
0.0
 11
43.20171037750059
 21
72.9998115885193
 31
0.0
  0
LINE
  5
E5
330
56
100
AcDbEntity
  8
LC-001-002-----0
  6
Continuous
 62
     7
100
AcDbLine
 10
42.48672437750155
 20
68.9146775885221
 30
0.0
 11
40.9998453775015
 21
72.99980858852192
 31
0.0
  0
LINE
  5
E6
330
56
100
AcDbEntity
  8
LC-001-002-----0
  6
Continuous
 62
     7
100
AcDbLine
 10
44.83959037750262
 20
68.49981058852259
 30
0.0
 11
42.48672437750155
 21
68.9146775885221
 31
0.0
  0
LINE
  5
E7
330
56
100
AcDbEntity
  8
LC-001-002-----0
  6
Continuous
 62
     7
100
AcDbLine
 10
-69.77144418492273
 20
0.00079678909032
 30
0.0
 11
-43.20201862250085
 21
72.99969358851936
 31
0.0
  0
LINE
  5
E8
330
56
100
AcDbEntity
  8
LC-001-002-----0
  6
Continuous
 62
     7
100
AcDbLine
 10
-42.48702162249808
 20
68.9145605885225
 30
0.0
 11
-41.00015462249846
 21
72.99969658852038
 31
0.0
  0
LINE
  5
E9
330
56
100
AcDbEntity
  8
LC-001-002-----0
  6
Continuous
 62
     7
100
AcDbLine
 10
-44.83988662249884
 20
68.49968758852097
 30
0.0
 11
-42.48702162249808
 21
68.9145605885225
 31
0.0
  0
LINE
  5
EA
330
56
100
AcDbEntity
  8
LC-001-002-----0
  6
Continuous
 62
     7
100
AcDbLine
 10
56.19554737750239
 20
37.29984158852147
 30
0.0
 11
56.19555937749916
 21
32.93674058852247
 31
0.0
  0
LINE
  5
EB
330
56
100
AcDbEntity
  8
LC-001-002-----0
  6
Continuous
 62
     7
100
AcDbLine
 10
57.99199037750165
 20
32.61998658852297
 30
0.0
 11
56.19555937749916
 21
32.93674058852247
 31
0.0
  0
LINE
  5
EC
330
56
100
AcDbEntity
  8
LC-001-002-----0
  6
Continuous
 62
     7
100
AcDbLine
 10
1.15020937750251
 20
58.19975358852223
 30
0.0
 11
1.15020937750251
 21
37.29968758852027
 31
0.0
  0
LINE
  5
ED
330
56
100
AcDbEntity
  8
LC-001-002-----0
  6
Continuous
 62
     7
100
AcDbLine
 10
-1.1497906225004
 20
58.19975058852123
 30
0.0
 11
-1.1497906225004
 21
37.29968758852027
 31
0.0
  0
LINE
  5
EE
330
56
100
AcDbEntity
  8
LC-001-002-----0
  6
Continuous
 62
     7
100
AcDbLine
 10
-56.19575762249859
 20
37.29968758852027
 30
0.0
 11
-56.19575762249859
 21
32.93658658852127
 31
0.0
  0
LINE
  5
EF
330
56
100
AcDbEntity
  8
LC-001-002-----0
  6
Continuous
 62
     7
100
AcDbLine
 10
-57.89270262249827
 20
32.63736958852149
 30
0.0
 11
-56.19575762249859
 21
32.93658658852127
 31
0.0
  0
LINE
  5
F0
330
56
100
AcDbEntity
  8
LC-001-002-----0
  6
Continuous
 62
     7
100
AcDbLine
 10
-48.58878062249912
 20
58.19968558852104
 30
0.0
 11
48.58851337750182
 21
58.19981858852241
 31
0.0
  0
LINE
  5
F1
330
56
100
AcDbEntity
  8
LC-001-002-----0
  6
Continuous
 62
     7
100
AcDbLine
 10
-56.19575762249859
 20
37.29968758852027
 30
0.0
 11
56.19554737750239
 21
37.29968758852027
 31
0.0
  0
LINE
  5
F2
330
56
100
AcDbEntity
  8
LC-001-002-----0
  6
Continuous
 62
     7
100
AcDbLine
 10
-57.89270262249827
 20
32.63736958852149
 30
0.0
 11
57.8925053774992
 21
32.63736958852149
 31
0.0
  0
LINE
  5
F3
330
56
100
AcDbEntity
  8
LC-001-002-----0
  6
Continuous
 62
     7
100
AcDbLine
 10
-1.1497906225004
 20
32.63736958852149
 30
0.0
 11
-1.1497906225004
 21
0.00079678909032
 31
0.0
  0
LINE
  5
F4
330
56
100
AcDbEntity
  8
LC-001-002-----0
  6
Continuous
 62
     7
100
AcDbLine
 10
1.15020937750251
 20
32.63736958852149
 30
0.0
 11
1.15020937750251
 21
0.00079678909032
 31
0.0
  0
LINE
  5
F5
330
56
100
AcDbEntity
  8
LC-001-002-----0
  6
Continuous
 62
     7
100
AcDbLine
 10
-51.60680562250033
 20
37.29968758852027
 30
0.0
 11
-43.00001562249871
 21
58.19969358852011
 31
0.0
  0
LINE
  5
F6
330
56
100
AcDbEntity
  8
LC-001-002-----0
  6
Continuous
 62
     7
100
AcDbLine
 10
-59.73261419733959
 20
0.00079678909032
 30
0.0
 11
-47.68264062249997
 21
32.63736958852149
 31
0.0
  0
LINE
  5
F7
330
56
100
AcDbEntity
  8
LC-001-002-----0
  6
Continuous
 62
     7
100
AcDbLine
 10
-33.82260035479826
 20
0.00079678909032
 30
0.0
 11
-26.86554662249817
 21
32.63736958852149
 31
0.0
  0
LINE
  5
F8
330
56
100
AcDbEntity
  8
LC-001-002-----0
  6
Continuous
 62
     7
100
AcDbLine
 10
-35.81445835479949
 20
0.00079678909032
 30
0.0
 11
-28.85740462249941
 21
32.63736958852149
 31
0.0
  0
LINE
  5
F9
330
56
100
AcDbEntity
  8
LC-001-002-----0
  6
Continuous
 62
     7
100
AcDbLine
 10
-19.13411093263686
 20
0.00079678909032
 30
0.0
 11
-15.53287562249806
 21
32.63736958852149
 31
0.0
  0
LINE
  5
FA
330
56
100
AcDbEntity
  8
LC-001-002-----0
  6
Continuous
 62
     7
100
AcDbLine
 10
-16.9124819326372
 20
0.00079678909032
 30
0.0
 11
-13.3112466224984
 21
32.63736958852149
 31
0.0
  0
LINE
  5
FB
330
56
100
AcDbEntity
  8
LC-001-002-----0
  6
Continuous
 62
     7
100
AcDbLine
 10
-60.88261440350665
 20
0.00079678909032
 30
0.0
 11
-48.83264062249779
 21
32.63736958852149
 31
0.0
  0
LINE
  5
FC
330
56
100
AcDbEntity
  8
LC-001-002-----0
  6
Continuous
 62
     7
100
AcDbLine
 10
-52.20208862249908
 20
37.29968758852027
 30
0.0
 11
-43.5952996224978
 21
58.19969258851977
 31
0.0
  0
LINE
  5
FD
330
56
100
AcDbEntity
  8
LC-001-002-----0
  6
Continuous
 62
     7
100
AcDbLine
 10
-48.42693834779161
 20
0.0
 30
0.0
 11
-38.57076262250029
 21
32.63736958852149
 31
0.0
  0
LINE
  5
FE
330
56
100
AcDbEntity
  8
LC-001-002-----0
  6
Continuous
 62
     7
100
AcDbLine
 10
-50.05433682355428
 20
0.0
 30
0.0
 11
-40.2153346224977
 21
32.63736958852149
 31
0.0
  0
LINE
  5
FF
330
56
100
AcDbEntity
  8
LC-001-002-----0
  6
Continuous
 62
     7
100
AcDbLine
 10
-47.11123362250054
 20
37.29968758852027
 30
0.0
 11
-39.39459662249917
 21
58.19969858852179
 31
0.0
  0
LINE
  5
100
330
56
100
AcDbEntity
  8
LC-001-002-----0
  6
Continuous
 62
     7
100
AcDbLine
 10
-45.96123462249942
 20
37.29968758852027
 30
0.0
 11
-38.2445966224977
 21
58.19969958852213
 31
0.0
  0
LINE
  5
101
330
56
100
AcDbEntity
  8
LC-001-002-----0
  6
Continuous
 62
     7
100
AcDbLine
 10
-66.96678718354073
 20
0.00079678909032
 30
0.0
 11
-53.52678462249877
 21
32.63736958852149
 31
0.0
  0
LINE
  5
102
330
56
100
AcDbEntity
  8
LC-001-002-----0
  6
Continuous
 62
     7
100
AcDbLine
 10
-67.56206943243237
 20
0.00079678909032
 30
0.0
 11
-54.12206862249784
 21
32.63736958852149
 31
0.0
  0
LINE
  5
103
330
56
100
AcDbEntity
  8
LC-001-002-----0
  6
Continuous
 62
     7
100
AcDbLine
 10
-38.80981262250041
 20
37.29968758852027
 30
0.0
 11
-32.50920262249836
 21
58.19970758852121
 31
0.0
  0
LINE
  5
104
330
56
100
AcDbEntity
  8
LC-001-002-----0
  6
Continuous
 62
     7
100
AcDbLine
 10
-37.16278762249839
 20
37.29968758852027
 30
0.0
 11
-30.85117862249807
 21
58.19970958852188
 31
0.0
  0
LINE
  5
105
330
56
100
AcDbEntity
  8
LC-001-002-----0
  6
Continuous
 62
     7
100
AcDbLine
 10
-27.86355062249912
 20
37.29968758852027
 30
0.0
 11
-23.40834562250074
 21
58.19972058852198
 31
0.0
  0
LINE
  5
106
330
56
100
AcDbEntity
  8
LC-001-002-----0
  6
Continuous
 62
     7
100
AcDbLine
 10
-25.87169262249789
 20
37.29968758852027
 30
0.0
 11
-21.41648662249918
 21
58.19972258852264
 31
0.0
  0
LINE
  5
107
330
56
100
AcDbEntity
  8
LC-001-002-----0
  6
Continuous
 62
     7
100
AcDbLine
 10
-15.01841962250091
 20
37.29968758852027
 30
0.0
 11
-12.71223362249935
 21
58.19973458851943
 31
0.0
  0
LINE
  5
108
330
56
100
AcDbEntity
  8
LC-001-002-----0
  6
Continuous
 62
     7
100
AcDbLine
 10
-12.7967896225009
 20
37.29968758852027
 30
0.0
 11
-10.49060462249963
 21
58.19973758852044
 31
0.0
  0
LINE
  5
109
330
56
100
AcDbEntity
  8
LC-001-002-----0
  6
Continuous
 62
     7
100
AcDbLine
 10
16.91237801476926
 20
0.00079678909032
 30
0.0
 11
13.31104937749932
 21
32.63740558852276
 31
0.0
  0
LINE
  5
10A
330
56
100
AcDbEntity
  8
LC-001-002-----0
  6
Continuous
 62
     7
100
AcDbLine
 10
19.13400818570039
 20
0.00079678909032
 30
0.0
 11
15.53267837750263
 21
32.63741258852149
 31
0.0
  0
LINE
  5
10B
330
56
100
AcDbEntity
  8
LC-001-002-----0
  6
Continuous
 62
     7
100
AcDbLine
 10
12.79657937750108
 20
37.29972258852121
 30
0.0
 11
10.49033637750199
 21
58.19976658851935
 31
0.0
  0
LINE
  5
10C
330
56
100
AcDbEntity
  8
LC-001-002-----0
  6
Continuous
 62
     7
100
AcDbLine
 10
15.01820837750074
 20
37.29972858851959
 30
0.0
 11
12.71196637750199
 21
58.19976958852036
 31
0.0
  0
LINE
  5
10D
330
56
100
AcDbEntity
  8
LC-001-002-----0
  6
Continuous
 62
     7
100
AcDbLine
 10
25.87148237750169
 20
37.29975858852247
 30
0.0
 11
21.41621937750186
 21
58.1997815885208
 31
0.0
  0
LINE
  5
10E
330
56
100
AcDbEntity
  8
LC-001-002-----0
  6
Continuous
 62
     7
100
AcDbLine
 10
27.86334037749928
 20
37.29976358852053
 30
0.0
 11
23.40807737749946
 21
58.19978458852181
 31
0.0
  0
LINE
  5
10F
330
56
100
AcDbEntity
  8
LC-001-002-----0
  6
Continuous
 62
     7
100
AcDbLine
 10
37.16257637750184
 20
37.29978958852205
 30
0.0
 11
30.85091137750076
 21
58.19979458852157
 31
0.0
  0
LINE
  5
110
330
56
100
AcDbEntity
  8
LC-001-002-----0
  6
Continuous
 62
     7
100
AcDbLine
 10
38.80960137750024
 20
37.29979358851978
 30
0.0
 11
32.50893437750073
 21
58.19979658852225
 31
0.0
  0
LINE
  5
111
330
56
100
AcDbEntity
  8
LC-001-002-----0
  6
Continuous
 62
     7
100
AcDbLine
 10
35.81437147894768
 20
0.00079678909032
 30
0.0
 11
28.85720737750033
 21
32.63744858852277
 31
0.0
  0
LINE
  5
112
330
56
100
AcDbEntity
  8
LC-001-002-----0
  6
Continuous
 62
     7
100
AcDbLine
 10
33.82251147086729
 20
0.00079678909032
 30
0.0
 11
26.8653493774991
 21
32.63744358852107
 31
0.0
  0
LINE
  5
113
330
56
100
AcDbEntity
  8
LC-001-002-----0
  6
Continuous
 62
     7
100
AcDbLine
 10
48.4268694075291
 20
0.0
 30
0.0
 11
38.57056537750121
 21
32.63747558852099
 31
0.0
  0
LINE
  5
114
330
56
100
AcDbEntity
  8
LC-001-002-----0
  6
Continuous
 62
     7
100
AcDbLine
 10
50.05426952169339
 20
0.0
 30
0.0
 11
40.21513637750194
 21
32.63747958852235
 31
0.0
  0
LINE
  5
115
330
56
100
AcDbEntity
  8
LC-001-002-----0
  6
Continuous
 62
     7
100
AcDbLine
 10
59.73256760943885
 20
0.00079678909032
 30
0.0
 11
47.68244337750092
 21
32.63750058852219
 31
0.0
  0
LINE
  5
116
330
56
100
AcDbEntity
  8
LC-001-002-----0
  6
Continuous
 62
     7
100
AcDbLine
 10
60.88256880918775
 20
0.00079678909032
 30
0.0
 11
48.83244237750203
 21
32.63750358851955
 31
0.0
  0
LINE
  5
117
330
56
100
AcDbEntity
  8
LC-001-002-----0
  6
Continuous
 62
     7
100
AcDbLine
 10
45.96102437749958
 20
37.2998135885229
 30
0.0
 11
38.24432837750008
 21
58.19980458852128
 31
0.0
  0
LINE
  5
118
330
56
100
AcDbEntity
  8
LC-001-002-----0
  6
Continuous
 62
     7
100
AcDbLine
 10
47.1110233775007
 20
37.29981658852029
 30
0.0
 11
39.39432837750154
 21
58.19980658852198
 31
0.0
  0
LINE
  5
119
330
56
100
AcDbEntity
  8
LC-001-002-----0
  6
Continuous
 62
     7
100
AcDbLine
 10
51.6065953775005
 20
37.2998285885207
 30
0.0
 11
42.99974837750141
 21
58.19981158852004
 31
0.0
  0
LINE
  5
11A
330
56
100
AcDbEntity
  8
LC-001-002-----0
  6
Continuous
 62
     7
100
AcDbLine
 10
51.6065953775005
 20
37.2998285885207
 30
0.0
 11
42.99974837750141
 21
58.19981158852004
 31
0.0
  0
LINE
  5
11B
330
56
100
AcDbEntity
  8
LC-001-002-----0
  6
Continuous
 62
     7
100
AcDbLine
 10
52.20187837749925
 20
37.29983058852138
 30
0.0
 11
43.59503237750049
 21
58.19981258852036
 31
0.0
  0
LINE
  5
11C
330
56
100
AcDbEntity
  8
LC-001-002-----0
  6
Continuous
 62
     7
100
AcDbLine
 10
66.96675460217463
 20
0.00079678909032
 30
0.0
 11
53.52658737749969
 21
32.63751658852032
 31
0.0
  0
LINE
  5
11D
330
56
100
AcDbEntity
  8
LC-001-002-----0
  6
Continuous
 62
     7
100
AcDbLine
 10
67.56203829285911
 20
0.00079678909032
 30
0.0
 11
54.1218713775024
 21
32.63751758852067
 31
0.0
  0
LINE
  5
11E
330
56
100
AcDbEntity
  8
1
  6
Continuous
 62
     7
100
AcDbLine
 10
47.56149637750148
 20
72.99981758852132
 30
0.0
 11
48.44845069534948
 21
72.99981758852132
 31
0.0
  0
ARC
  5
11F
330
56
100
AcDbEntity
  8
LC-002-002-RND-0
  6
Continuous
 62
     7
100
AcDbCircle
 10
48.4484713774991
 20
57.99981858852168
 30
0.0
 40
14.99999999999945
100
AcDbArc
 50
20.00015699999176
 51
90.0000789999923
  0
ARC
  5
120
330
56
100
AcDbEntity
  8
LC-002-002-RND-0
  6
Continuous
 62
     7
100
AcDbCircle
 10
-48.4487386225001
 20
57.99968558852031
 30
0.0
 40
14.99999999999969
100
AcDbArc
 50
90.00007899999208
 51
159.9999999999947
  0
ENDBLK
  5
58
330
56
100
AcDbEntity
  8
0
100
AcDbBlockEnd
  0
BLOCK
  5
5A
330
59
100
AcDbEntity
  8
0
100
AcDbBlockBegin
  2
Außenansicht
 70
     0
 71
     0
 10
-29.52887217687742
 20
288.7124654531013
 30
0.0
  3
Außenansicht
  1

  0
POINT
  5
121
330
59
100
AcDbEntity
  8
LC-001-003-----0
 62
     7
100
AcDbPoint
 10
-55.00000000000133
 20
-343.4981289007779
 30
0.0
  0
POINT
  5
122
330
59
100
AcDbEntity
  8
LC-001-003-----0
 62
     7
100
AcDbPoint
 10
54.9999999999985
 20
-343.4981289007779
 30
0.0
  0
POINT
  5
123
330
59
100
AcDbEntity
  8
LC-001-003-----0
 62
     7
100
AcDbPoint
 10
-142.0501740000013
 20
-2.70454005267356
 30
0.0
  0
POINT
  5
124
330
59
100
AcDbEntity
  8
LC-001-003-----0
 62
     7
100
AcDbPoint
 10
142.0501749999988
 20
-2.70454005267356
 30
0.0
  0
POINT
  5
125
330
59
100
AcDbEntity
  8
LC-001-003-----0
 62
     7
100
AcDbPoint
 10
77.4999999999986
 20
-278.4988999007779
 30
0.0
  0
POINT
  5
126
330
59
100
AcDbEntity
  8
LC-001-003-----0
 62
     7
100
AcDbPoint
 10
188.9999999999985
 20
-108.0002489007779
 30
0.0
  0
POINT
  5
127
330
59
100
AcDbEntity
  8
LC-001-003-----0
 62
     7
100
AcDbPoint
 10
-85.50007100000124
 20
-273.498899900778
 30
0.0
  0
POINT
  5
128
330
59
100
AcDbEntity
  8
LC-001-003-----0
 62
     7
100
AcDbPoint
 10
85.49999999999861
 20
-273.498899900778
 30
0.0
  0
POINT
  5
129
330
59
100
AcDbEntity
  8
LC-001-003-----0
 62
     7
100
AcDbPoint
 10
-189.0000000000013
 20
-108.0002489007779
 30
0.0
  0
POINT
  5
12A
330
59
100
AcDbEntity
  8
LC-001-003-----0
 62
     7
100
AcDbPoint
 10
188.9999999999985
 20
-108.0002489007779
 30
0.0
  0
POINT
  5
12B
330
59
100
AcDbEntity
  8
LC-001-003-----0
 62
     7
100
AcDbPoint
 10
-180.0000000000013
 20
-5.50048805267352
 30
0.0
  0
POINT
  5
12C
330
59
100
AcDbEntity
  8
LC-001-003-----0
 62
     7
100
AcDbPoint
 10
179.9999999999987
 20
-5.50048805267352
 30
0.0
  0
POINT
  5
12D
330
59
100
AcDbEntity
  8
LC-001-003-----0
 62
     7
100
AcDbPoint
 10
186.9999999999986
 20
-105.500248900778
 30
0.0
  0
POINT
  5
12E
330
59
100
AcDbEntity
  8
LC-001-003-----0
 62
     7
100
AcDbPoint
 10
179.9999459999987
 20
-5.50048805267352
 30
0.0
  0
LINE
  5
12F
330
59
100
AcDbEntity
  8
LC-005-002-----0
  6
Continuous
 62
     7
100
AcDbLine
 10
-0.00000000000136
 20
-2.49722305267369
 30
0.0
 11
-178.0000360000012
 21
-2.50045205267361
 31
0.0
  0
LINE
  5
130
330
59
100
AcDbEntity
  8
LC-005-002-----0
  6
Continuous
 62
     7
100
AcDbLine
 10
188.9999999999985
 20
-107.500248900778
 30
0.0
 11
188.9999999999985
 21
-108.0002489007779
 31
0.0
  0
LINE
  5
131
330
59
100
AcDbEntity
  8
LC-005-002-----0
  6
Continuous
 62
     7
100
AcDbLine
 10
188.9999999999985
 20
-108.0002489007779
 30
0.0
 11
-0.00000000000136
 21
-108.0002489007779
 31
0.0
  0
LINE
  5
132
330
59
100
AcDbEntity
  8
LC-005-002-----0
  6
Continuous
 62
     7
100
AcDbLine
 10
137.5357039999987
 20
-90.00025990077802
 30
0.0
 11
137.5357039999987
 21
-105.500248900778
 31
0.0
  0
LINE
  5
133
330
59
100
AcDbEntity
  8
LC-005-002-----0
  6
Continuous
 62
     7
100
AcDbLine
 10
-0.00000000000136
 20
-105.500248900778
 30
0.0
 11
186.9999999999986
 21
-105.500248900778
 31
0.0
  0
LINE
  5
134
330
59
100
AcDbEntity
  8
LC-005-002-----0
  6
Continuous
 62
     7
100
AcDbLine
 10
-137.5357030000014
 20
-90.00025990077802
 30
0.0
 11
-137.5357030000014
 21
-105.500248900778
 31
0.0
  0
LINE
  5
135
330
59
100
AcDbEntity
  8
LC-005-002-----0
  6
Continuous
 62
     7
100
AcDbLine
 10
-142.0501740000013
 20
-90.00025090077793
 30
0.0
 11
-0.00000000000136
 21
-90.0005099007781
 31
0.0
  0
LINE
  5
136
330
59
100
AcDbEntity
  8
LC-005-002-----0
  6
Continuous
 62
     7
100
AcDbLine
 10
-142.0501740000013
 20
-5.4998190526735
 30
0.0
 11
-142.0501740000013
 21
-90.00025090077793
 31
0.0
  0
LINE
  5
137
330
59
100
AcDbEntity
  8
LC-005-002-----0
  6
Continuous
 62
     7
100
AcDbLine
 10
-62.50074000000129
 20
-275.998899900778
 30
0.0
 11
-62.50067200000123
 21
-282.9981279007778
 31
0.0
  0
LINE
  5
138
330
59
100
AcDbEntity
  8
LC-005-002-----0
  6
Continuous
 62
     7
100
AcDbLine
 10
142.0501749999988
 20
-90.00025090077793
 30
0.0
 11
-0.00000000000136
 21
-90.0005099007781
 31
0.0
  0
LINE
  5
139
330
59
100
AcDbEntity
  8
LC-005-002-----0
  6
Continuous
 62
     7
100
AcDbLine
 10
-53.79422800000132
 20
-347.9981299007778
 30
0.0
 11
53.79422899999859
 21
-347.9981299007778
 31
0.0
  0
LINE
  5
13A
330
59
100
AcDbEntity
  8
LC-005-002-----0
  6
Continuous
 62
     7
100
AcDbLine
 10
-53.79422800000132
 20
-347.9981299007778
 30
0.0
 11
-55.00000000000133
 21
-343.4981289007779
 31
0.0
  0
LINE
  5
13B
330
59
100
AcDbEntity
  8
LC-005-002-----0
  6
Continuous
 62
     7
100
AcDbLine
 10
-55.00000000000133
 20
-282.9981279007778
 30
0.0
 11
-55.00000000000133
 21
-343.4981289007779
 31
0.0
  0
LINE
  5
13C
330
59
100
AcDbEntity
  8
LC-005-002-----0
  6
Continuous
 62
     7
100
AcDbLine
 10
142.0501749999988
 20
-5.4998190526735
 30
0.0
 11
142.0501749999988
 21
-90.00025090077793
 31
0.0
  0
LINE
  5
13D
330
59
100
AcDbEntity
  8
LC-005-002-----0
  6
Continuous
 62
     7
100
AcDbLine
 10
62.50073999999856
 20
-275.9988949007779
 30
0.0
 11
62.50067299999863
 21
-282.9981279007778
 31
0.0
  0
LINE
  5
13E
330
59
100
AcDbEntity
  8
LC-005-002-----0
  6
Continuous
 62
     7
100
AcDbLine
 10
-0.00000000000136
 20
-105.500248900778
 30
0.0
 11
-187.0000000000013
 21
-105.500248900778
 31
0.0
  0
LINE
  5
13F
330
59
100
AcDbEntity
  8
LC-005-002-----0
  6
Continuous
 62
     7
100
AcDbLine
 10
54.9999999999985
 20
-282.9981279007778
 30
0.0
 11
-62.50067200000123
 21
-282.9981279007778
 31
0.0
  0
LINE
  5
140
330
59
100
AcDbEntity
  8
LC-005-002-----0
  6
Continuous
 62
     7
100
AcDbLine
 10
62.50069399999867
 20
-282.9981279007778
 30
0.0
 11
54.9999999999985
 21
-282.9981279007778
 31
0.0
  0
LINE
  5
141
330
59
100
AcDbEntity
  8
LC-005-002-----0
  6
Continuous
 62
     7
100
AcDbLine
 10
55.00000199999861
 20
-282.9981279007778
 30
0.0
 11
62.50067299999863
 21
-282.9981279007778
 31
0.0
  0
LINE
  5
142
330
59
100
AcDbEntity
  8
LC-005-002-----0
  6
Continuous
 62
     7
100
AcDbLine
 10
-189.0000000000013
 20
-108.0002489007779
 30
0.0
 11
-0.00000000000136
 21
-108.0002489007779
 31
0.0
  0
LINE
  5
143
330
59
100
AcDbEntity
  8
LC-005-002-----0
  6
Continuous
 62
     7
100
AcDbLine
 10
-85.50007100000124
 20
-273.498899900778
 30
0.0
 11
85.49992899999866
 21
-273.498899900778
 31
0.0
  0
LINE
  5
144
330
59
100
AcDbEntity
  8
LC-005-002-----0
  6
Continuous
 62
     7
100
AcDbLine
 10
-85.50007100000124
 20
-273.498899900778
 30
0.0
 11
-85.50293600000141
 21
-108.0002489007779
 31
0.0
  0
LINE
  5
145
330
59
100
AcDbEntity
  8
LC-005-002-----0
  6
Continuous
 62
     7
100
AcDbLine
 10
85.49992899999866
 20
-273.498899900778
 30
0.0
 11
85.49992899999866
 21
-108.0002489007779
 31
0.0
  0
LINE
  5
146
330
59
100
AcDbEntity
  8
LC-005-002-----0
  6
Continuous
 62
     7
100
AcDbLine
 10
69.49999999999861
 20
-275.998899900778
 30
0.0
 11
77.4999999999986
 21
-275.998899900778
 31
0.0
  0
LINE
  5
147
330
59
100
AcDbEntity
  8
LC-005-002-----0
  6
Continuous
 62
     7
100
AcDbLine
 10
-77.50000000000132
 20
-275.998899900778
 30
0.0
 11
-77.50000000000132
 21
-278.4988999007779
 31
0.0
  0
LINE
  5
148
330
59
100
AcDbEntity
  8
LC-005-002-----0
  6
Continuous
 62
     7
100
AcDbLine
 10
-77.50000000000132
 20
-278.4988999007779
 30
0.0
 11
-69.50000000000134
 21
-278.4988999007779
 31
0.0
  0
LINE
  5
149
330
59
100
AcDbEntity
  8
LC-005-002-----0
  6
Continuous
 62
     7
100
AcDbLine
 10
-69.50000000000134
 20
-278.4988999007779
 30
0.0
 11
-69.50000000000134
 21
-275.998899900778
 31
0.0
  0
LINE
  5
14A
330
59
100
AcDbEntity
  8
LC-005-002-----0
  6
Continuous
 62
     7
100
AcDbLine
 10
-69.50000000000134
 20
-275.998899900778
 30
0.0
 11
63.09999999999874
 21
-275.998899900778
 31
0.0
  0
LINE
  5
14B
330
59
100
AcDbEntity
  8
LC-005-002-----0
  6
Continuous
 62
     7
100
AcDbLine
 10
62.50073999999856
 20
-275.998899900778
 30
0.0
 11
69.49999999999861
 21
-275.998899900778
 31
0.0
  0
LINE
  5
14C
330
59
100
AcDbEntity
  8
LC-005-002-----0
  6
Continuous
 62
     7
100
AcDbLine
 10
69.49999999999861
 20
-275.998899900778
 30
0.0
 11
69.49999999999861
 21
-278.4988999007779
 31
0.0
  0
LINE
  5
14D
330
59
100
AcDbEntity
  8
LC-005-002-----0
  6
Continuous
 62
     7
100
AcDbLine
 10
69.49999999999861
 20
-278.4988999007779
 30
0.0
 11
77.4999999999986
 21
-278.4988999007779
 31
0.0
  0
LINE
  5
14E
330
59
100
AcDbEntity
  8
LC-005-002-----0
  6
Continuous
 62
     7
100
AcDbLine
 10
77.4999999999986
 20
-278.4988999007779
 30
0.0
 11
77.4999999999986
 21
-275.998899900778
 31
0.0
  0
LINE
  5
14F
330
59
100
AcDbEntity
  8
LC-005-002-----0
  6
Continuous
 62
     7
100
AcDbLine
 10
77.4999999999986
 20
-275.998899900778
 30
0.0
 11
82.99999999999858
 21
-275.998899900778
 31
0.0
  0
LINE
  5
150
330
59
100
AcDbEntity
  8
LC-005-002-----0
  6
Continuous
 62
     7
100
AcDbLine
 10
-77.50000000000132
 20
-275.998899900778
 30
0.0
 11
-83.00000000000131
 21
-275.998899900778
 31
0.0
  0
LINE
  5
151
330
59
100
AcDbEntity
  8
LC-005-002-----0
  6
Continuous
 62
     7
100
AcDbLine
 10
-77.50000000000132
 20
-275.998899900778
 30
0.0
 11
-69.50000000000134
 21
-275.998899900778
 31
0.0
  0
LINE
  5
152
330
59
100
AcDbEntity
  8
LC-005-002-----0
  6
Continuous
 62
     7
100
AcDbLine
 10
-63.00000000000134
 20
-275.998899900778
 30
0.0
 11
-63.10000000000125
 21
-275.998899900778
 31
0.0
  0
LINE
  5
153
330
59
100
AcDbEntity
  8
LC-005-002-----0
  6
Continuous
 62
     7
100
AcDbLine
 10
83.6499999999987
 20
-273.498899900778
 30
0.0
 11
85.49999999999861
 21
-273.498899900778
 31
0.0
  0
LINE
  5
154
330
59
100
AcDbEntity
  8
LC-005-002-----0
  6
Continuous
 62
     7
100
AcDbLine
 10
63.09999999999874
 20
-275.998899900778
 30
0.0
 11
62.9999999999986
 21
-275.998899900778
 31
0.0
  0
LINE
  5
155
330
59
100
AcDbEntity
  8
LC-005-002-----0
  6
Continuous
 62
     7
100
AcDbLine
 10
-189.0000000000013
 20
-107.500248900778
 30
0.0
 11
-189.0000000000013
 21
-108.0002489007779
 31
0.0
  0
LINE
  5
156
330
59
100
AcDbEntity
  8
LC-005-002-----0
  6
Continuous
 62
     7
100
AcDbLine
 10
54.9999999999985
 20
-282.9981279007778
 30
0.0
 11
54.9999999999985
 21
-343.4981289007779
 31
0.0
  0
LINE
  5
157
330
59
100
AcDbEntity
  8
LC-005-002-----0
  6
Continuous
 62
     7
100
AcDbLine
 10
53.79422899999859
 20
-347.9981299007778
 30
0.0
 11
54.9999999999985
 21
-343.4981289007779
 31
0.0
  0
LINE
  5
158
330
59
100
AcDbEntity
  8
LC-005-002-----0
  6
Continuous
 62
     7
100
AcDbLine
 10
-0.00000000000136
 20
-2.49722305267369
 30
0.0
 11
178.0000369999983
 21
-2.50045205267361
 31
0.0
  0
LINE
  5
159
330
59
100
AcDbEntity
  8
LC-005-002-----0
  6
Continuous
 62
     7
100
AcDbLine
 10
179.9999999999987
 20
-4.50045205267361
 30
0.0
 11
179.9999999999987
 21
-5.50048805267352
 31
0.0
  0
LINE
  5
15A
330
59
100
AcDbEntity
  8
LC-005-002-----0
  6
Continuous
 62
     7
100
AcDbLine
 10
-0.00000000000136
 20
-5.49722305267369
 30
0.0
 11
179.9999459999987
 21
-5.50048805267352
 31
0.0
  0
LINE
  5
15B
330
59
100
AcDbEntity
  8
LC-005-002-----0
  6
Continuous
 62
     7
100
AcDbLine
 10
-180.0000000000013
 20
-4.50045205267361
 30
0.0
 11
-180.0000000000013
 21
-5.50048805267352
 31
0.0
  0
LINE
  5
15C
330
59
100
AcDbEntity
  8
LC-005-002-----0
  6
Continuous
 62
     7
100
AcDbLine
 10
-0.00000000000136
 20
-5.49722305267369
 30
0.0
 11
-179.9999450000016
 21
-5.50048805267374
 31
0.0
  0
LINE
  5
15D
330
59
100
AcDbEntity
  8
LC-005-002-----0
  6
Continuous
 62
     7
100
AcDbLine
 10
-55.00000000000133
 20
-343.4981289007779
 30
0.0
 11
54.9999999999985
 21
-343.4981289007779
 31
0.0
  0
LINE
  5
15E
330
59
100
AcDbEntity
  8
1
  6
PHANTOM
 62
     2
100
AcDbLine
 10
-0.00000000000148
 20
0.00079678909036
 30
0.0
 11
-0.00000000000136
 21
-363.6849243739019
 31
0.0
  0
LINE
  5
15F
330
59
100
AcDbEntity
  8
LC-001-002-----0
  6
Continuous
 62
     7
100
AcDbLine
 10
-74.34497600000134
 20
-296.8547909007778
 30
0.0
 11
-110.8449760000013
 21
-296.8547909007778
 31
0.0
  0
LINE
  5
160
330
59
100
AcDbEntity
  8
LC-001-002-----0
  6
Continuous
 62
     7
100
AcDbLine
 10
-74.34497600000134
 20
-290.3547909007778
 30
0.0
 11
-110.8449760000013
 21
-290.3547909007778
 31
0.0
  0
LINE
  5
161
330
59
100
AcDbEntity
  8
LC-001-002-----0
  6
Continuous
 62
     7
100
AcDbLine
 10
-151.2137850000014
 20
-294.1047909007778
 30
0.0
 11
-158.2137850000014
 21
-294.1047909007778
 31
0.0
  0
LINE
  5
162
330
59
100
AcDbEntity
  8
LC-001-002-----0
  6
Continuous
 62
     7
100
AcDbLine
 10
-151.1010320000014
 20
-295.9094199007778
 30
0.0
 11
-158.1020730000014
 21
-296.2763289007778
 31
0.0
  0
LINE
  5
163
330
59
100
AcDbEntity
  8
LC-001-002-----0
  6
Continuous
 62
     7
100
AcDbLine
 10
-150.9886840000014
 20
-296.9049039007778
 30
0.0
 11
-158.0029010000014
 21
-297.2725039007778
 31
0.0
  0
LINE
  5
164
330
59
100
AcDbEntity
  8
LC-001-002-----0
  6
Continuous
 62
     7
100
AcDbLine
 10
-126.2137850000014
 20
-295.8568499007778
 30
0.0
 11
-150.9605970000014
 21
-297.1537749007778
 31
0.0
  0
LINE
  5
165
330
59
100
AcDbEntity
  8
LC-001-002-----0
  6
Continuous
 62
     7
100
AcDbLine
 10
-126.2137850000014
 20
-294.3547909007778
 30
0.0
 11
-151.1291190000014
 21
-295.6605489007778
 31
0.0
  0
LINE
  5
166
330
59
100
AcDbEntity
  8
LC-001-002-----0
  6
Continuous
 62
     7
100
AcDbLine
 10
-126.2137850000014
 20
-294.3547909007778
 30
0.0
 11
-151.2137850000014
 21
-294.3547909007778
 31
0.0
  0
LINE
  5
167
330
59
100
AcDbEntity
  8
LC-001-002-----0
  6
Continuous
 62
     7
100
AcDbLine
 10
-126.2137850000014
 20
-292.8547909007778
 30
0.0
 11
-151.2137850000014
 21
-292.8547909007778
 31
0.0
  0
LINE
  5
168
330
59
100
AcDbEntity
  8
LC-001-002-----0
  6
Continuous
 62
     7
100
AcDbLine
 10
-126.2137850000014
 20
-292.8547909007778
 30
0.0
 11
-151.1291190000014
 21
-291.5490339007778
 31
0.0
  0
LINE
  5
169
330
59
100
AcDbEntity
  8
LC-001-002-----0
  6
Continuous
 62
     7
100
AcDbLine
 10
-126.2137850000014
 20
-291.3527329007778
 30
0.0
 11
-150.9605970000014
 21
-290.0558069007778
 31
0.0
  0
LINE
  5
16A
330
59
100
AcDbEntity
  8
LC-001-002-----0
  6
Continuous
 62
     7
100
AcDbLine
 10
-126.2137850000014
 20
-290.3547909007778
 30
0.0
 11
-126.2137850000014
 21
-296.8547909007778
 31
0.0
  0
LINE
  5
16B
330
59
100
AcDbEntity
  8
LC-001-002-----0
  6
Continuous
 62
     7
100
AcDbLine
 10
-112.8449760000013
 20
-290.3547909007778
 30
0.0
 11
-126.2137850000014
 21
-290.3547909007778
 31
0.0
  0
LINE
  5
16C
330
59
100
AcDbEntity
  8
LC-001-002-----0
  6
Continuous
 62
     7
100
AcDbLine
 10
-158.2137850000014
 20
-293.1047909007778
 30
0.0
 11
-158.2137850000014
 21
-294.1047909007778
 31
0.0
  0
LINE
  5
16D
330
59
100
AcDbEntity
  8
LC-001-002-----0
  6
DASHDOT
 62
     2
100
AcDbLine
 10
-112.8449760000013
 20
-287.2417219007778
 30
0.0
 11
-112.8449760000013
 21
-298.9252439007778
 31
0.0
  0
LINE
  5
16E
330
59
100
AcDbEntity
  8
LC-001-002-----0
  6
Continuous
 62
     7
100
AcDbLine
 10
-150.9605970000014
 20
-290.0558069007778
 30
0.0
 11
-151.1291190000014
 21
-291.5490339007778
 31
0.0
  0
LINE
  5
16F
330
59
100
AcDbEntity
  8
LC-001-002-----0
  6
Continuous
 62
     7
100
AcDbLine
 10
-158.0029010000014
 20
-289.9370789007778
 30
0.0
 11
-158.1020730000014
 21
-290.9332539007778
 31
0.0
  0
LINE
  5
170
330
59
100
AcDbEntity
  8
LC-001-002-----0
  6
Continuous
 62
     7
100
AcDbLine
 10
-150.9886840000014
 20
-290.3046779007779
 30
0.0
 11
-158.0029010000014
 21
-289.9370789007778
 31
0.0
  0
LINE
  5
171
330
59
100
AcDbEntity
  8
LC-001-002-----0
  6
DASHDOT
 62
     2
100
AcDbLine
 10
-110.8449760000013
 20
-287.2417219007778
 30
0.0
 11
-110.8449760000013
 21
-298.9252439007778
 31
0.0
  0
LINE
  5
172
330
59
100
AcDbEntity
  8
LC-001-002-----0
  6
Continuous
 62
     7
100
AcDbLine
 10
-158.0029010000014
 20
-297.2725039007778
 30
0.0
 11
-158.1020730000014
 21
-296.2763289007778
 31
0.0
  0
LINE
  5
173
330
59
100
AcDbEntity
  8
LC-001-002-----0
  6
Continuous
 62
     7
100
AcDbLine
 10
-151.2137850000014
 20
-293.1047909007778
 30
0.0
 11
-158.2137850000014
 21
-293.1047909007778
 31
0.0
  0
LINE
  5
174
330
59
100
AcDbEntity
  8
LC-001-002-----0
  6
Continuous
 62
     7
100
AcDbLine
 10
-151.1010320000014
 20
-291.3001629007778
 30
0.0
 11
-158.1020730000014
 21
-290.9332539007778
 31
0.0
  0
LINE
  5
175
330
59
100
AcDbEntity
  8
LC-001-002-----0
  6
Continuous
 62
     7
100
AcDbLine
 10
-112.8449760000013
 20
-296.8547909007778
 30
0.0
 11
-126.2137850000014
 21
-296.8547909007778
 31
0.0
  0
LINE
  5
176
330
59
100
AcDbEntity
  8
LC-001-002-----0
  6
Continuous
 62
     7
100
AcDbLine
 10
-151.2137850000014
 20
-292.8547909007778
 30
0.0
 11
-151.2137850000014
 21
-294.3547909007778
 31
0.0
  0
LINE
  5
177
330
59
100
AcDbEntity
  8
LC-001-002-----0
  6
Continuous
 62
     7
100
AcDbLine
 10
-150.9605970000014
 20
-297.1537749007778
 30
0.0
 11
-151.1291190000014
 21
-295.6605489007778
 31
0.0
  0
LINE
  5
178
330
59
100
AcDbEntity
  8
LC-001-002-----0
  6
Continuous
 62
     7
100
AcDbLine
 10
-70.84497600000134
 20
-278.4988999007778
 30
0.0
 11
-70.84497600000134
 21
-286.8547909007778
 31
0.0
  0
LINE
  5
179
330
59
100
AcDbEntity
  8
LC-001-002-----0
  6
Continuous
 62
     7
100
AcDbLine
 10
-64.34497600000134
 20
-275.9988999007778
 30
0.0
 11
-64.34497600000134
 21
-286.8547909007778
 31
0.0
  0
ARC
  5
17A
330
59
100
AcDbEntity
  8
LC-004-002-RND-0
  6
Continuous
 62
     7
100
AcDbCircle
 10
186.9999999999986
 20
-107.500248900778
 30
0.0
 40
1.999999999999886
100
AcDbArc
 50
0.0
 51
90.0
  0
ARC
  5
17B
330
59
100
AcDbEntity
  8
LC-004-002-RND-0
  6
Continuous
 62
     7
100
AcDbCircle
 10
-83.00000000000131
 20
-273.498899900778
 30
0.0
 40
2.500000000000028
100
AcDbArc
 50
180.0
 51
-90.0
  0
ARC
  5
17C
330
59
100
AcDbEntity
  8
LC-004-002-RND-0
  6
Continuous
 62
     7
100
AcDbCircle
 10
82.99999999999858
 20
-273.498899900778
 30
0.0
 40
2.5
100
AcDbArc
 50
-90.0
 51
0.0
  0
ARC
  5
17D
330
59
100
AcDbEntity
  8
LC-004-002-RND-0
  6
Continuous
 62
     7
100
AcDbCircle
 10
-187.0000000000013
 20
-107.500248900778
 30
0.0
 40
2.0
100
AcDbArc
 50
90.0
 51
180.0
  0
ARC
  5
17E
330
59
100
AcDbEntity
  8
LC-004-002-RND-0
  6
Continuous
 62
     7
100
AcDbCircle
 10
177.9999999999987
 20
-4.50045205267361
 30
0.0
 40
2.0
100
AcDbArc
 50
0.0
 51
89.99895299998968
  0
ARC
  5
17F
330
59
100
AcDbEntity
  8
LC-004-002-RND-0
  6
Continuous
 62
     7
100
AcDbCircle
 10
-178.0000000000013
 20
-4.50045205267361
 30
0.0
 40
1.999999999999912
100
AcDbArc
 50
90.00104700001033
 51
180.0
  0
ARC
  5
180
330
59
100
AcDbEntity
  8
LC-002-002-RND-0
  6
Continuous
 62
     7
100
AcDbCircle
 10
-74.34497600000134
 20
-286.8547909007778
 30
0.0
 40
10.0
100
AcDbArc
 50
-90.0
 51
0.0
  0
ARC
  5
181
330
59
100
AcDbEntity
  8
LC-002-002-RND-0
  6
Continuous
 62
     7
100
AcDbCircle
 10
-74.34497600000134
 20
-286.8547909007778
 30
0.0
 40
3.5
100
AcDbArc
 50
-90.0
 51
0.0
  0
ENDBLK
  5
5B
330
59
100
AcDbEntity
  8
0
100
AcDbBlockEnd
  0
BLOCK
  5
5D
330
5C
100
AcDbEntity
  8
0
100
AcDbBlockBegin
  2
Körper
 70
     0
 71
     0
 10
-268.79612903409
 20
-452.8599210371031
 30
0.0
  3
Körper
  1

  0
POINT
  5
182
330
5C
100
AcDbEntity
  8
0
 62
     7
100
AcDbPoint
 10
189.0000389659072
 20
-531.7071201196668
 30
0.0
  0
POINT
  5
183
330
5C
100
AcDbEntity
  8
0
 62
     7
100
AcDbPoint
 10
-188.9999610340929
 20
-531.7087121196673
 30
0.0
  0
POINT
  5
184
330
5C
100
AcDbEntity
  8
0
 62
     7
100
AcDbPoint
 10
-179.9995790340909
 20
-553.7075051196698
 30
0.0
  0
POINT
  5
185
330
5C
100
AcDbEntity
  8
LC-013-200-----0
 62
     7
100
AcDbPoint
 10
129.5004259659072
 20
-840.2075141196692
 30
0.0
  0
POINT
  5
186
330
5C
100
AcDbEntity
  8
LC-013-200-----0
 62
     7
100
AcDbPoint
 10
-129.4995740340928
 20
-840.2075141196692
 30
0.0
  0
POINT
  5
187
330
5C
100
AcDbEntity
  8
LC-013-200-----0
 62
     7
100
AcDbPoint
 10
129.5004259659072
 20
-581.2075051196698
 30
0.0
  0
POINT
  5
188
330
5C
100
AcDbEntity
  8
LC-013-200-----0
 62
     7
100
AcDbPoint
 10
-129.4995740340928
 20
-581.2075091196675
 30
0.0
  0
LINE
  5
189
330
5C
100
AcDbEntity
  8
1
  6
Continuous
 62
     7
100
AcDbLine
 10
-169.9988455835483
 20
-890.7075141196692
 30
0.0
 11
170.0004299659086
 21
-890.7075141196692
 31
0.0
  0
LINE
  5
18A
330
5C
100
AcDbEntity
  8
1
  6
Continuous
 62
     7
100
AcDbLine
 10
-169.9988455835483
 20
-530.7075051196698
 30
0.0
 11
71.64827996590975
 21
-530.7075051196698
 31
0.0
  0
LINE
  5
18B
330
5C
100
AcDbEntity
  8
1
  6
Continuous
 62
     7
100
AcDbLine
 10
-179.9988455835483
 20
-880.7075141196692
 30
0.0
 11
-179.9988455835483
 21
-540.7075051196698
 31
0.0
  0
LINE
  5
18C
330
5C
100
AcDbEntity
  8
1
  6
Continuous
 62
     7
100
AcDbLine
 10
180.0004299659086
 20
-540.7075051196698
 30
0.0
 11
180.0004299659086
 21
-880.7075141196692
 31
0.0
  0
LINE
  5
18D
330
5C
100
AcDbEntity
  8
LC-001-002-----0
  6
Continuous
 62
     7
100
AcDbLine
 10
170.0004299659086
 20
-530.7075051196698
 30
0.0
 11
71.64827996590975
 21
-530.7075051196698
 31
0.0
  0
LINE
  5
18E
330
5C
100
AcDbEntity
  8
LC-010-006-MLN-0
  6
DASHDOT
 62
     2
100
AcDbLine
 10
-114.7495740340928
 20
-840.2075141196692
 30
0.0
 11
-144.2495740340928
 21
-840.2075141196692
 31
0.0
  0
LINE
  5
18F
330
5C
100
AcDbEntity
  8
LC-001-002-----0
  6
DASHDOT
 62
     2
100
AcDbLine
 10
0.0004259659072
 20
-588.7075091196675
 30
0.0
 11
0.0004259659072
 21
-588.7075091196675
 31
0.0
  0
LINE
  5
190
330
5C
100
AcDbEntity
  8
LC-001-002-----0
  6
DASHDOT
 62
     3
100
AcDbLine
 10
0.0004259659072
 20
-832.7075091196675
 30
0.0
 11
0.0004259659072
 21
-832.7075091196675
 31
0.0
  0
LINE
  5
191
330
5C
100
AcDbEntity
  8
LC-010-006-MLN-0
  6
DASHDOT
 62
     2
100
AcDbLine
 10
129.5004299659086
 20
-853.7075181196669
 30
0.0
 11
129.5004299659086
 21
-826.7075091196675
 31
0.0
  0
LINE
  5
192
330
5C
100
AcDbEntity
  8
LC-010-006-MLN-0
  6
DASHDOT
 62
     2
100
AcDbLine
 10
143.0004339659099
 20
-840.2075141196692
 30
0.0
 11
116.0004259659072
 21
-840.2075141196692
 31
0.0
  0
LINE
  5
193
330
5C
100
AcDbEntity
  8
LC-010-006-MLN-0
  6
DASHDOT
 62
     2
100
AcDbLine
 10
-129.4995790340909
 20
-853.7075181196669
 30
0.0
 11
-129.4995790340909
 21
-826.7075091196675
 31
0.0
  0
LINE
  5
194
330
5C
100
AcDbEntity
  8
LC-010-006-MLN-0
  6
DASHDOT
 62
     2
100
AcDbLine
 10
129.5004299659086
 20
-567.7075011196684
 30
0.0
 11
129.5004299659086
 21
-594.7075091196675
 31
0.0
  0
LINE
  5
195
330
5C
100
AcDbEntity
  8
LC-010-006-MLN-0
  6
DASHDOT
 62
     2
100
AcDbLine
 10
143.0004339659099
 20
-581.2075051196698
 30
0.0
 11
116.0004259659072
 21
-581.2075051196698
 31
0.0
  0
LINE
  5
196
330
5C
100
AcDbEntity
  8
LC-010-006-MLN-0
  6
DASHDOT
 62
     2
100
AcDbLine
 10
-129.4995790340909
 20
-567.7075011196684
 30
0.0
 11
-129.4995790340909
 21
-594.7075091196675
 31
0.0
  0
LINE
  5
197
330
5C
100
AcDbEntity
  8
LC-010-006-MLN-0
  6
DASHDOT
 62
     2
100
AcDbLine
 10
-142.9995830340922
 20
-581.2075051196698
 30
0.0
 11
-115.9995740340928
 21
-581.2075051196698
 31
0.0
  0
LINE
  5
198
330
5C
100
AcDbEntity
  8
1
  6
PHANTOM
 62
     2
100
AcDbLine
 10
0.0
 20
-513.6849243739016
 30
0.0
 11
0.00085278327606
 21
-908.1247340371046
 31
0.0
  0
LINE
  5
199
330
5C
100
AcDbEntity
  8
1
  6
PHANTOM
 62
     2
100
AcDbLine
 10
-204.8234320736774
 20
-710.7088017826063
 30
0.0
 11
199.6979648082815
 21
-710.7070526230455
 31
0.0
  0
LINE
  5
19A
330
5C
100
AcDbEntity
  8
LC-001-002-----0
  6
Continuous
 62
     7
100
AcDbLine
 10
-39.94198603409313
 20
-711.8579161196685
 30
0.0
 11
-3.30548603409261
 21
-711.8579161196685
 31
0.0
  0
LINE
  5
19B
330
5C
100
AcDbEntity
  8
LC-001-002-----0
  6
Continuous
 62
     7
100
AcDbLine
 10
134.2504259659072
 20
-842.9499271196692
 30
0.0
 11
134.2504259659072
 21
-837.4651001196689
 31
0.0
  0
LINE
  5
19C
330
5C
100
AcDbEntity
  8
LC-001-002-----0
  6
Continuous
 62
     7
100
AcDbLine
 10
129.5004259659072
 20
-845.6923411196694
 30
0.0
 11
134.2504259659072
 21
-842.9499271196692
 31
0.0
  0
LINE
  5
19D
330
5C
100
AcDbEntity
  8
LC-001-002-----0
  6
Continuous
 62
     7
100
AcDbLine
 10
124.7504259659072
 20
-842.9499271196692
 30
0.0
 11
129.5004259659072
 21
-845.6923411196694
 31
0.0
  0
LINE
  5
19E
330
5C
100
AcDbEntity
  8
LC-001-002-----0
  6
Continuous
 62
     7
100
AcDbLine
 10
124.7504259659072
 20
-837.4651001196689
 30
0.0
 11
124.7504259659072
 21
-842.9499271196692
 31
0.0
  0
LINE
  5
19F
330
5C
100
AcDbEntity
  8
LC-001-002-----0
  6
Continuous
 62
     7
100
AcDbLine
 10
129.5004259659072
 20
-834.7226861196687
 30
0.0
 11
124.7504259659072
 21
-837.4651001196689
 31
0.0
  0
LINE
  5
1A0
330
5C
100
AcDbEntity
  8
LC-001-002-----0
  6
Continuous
 62
     7
100
AcDbLine
 10
134.2504259659072
 20
-837.4651001196689
 30
0.0
 11
129.5004259659072
 21
-834.7226861196687
 31
0.0
  0
LINE
  5
1A1
330
5C
100
AcDbEntity
  8
LC-001-002-----0
  6
Continuous
 62
     7
100
AcDbLine
 10
-124.7495740340928
 20
-842.9499271196692
 30
0.0
 11
-124.7495740340928
 21
-837.4651001196689
 31
0.0
  0
LINE
  5
1A2
330
5C
100
AcDbEntity
  8
LC-001-002-----0
  6
Continuous
 62
     7
100
AcDbLine
 10
-129.4995740340928
 20
-845.6923411196694
 30
0.0
 11
-124.7495740340928
 21
-842.9499271196692
 31
0.0
  0
LINE
  5
1A3
330
5C
100
AcDbEntity
  8
LC-001-002-----0
  6
Continuous
 62
     7
100
AcDbLine
 10
-134.2495740340928
 20
-842.9499271196692
 30
0.0
 11
-129.4995740340928
 21
-845.6923411196694
 31
0.0
  0
LINE
  5
1A4
330
5C
100
AcDbEntity
  8
LC-001-002-----0
  6
Continuous
 62
     7
100
AcDbLine
 10
-134.2495740340928
 20
-837.4651001196689
 30
0.0
 11
-134.2495740340928
 21
-842.9499271196692
 31
0.0
  0
LINE
  5
1A5
330
5C
100
AcDbEntity
  8
LC-001-002-----0
  6
Continuous
 62
     7
100
AcDbLine
 10
-129.4995740340928
 20
-834.7226861196687
 30
0.0
 11
-134.2495740340928
 21
-837.4651001196689
 31
0.0
  0
LINE
  5
1A6
330
5C
100
AcDbEntity
  8
LC-001-002-----0
  6
Continuous
 62
     7
100
AcDbLine
 10
-124.7495740340928
 20
-837.4651001196689
 30
0.0
 11
-129.4995740340928
 21
-834.7226861196687
 31
0.0
  0
LINE
  5
1A7
330
5C
100
AcDbEntity
  8
LC-001-002-----0
  6
Continuous
 62
     7
100
AcDbLine
 10
134.2504259659072
 20
-583.9499191196701
 30
0.0
 11
134.2504259659072
 21
-578.4650921196699
 31
0.0
  0
LINE
  5
1A8
330
5C
100
AcDbEntity
  8
LC-001-002-----0
  6
Continuous
 62
     7
100
AcDbLine
 10
129.5004259659072
 20
-586.6923331196667
 30
0.0
 11
134.2504259659072
 21
-583.9499191196701
 31
0.0
  0
LINE
  5
1A9
330
5C
100
AcDbEntity
  8
LC-001-002-----0
  6
Continuous
 62
     7
100
AcDbLine
 10
124.7504259659072
 20
-583.9499191196701
 30
0.0
 11
129.5004259659072
 21
-586.6923331196667
 31
0.0
  0
LINE
  5
1AA
330
5C
100
AcDbEntity
  8
LC-001-002-----0
  6
Continuous
 62
     7
100
AcDbLine
 10
124.7504259659072
 20
-578.4650921196699
 30
0.0
 11
124.7504259659072
 21
-583.9499191196701
 31
0.0
  0
LINE
  5
1AB
330
5C
100
AcDbEntity
  8
LC-001-002-----0
  6
Continuous
 62
     7
100
AcDbLine
 10
129.5004259659072
 20
-575.7226781196696
 30
0.0
 11
124.7504259659072
 21
-578.4650921196699
 31
0.0
  0
LINE
  5
1AC
330
5C
100
AcDbEntity
  8
LC-001-002-----0
  6
Continuous
 62
     7
100
AcDbLine
 10
134.2504259659072
 20
-578.4650921196699
 30
0.0
 11
129.5004259659072
 21
-575.7226781196696
 31
0.0
  0
LINE
  5
1AD
330
5C
100
AcDbEntity
  8
LC-001-002-----0
  6
Continuous
 62
     7
100
AcDbLine
 10
-124.7495740340928
 20
-583.9499231196678
 30
0.0
 11
-124.7495740340928
 21
-578.4650961196676
 31
0.0
  0
LINE
  5
1AE
330
5C
100
AcDbEntity
  8
LC-001-002-----0
  6
Continuous
 62
     7
100
AcDbLine
 10
-129.4995740340928
 20
-586.6923371196681
 30
0.0
 11
-124.7495740340928
 21
-583.9499231196678
 31
0.0
  0
LINE
  5
1AF
330
5C
100
AcDbEntity
  8
LC-001-002-----0
  6
Continuous
 62
     7
100
AcDbLine
 10
-134.2495740340928
 20
-583.9499231196678
 30
0.0
 11
-129.4995740340928
 21
-586.6923371196681
 31
0.0
  0
LINE
  5
1B0
330
5C
100
AcDbEntity
  8
LC-001-002-----0
  6
Continuous
 62
     7
100
AcDbLine
 10
-134.2495740340928
 20
-578.4650961196676
 30
0.0
 11
-134.2495740340928
 21
-583.9499231196678
 31
0.0
  0
LINE
  5
1B1
330
5C
100
AcDbEntity
  8
LC-001-002-----0
  6
Continuous
 62
     7
100
AcDbLine
 10
-129.4995740340928
 20
-575.7226821196673
 30
0.0
 11
-134.2495740340928
 21
-578.4650961196676
 31
0.0
  0
LINE
  5
1B2
330
5C
100
AcDbEntity
  8
LC-001-002-----0
  6
Continuous
 62
     7
100
AcDbLine
 10
-124.7495740340928
 20
-578.4650961196676
 30
0.0
 11
-129.4995740340928
 21
-575.7226821196673
 31
0.0
  0
LINE
  5
1B3
330
5C
100
AcDbEntity
  8
LC-001-002-----0
  6
Continuous
 62
     7
100
AcDbLine
 10
1.15019096590913
 20
-625.115641119668
 30
0.0
 11
1.15019096590913
 21
-667.5232251196685
 31
0.0
  0
LINE
  5
1B4
330
5C
100
AcDbEntity
  8
LC-001-002-----0
  6
Continuous
 62
     7
100
AcDbLine
 10
-1.14980903409014
 20
-625.115641119668
 30
0.0
 11
-1.14980903409014
 21
-667.5232251196685
 31
0.0
  0
LINE
  5
1B5
330
5C
100
AcDbEntity
  8
LC-001-002-----0
  6
Continuous
 62
     7
100
AcDbLine
 10
11.80019096590695
 20
-784.7742321196674
 30
0.0
 11
11.80019096590695
 21
-782.7479051196678
 31
0.0
  0
LINE
  5
1B6
330
5C
100
AcDbEntity
  8
LC-001-002-----0
  6
Continuous
 62
     7
100
AcDbLine
 10
-11.7998090340916
 20
-784.7741571196675
 30
0.0
 11
-11.7998090340916
 21
-782.7479051196678
 31
0.0
  0
LINE
  5
1B7
330
5C
100
AcDbEntity
  8
LC-001-002-----0
  6
Continuous
 62
     7
100
AcDbLine
 10
74.06670396590926
 20
-698.9079161196678
 30
0.0
 11
72.04017996590846
 21
-698.9079161196678
 31
0.0
  0
LINE
  5
1B8
330
5C
100
AcDbEntity
  8
LC-001-002-----0
  6
Continuous
 62
     7
100
AcDbLine
 10
74.06670396590926
 20
-722.50791611967
 30
0.0
 11
72.04017996590846
 21
-722.50791611967
 31
0.0
  0
LINE
  5
1B9
330
5C
100
AcDbEntity
  8
LC-001-002-----0
  6
Continuous
 62
     7
100
AcDbLine
 10
-11.7998090340916
 20
-636.6416751196703
 30
0.0
 11
-11.7998090340916
 21
-638.6679271196699
 31
0.0
  0
LINE
  5
1BA
330
5C
100
AcDbEntity
  8
LC-001-002-----0
  6
Continuous
 62
     7
100
AcDbLine
 10
11.80019096590695
 20
-636.6416001196667
 30
0.0
 11
11.80019096590695
 21
-638.6679271196699
 31
0.0
  0
LINE
  5
1BB
330
5C
100
AcDbEntity
  8
LC-001-002-----0
  6
Continuous
 62
     7
100
AcDbLine
 10
-74.06585303409156
 20
-722.50791611967
 30
0.0
 11
-72.03979803409311
 21
-722.50791611967
 31
0.0
  0
LINE
  5
1BC
330
5C
100
AcDbEntity
  8
LC-001-002-----0
  6
Continuous
 62
     7
100
AcDbLine
 10
-74.06585303409156
 20
-698.9079161196678
 30
0.0
 11
-72.03979803409311
 21
-698.9079161196678
 31
0.0
  0
LINE
  5
1BD
330
5C
100
AcDbEntity
  8
LC-001-002-----0
  6
Continuous
 62
     7
100
AcDbLine
 10
1.15019096590913
 20
-718.6917851196667
 30
0.0
 11
1.15019096590913
 21
-714.0135931196673
 31
0.0
  0
LINE
  5
1BE
330
5C
100
AcDbEntity
  8
LC-001-002-----0
  6
Continuous
 62
     7
100
AcDbLine
 10
-1.14980903409014
 20
-718.6917851196667
 30
0.0
 11
-1.14980903409014
 21
-714.0135931196673
 31
0.0
  0
LINE
  5
1BF
330
5C
100
AcDbEntity
  8
LC-001-002-----0
  6
Continuous
 62
     7
100
AcDbLine
 10
1.2001909659084
 20
-718.6917851196667
 30
0.0
 11
1.15019096590913
 21
-718.6917851196667
 31
0.0
  0
LINE
  5
1C0
330
5C
100
AcDbEntity
  8
LC-001-002-----0
  6
Continuous
 62
     7
100
AcDbLine
 10
-1.19980903409305
 20
-718.6917851196667
 30
0.0
 11
-1.14980903409014
 21
-718.6917851196667
 31
0.0
  0
LINE
  5
1C1
330
5C
100
AcDbEntity
  8
LC-001-002-----0
  6
Continuous
 62
     7
100
AcDbLine
 10
1.15019096590913
 20
-744.6917851196667
 30
0.0
 11
1.2001909659084
 21
-744.6917851196667
 31
0.0
  0
LINE
  5
1C2
330
5C
100
AcDbEntity
  8
LC-001-002-----0
  6
Continuous
 62
     7
100
AcDbLine
 10
-2.19980903409305
 20
-719.6917851196667
 30
0.0
 11
-2.19980903409305
 21
-743.6917851196667
 31
0.0
  0
LINE
  5
1C3
330
5C
100
AcDbEntity
  8
LC-001-002-----0
  6
Continuous
 62
     7
100
AcDbLine
 10
-1.19980903409305
 20
-744.6917851196667
 30
0.0
 11
-1.14980903409014
 21
-744.6917851196667
 31
0.0
  0
LINE
  5
1C4
330
5C
100
AcDbEntity
  8
LC-001-002-----0
  6
Continuous
 62
     7
100
AcDbLine
 10
2.2001909659084
 20
-719.6917851196667
 30
0.0
 11
2.2001909659084
 21
-743.6917851196667
 31
0.0
  0
LINE
  5
1C5
330
5C
100
AcDbEntity
  8
LC-001-002-----0
  6
Continuous
 62
     7
100
AcDbLine
 10
1.15019096590913
 20
-670.5221551196701
 30
0.0
 11
1.15019096590913
 21
-676.7240471196674
 31
0.0
  0
LINE
  5
1C6
330
5C
100
AcDbEntity
  8
LC-001-002-----0
  6
Continuous
 62
     7
100
AcDbLine
 10
-1.14980903409014
 20
-702.7240471196674
 30
0.0
 11
-1.14980903409014
 21
-707.4022391196704
 31
0.0
  0
LINE
  5
1C7
330
5C
100
AcDbEntity
  8
LC-001-002-----0
  6
Continuous
 62
     7
100
AcDbLine
 10
1.2001909659084
 20
-702.7240471196674
 30
0.0
 11
1.15019096590913
 21
-702.7240471196674
 31
0.0
  0
LINE
  5
1C8
330
5C
100
AcDbEntity
  8
LC-001-002-----0
  6
Continuous
 62
     7
100
AcDbLine
 10
-1.19980903409305
 20
-702.7240471196674
 30
0.0
 11
-1.14980903409014
 21
-702.7240471196674
 31
0.0
  0
LINE
  5
1C9
330
5C
100
AcDbEntity
  8
LC-001-002-----0
  6
Continuous
 62
     7
100
AcDbLine
 10
1.15019096590913
 20
-676.7240471196674
 30
0.0
 11
1.2001909659084
 21
-676.7240471196674
 31
0.0
  0
LINE
  5
1CA
330
5C
100
AcDbEntity
  8
LC-001-002-----0
  6
Continuous
 62
     7
100
AcDbLine
 10
-2.19980903409305
 20
-701.7240471196674
 30
0.0
 11
-2.19980903409305
 21
-677.7240471196674
 31
0.0
  0
LINE
  5
1CB
330
5C
100
AcDbEntity
  8
LC-001-002-----0
  6
Continuous
 62
     7
100
AcDbLine
 10
-1.19980903409305
 20
-676.7240471196674
 30
0.0
 11
-1.14980903409014
 21
-676.7240471196674
 31
0.0
  0
LINE
  5
1CC
330
5C
100
AcDbEntity
  8
LC-001-002-----0
  6
Continuous
 62
     7
100
AcDbLine
 10
2.2001909659084
 20
-701.7240471196674
 30
0.0
 11
2.2001909659084
 21
-677.7240471196674
 31
0.0
  0
LINE
  5
1CD
330
5C
100
AcDbEntity
  8
LC-001-002-----0
  6
Continuous
 62
     7
100
AcDbLine
 10
1.15019096590913
 20
-750.6500931196679
 30
0.0
 11
1.15019096590913
 21
-744.6917851196667
 31
0.0
  0
LINE
  5
1CE
330
5C
100
AcDbEntity
  8
LC-001-002-----0
  6
Continuous
 62
     7
100
AcDbLine
 10
-1.14980903409014
 20
-750.6500931196679
 30
0.0
 11
-1.14980903409014
 21
-744.6917851196667
 31
0.0
  0
LINE
  5
1CF
330
5C
100
AcDbEntity
  8
LC-001-002-----0
  6
Continuous
 62
     7
100
AcDbLine
 10
29.05674796590756
 20
-738.1381271196697
 30
0.0
 11
3.15082996590718
 21
-712.2322101196696
 31
0.0
  0
LINE
  5
1D0
330
5C
100
AcDbEntity
  8
LC-001-002-----0
  6
Continuous
 62
     7
100
AcDbLine
 10
27.43040196590664
 20
-739.764473119667
 30
0.0
 11
1.52448496591023
 21
-713.8585551196702
 31
0.0
  0
LINE
  5
1D1
330
5C
100
AcDbEntity
  8
LC-001-002-----0
  6
Continuous
 62
     7
100
AcDbLine
 10
-27.43002103409162
 20
-739.764473119667
 30
0.0
 11
-1.52410303409124
 21
-713.8585551196702
 31
0.0
  0
LINE
  5
1D2
330
5C
100
AcDbEntity
  8
LC-001-002-----0
  6
Continuous
 62
     7
100
AcDbLine
 10
-29.05636603409221
 20
-738.1381271196697
 30
0.0
 11
-3.15044803409182
 21
-712.2322101196696
 31
0.0
  0
LINE
  5
1D3
330
5C
100
AcDbEntity
  8
LC-001-002-----0
  6
Continuous
 62
     7
100
AcDbLine
 10
73.55027496590992
 20
-754.4999831196692
 30
0.0
 11
36.82422996590685
 21
-733.2961901196686
 31
0.0
  0
LINE
  5
1D4
330
5C
100
AcDbEntity
  8
LC-001-002-----0
  6
Continuous
 62
     7
100
AcDbLine
 10
74.70027496590774
 20
-752.5081241196676
 30
0.0
 11
37.97422996590831
 21
-731.3043321196674
 31
0.0
  0
LINE
  5
1D5
330
5C
100
AcDbEntity
  8
LC-001-002-----0
  6
Continuous
 62
     7
100
AcDbLine
 10
82.37833796590712
 20
-733.9716411196678
 30
0.0
 11
41.41575696590735
 21
-722.9957511196699
 31
0.0
  0
LINE
  5
1D6
330
5C
100
AcDbEntity
  8
LC-001-002-----0
  6
Continuous
 62
     7
100
AcDbLine
 10
82.97362196590984
 20
-731.7500121196681
 30
0.0
 11
42.01104096591007
 21
-720.7741221196702
 31
0.0
  0
LINE
  5
1D7
330
5C
100
AcDbEntity
  8
LC-001-002-----0
  6
Continuous
 62
     7
100
AcDbLine
 10
61.33624196590972
 20
-770.4176211196682
 30
0.0
 11
31.34955096590784
 21
-740.4309311196666
 31
0.0
  0
LINE
  5
1D8
330
5C
100
AcDbEntity
  8
LC-001-002-----0
  6
Continuous
 62
     7
100
AcDbLine
 10
59.7098959659088
 20
-772.0439671196691
 30
0.0
 11
29.72320596590726
 21
-742.0572761196672
 31
0.0
  0
LINE
  5
1D9
330
5C
100
AcDbEntity
  8
LC-001-002-----0
  6
Continuous
 62
     7
100
AcDbLine
 10
43.79225696590947
 20
-784.2580001196693
 30
0.0
 11
22.58846496590923
 21
-747.5319551196699
 31
0.0
  0
LINE
  5
1DA
330
5C
100
AcDbEntity
  8
LC-001-002-----0
  6
Continuous
 62
     7
100
AcDbLine
 10
41.80039896590824
 20
-785.4080001196671
 30
0.0
 11
20.596606965908
 21
-748.6819551196677
 31
0.0
  0
LINE
  5
1DB
330
5C
100
AcDbEntity
  8
LC-001-002-----0
  6
Continuous
 62
     7
100
AcDbLine
 10
21.04228696590872
 20
-793.6813471196692
 30
0.0
 11
10.06639696590719
 21
-752.7187661196695
 31
0.0
  0
LINE
  5
1DC
330
5C
100
AcDbEntity
  8
LC-001-002-----0
  6
Continuous
 62
     7
100
AcDbLine
 10
23.26391596590838
 20
-793.0860631196701
 30
0.0
 11
12.28802596590685
 21
-752.1234821196667
 31
0.0
  0
LINE
  5
1DD
330
5C
100
AcDbEntity
  8
LC-001-002-----0
  6
Continuous
 62
     7
100
AcDbLine
 10
-1.14980903409014
 20
-796.3001911196698
 30
0.0
 11
-1.14980903409014
 21
-753.8926071196693
 31
0.0
  0
LINE
  5
1DE
330
5C
100
AcDbEntity
  8
LC-001-002-----0
  6
Continuous
 62
     7
100
AcDbLine
 10
1.15019096590913
 20
-796.3001911196698
 30
0.0
 11
1.15019096590913
 21
-753.8926071196693
 31
0.0
  0
LINE
  5
1DF
330
5C
100
AcDbEntity
  8
LC-001-002-----0
  6
Continuous
 62
     7
100
AcDbLine
 10
-21.04190503409336
 20
-793.6813471196692
 30
0.0
 11
-10.06601503409183
 21
-752.7187661196695
 31
0.0
  0
LINE
  5
1E0
330
5C
100
AcDbEntity
  8
LC-001-002-----0
  6
Continuous
 62
     7
100
AcDbLine
 10
-23.26353503409337
 20
-793.0860631196701
 30
0.0
 11
-12.2876440340915
 21
-752.1234821196667
 31
0.0
  0
LINE
  5
1E1
330
5C
100
AcDbEntity
  8
LC-001-002-----0
  6
Continuous
 62
     7
100
AcDbLine
 10
-41.80001703409289
 20
-785.4080001196671
 30
0.0
 11
-20.59622503409264
 21
-748.6819551196677
 31
0.0
  0
LINE
  5
1E2
330
5C
100
AcDbEntity
  8
LC-001-002-----0
  6
Continuous
 62
     7
100
AcDbLine
 10
-43.79187603409082
 20
-784.2580001196693
 30
0.0
 11
-22.58808403409057
 21
-747.5319551196699
 31
0.0
  0
LINE
  5
1E3
330
5C
100
AcDbEntity
  8
LC-001-002-----0
  6
Continuous
 62
     7
100
AcDbLine
 10
-59.70951403408981
 20
-772.0439671196691
 30
0.0
 11
-29.7228240340919
 21
-742.0572761196672
 31
0.0
  0
LINE
  5
1E4
330
5C
100
AcDbEntity
  8
LC-001-002-----0
  6
Continuous
 62
     7
100
AcDbLine
 10
-61.33586003409073
 20
-770.4176211196682
 30
0.0
 11
-31.34916903409248
 21
-740.4309311196666
 31
0.0
  0
LINE
  5
1E5
330
5C
100
AcDbEntity
  8
LC-001-002-----0
  6
Continuous
 62
     7
100
AcDbLine
 10
-73.54989303409093
 20
-754.4999831196692
 30
0.0
 11
-36.8238480340915
 21
-733.2961901196686
 31
0.0
  0
LINE
  5
1E6
330
5C
100
AcDbEntity
  8
LC-001-002-----0
  6
Continuous
 62
     7
100
AcDbLine
 10
-82.37795603409177
 20
-733.9716411196678
 30
0.0
 11
-41.41537503409199
 21
-722.9957511196699
 31
0.0
  0
LINE
  5
1E7
330
5C
100
AcDbEntity
  8
LC-001-002-----0
  6
Continuous
 62
     7
100
AcDbLine
 10
-82.97324003409085
 20
-731.7500121196681
 30
0.0
 11
-42.01065903409108
 21
-720.7741221196702
 31
0.0
  0
LINE
  5
1E8
330
5C
100
AcDbEntity
  8
LC-001-002-----0
  6
Continuous
 62
     7
100
AcDbLine
 10
85.59246596590674
 20
-711.8579161196685
 30
0.0
 11
43.18488096590954
 21
-711.8579161196685
 31
0.0
  0
LINE
  5
1E9
330
5C
100
AcDbEntity
  8
LC-001-002-----0
  6
Continuous
 62
     7
100
AcDbLine
 10
85.59246596590674
 20
-709.5579161196692
 30
0.0
 11
43.18488096590954
 21
-709.5579161196692
 31
0.0
  0
LINE
  5
1EA
330
5C
100
AcDbEntity
  8
LC-001-002-----0
  6
Continuous
 62
     7
100
AcDbLine
 10
82.97362196590984
 20
-689.6658201196697
 30
0.0
 11
42.01104096591007
 21
-700.6417101196676
 31
0.0
  0
LINE
  5
1EB
330
5C
100
AcDbEntity
  8
LC-001-002-----0
  6
Continuous
 62
     7
100
AcDbLine
 10
82.37833796590712
 20
-687.4441901196697
 30
0.0
 11
41.41575696590735
 21
-698.4200811196679
 31
0.0
  0
LINE
  5
1EC
330
5C
100
AcDbEntity
  8
LC-001-002-----0
  6
Continuous
 62
     7
100
AcDbLine
 10
73.55027496590992
 20
-666.9158491196686
 30
0.0
 11
36.82422996590685
 21
-688.1196411196688
 31
0.0
  0
LINE
  5
1ED
330
5C
100
AcDbEntity
  8
LC-001-002-----0
  6
Continuous
 62
     7
100
AcDbLine
 10
74.70027496590774
 20
-668.9077081196701
 30
0.0
 11
37.97422996590831
 21
-690.1115001196667
 31
0.0
  0
LINE
  5
1EE
330
5C
100
AcDbEntity
  8
LC-001-002-----0
  6
Continuous
 62
     7
100
AcDbLine
 10
61.33624196590972
 20
-650.9982111196696
 30
0.0
 11
31.34955096590784
 21
-680.9849011196675
 31
0.0
  0
LINE
  5
1EF
330
5C
100
AcDbEntity
  8
LC-001-002-----0
  6
Continuous
 62
     7
100
AcDbLine
 10
59.7098959659088
 20
-649.3718651196687
 30
0.0
 11
29.72320596590726
 21
-679.3585561196669
 31
0.0
  0
LINE
  5
1F0
330
5C
100
AcDbEntity
  8
LC-001-002-----0
  6
Continuous
 62
     7
100
AcDbLine
 10
43.79225696590947
 20
-637.1578321196685
 30
0.0
 11
22.58846496590923
 21
-673.8838771196679
 31
0.0
  0
LINE
  5
1F1
330
5C
100
AcDbEntity
  8
LC-001-002-----0
  6
Continuous
 62
     7
100
AcDbLine
 10
41.80039896590824
 20
-636.007832119667
 30
0.0
 11
20.596606965908
 21
-672.7338771196701
 31
0.0
  0
LINE
  5
1F2
330
5C
100
AcDbEntity
  8
LC-001-002-----0
  6
Continuous
 62
     7
100
AcDbLine
 10
23.26391596590838
 20
-628.3297691196676
 30
0.0
 11
12.28802596590685
 21
-669.2923501196674
 31
0.0
  0
LINE
  5
1F3
330
5C
100
AcDbEntity
  8
LC-001-002-----0
  6
Continuous
 62
     7
100
AcDbLine
 10
21.04228696590872
 20
-627.7344851196685
 30
0.0
 11
10.06639696590719
 21
-668.6970661196683
 31
0.0
  0
LINE
  5
1F4
330
5C
100
AcDbEntity
  8
LC-001-002-----0
  6
Continuous
 62
     7
100
AcDbLine
 10
39.94236796590849
 20
-709.5579161196692
 30
0.0
 11
3.30586796590796
 21
-709.5579161196692
 31
0.0
  0
LINE
  5
1F5
330
5C
100
AcDbEntity
  8
LC-001-002-----0
  6
Continuous
 62
     7
100
AcDbLine
 10
39.94236796590849
 20
-711.8579161196685
 30
0.0
 11
3.30586796590796
 21
-711.8579161196685
 31
0.0
  0
LINE
  5
1F6
330
5C
100
AcDbEntity
  8
LC-001-002-----0
  6
Continuous
 62
     7
100
AcDbLine
 10
-74.69989303409238
 20
-752.5081241196676
 30
0.0
 11
-37.97384803409295
 21
-731.3043321196674
 31
0.0
  0
LINE
  5
1F7
330
5C
100
AcDbEntity
  8
LC-001-002-----0
  6
Continuous
 62
     7
100
AcDbLine
 10
27.43040196590664
 20
-681.6513591196672
 30
0.0
 11
1.52448496591023
 21
-707.5572771196676
 31
0.0
  0
LINE
  5
1F8
330
5C
100
AcDbEntity
  8
LC-001-002-----0
  6
Continuous
 62
     7
100
AcDbLine
 10
29.05674796590756
 20
-683.2777051196681
 30
0.0
 11
3.15082996590718
 21
-709.1836221196681
 31
0.0
  0
LINE
  5
1F9
330
5C
100
AcDbEntity
  8
LC-001-002-----0
  6
Continuous
 62
     7
100
AcDbLine
 10
-1.14980903409014
 20
-670.5221551196701
 30
0.0
 11
-1.14980903409014
 21
-676.7240471196674
 31
0.0
  0
LINE
  5
1FA
330
5C
100
AcDbEntity
  8
LC-001-002-----0
  6
Continuous
 62
     7
100
AcDbLine
 10
1.15019096590913
 20
-702.7240471196674
 30
0.0
 11
1.15019096590913
 21
-707.4022391196704
 31
0.0
  0
LINE
  5
1FB
330
5C
100
AcDbEntity
  8
LC-001-002-----0
  6
Continuous
 62
     7
100
AcDbLine
 10
-29.05636603409221
 20
-683.2777051196681
 30
0.0
 11
-3.15044803409182
 21
-709.1836221196681
 31
0.0
  0
LINE
  5
1FC
330
5C
100
AcDbEntity
  8
LC-001-002-----0
  6
Continuous
 62
     7
100
AcDbLine
 10
-27.43002103409162
 20
-681.6513591196672
 30
0.0
 11
-1.52410303409124
 21
-707.5572771196676
 31
0.0
  0
LINE
  5
1FD
330
5C
100
AcDbEntity
  8
LC-001-002-----0
  6
Continuous
 62
     7
100
AcDbLine
 10
-21.04190503409336
 20
-627.7344851196685
 30
0.0
 11
-10.06601503409183
 21
-668.6970661196683
 31
0.0
  0
LINE
  5
1FE
330
5C
100
AcDbEntity
  8
LC-001-002-----0
  6
Continuous
 62
     7
100
AcDbLine
 10
-23.26353503409337
 20
-628.3297691196676
 30
0.0
 11
-12.2876440340915
 21
-669.2923501196674
 31
0.0
  0
LINE
  5
1FF
330
5C
100
AcDbEntity
  8
LC-001-002-----0
  6
Continuous
 62
     7
100
AcDbLine
 10
-43.79187603409082
 20
-637.1578321196685
 30
0.0
 11
-22.58808403409057
 21
-673.8838771196679
 31
0.0
  0
LINE
  5
200
330
5C
100
AcDbEntity
  8
LC-001-002-----0
  6
Continuous
 62
     7
100
AcDbLine
 10
-41.80001703409289
 20
-636.007832119667
 30
0.0
 11
-20.59622503409264
 21
-672.7338771196701
 31
0.0
  0
LINE
  5
201
330
5C
100
AcDbEntity
  8
LC-001-002-----0
  6
Continuous
 62
     7
100
AcDbLine
 10
-61.33586003409073
 20
-650.9982111196696
 30
0.0
 11
-31.34916903409248
 21
-680.9849011196675
 31
0.0
  0
LINE
  5
202
330
5C
100
AcDbEntity
  8
LC-001-002-----0
  6
Continuous
 62
     7
100
AcDbLine
 10
-59.70951403408981
 20
-649.3718651196687
 30
0.0
 11
-29.7228240340919
 21
-679.3585561196669
 31
0.0
  0
LINE
  5
203
330
5C
100
AcDbEntity
  8
LC-001-002-----0
  6
Continuous
 62
     7
100
AcDbLine
 10
-73.54989303409093
 20
-666.9158491196686
 30
0.0
 11
-36.8238480340915
 21
-688.1196411196688
 31
0.0
  0
LINE
  5
204
330
5C
100
AcDbEntity
  8
LC-001-002-----0
  6
Continuous
 62
     7
100
AcDbLine
 10
-74.69989303409238
 20
-668.9077081196701
 30
0.0
 11
-37.97384803409295
 21
-690.1115001196667
 31
0.0
  0
LINE
  5
205
330
5C
100
AcDbEntity
  8
LC-001-002-----0
  6
Continuous
 62
     7
100
AcDbLine
 10
-82.97324003409085
 20
-689.6658201196697
 30
0.0
 11
-42.01065903409108
 21
-700.6417101196676
 31
0.0
  0
LINE
  5
206
330
5C
100
AcDbEntity
  8
LC-001-002-----0
  6
Continuous
 62
     7
100
AcDbLine
 10
-82.37795603409177
 20
-687.4441901196697
 30
0.0
 11
-41.41537503409199
 21
-698.4200811196679
 31
0.0
  0
LINE
  5
207
330
5C
100
AcDbEntity
  8
LC-001-002-----0
  6
Continuous
 62
     7
100
AcDbLine
 10
-39.94198603409313
 20
-709.5579161196692
 30
0.0
 11
-3.30548603409261
 21
-709.5579161196692
 31
0.0
  0
LINE
  5
208
330
5C
100
AcDbEntity
  8
LC-001-002-----0
  6
Continuous
 62
     7
100
AcDbLine
 10
-63.36283103409005
 20
-711.8579161196685
 30
0.0
 11
-43.18450003409089
 21
-711.8579161196685
 31
0.0
  0
LINE
  5
209
330
5C
100
AcDbEntity
  8
LC-001-002-----0
  6
Continuous
 62
     7
100
AcDbLine
 10
-85.59208403409139
 20
-711.8579161196685
 30
0.0
 11
-43.18450003409089
 21
-711.8579161196685
 31
0.0
  0
LINE
  5
20A
330
5C
100
AcDbEntity
  8
LC-001-002-----0
  6
Continuous
 62
     7
100
AcDbLine
 10
-85.59208403409139
 20
-709.5579161196692
 30
0.0
 11
-43.18450003409089
 21
-709.5579161196692
 31
0.0
  0
LINE
  5
20B
330
5C
100
AcDbEntity
  8
LC-001-002-----0
  6
Continuous
 62
     7
100
AcDbLine
 10
-188.9999610340929
 20
-531.7087121196673
 30
0.0
 11
-188.9991870340928
 21
-889.7087121196673
 31
0.0
  0
LINE
  5
20C
330
5C
100
AcDbEntity
  8
LC-001-002-----0
  6
Continuous
 62
     7
100
AcDbLine
 10
-179.0000050340932
 20
-521.7086901196672
 30
0.0
 11
178.9999949659068
 21
-521.707142119667
 31
0.0
  0
LINE
  5
20D
330
5C
100
AcDbEntity
  8
LC-007-007-KH--0
  6
DASHDOT
 62
     7
100
AcDbLine
 10
0.00022196590726
 20
-623.2087181196694
 30
0.0
 11
0.00022196590726
 21
-623.2087181196694
 31
0.0
  0
LINE
  5
20E
330
5C
100
AcDbEntity
  8
LC-001-002-----0
  6
Continuous
 62
     7
100
AcDbLine
 10
189.0000389659072
 20
-531.7071201196668
 30
0.0
 11
189.0008129659072
 21
-889.7071201196668
 31
0.0
  0
LINE
  5
20F
330
5C
100
AcDbEntity
  8
LC-001-002-----0
  6
Continuous
 62
     7
100
AcDbLine
 10
-178.9991440340928
 20
-899.7086901196672
 30
0.0
 11
179.0008559659073
 21
-899.707142119667
 31
0.0
  0
LINE
  5
210
330
5C
100
AcDbEntity
  8
LC-007-007-KH--0
  6
DASHDOT
 62
     7
100
AcDbLine
 10
0.00038796590889
 20
-798.2059851196682
 30
0.0
 11
0.00038796590889
 21
-798.2059851196682
 31
0.0
  0
ARC
  5
211
330
5C
100
AcDbEntity
  8
LC-002-002-RND-0
  6
Continuous
 62
     7
100
AcDbCircle
 10
-169.9988455835483
 20
-540.7075051196698
 30
0.0
 40
10.0
100
AcDbArc
 50
90.0
 51
180.0
  0
ARC
  5
212
330
5C
100
AcDbEntity
  8
LC-002-002-RND-0
  6
Continuous
 62
     7
100
AcDbCircle
 10
-169.9988455835483
 20
-880.7075141196692
 30
0.0
 40
10.0
100
AcDbArc
 50
180.0
 51
-90.0
  0
ARC
  5
213
330
5C
100
AcDbEntity
  8
LC-002-002-RND-0
  6
Continuous
 62
     7
100
AcDbCircle
 10
170.0004299659086
 20
-880.7075141196692
 30
0.0
 40
10.0
100
AcDbArc
 50
-90.0
 51
0.0
  0
ARC
  5
214
330
5C
100
AcDbEntity
  8
LC-002-002-RND-0
  6
Continuous
 62
     7
100
AcDbCircle
 10
170.0004299659086
 20
-540.7075051196698
 30
0.0
 40
10.0
100
AcDbArc
 50
0.0
 51
90.0
  0
ARC
  5
215
330
5C
100
AcDbEntity
  8
LC-002-002-RND-0
  6
Continuous
 62
     7
100
AcDbCircle
 10
170.0004299659086
 20
-540.7075051196698
 30
0.0
 40
10.0
100
AcDbArc
 50
0.0
 51
90.0
  0
ARC
  5
216
330
5C
100
AcDbEntity
  8
LC-001-002-----0
  6
Continuous
 62
     7
100
AcDbCircle
 10
0.00022196590726
 20
-710.7087181196694
 30
0.0
 40
85.59999999999923
100
AcDbArc
 50
149.2302319999992
 51
150.7697679999989
  0
ARC
  5
217
330
5C
100
AcDbEntity
  8
LC-001-002-----0
  6
Continuous
 62
     7
100
AcDbCircle
 10
129.5004259659072
 20
-840.2075141196692
 30
0.0
 40
8.000000000000348
100
AcDbArc
 50
174.0618800000004
 51
95.93874299997321
  0
ARC
  5
218
330
5C
100
AcDbEntity
  8
LC-001-002-----0
  6
Continuous
 62
     7
100
AcDbCircle
 10
-129.4995740340928
 20
-840.2075141196692
 30
0.0
 40
8.000000000000307
100
AcDbArc
 50
84.06450299998153
 51
5.93505400001007
  0
ARC
  5
219
330
5C
100
AcDbEntity
  8
LC-001-002-----0
  6
Continuous
 62
     7
100
AcDbCircle
 10
129.5004259659072
 20
-581.2075051196698
 30
0.0
 40
7.999999999999437
100
AcDbArc
 50
-95.9569820000217
 51
-174.0425720000133
  0
ARC
  5
21A
330
5C
100
AcDbEntity
  8
LC-001-002-----0
  6
Continuous
 62
     7
100
AcDbCircle
 10
-129.4995740340928
 20
-581.2075091196675
 30
0.0
 40
8.000000000000203
100
AcDbArc
 50
-5.95432800000744
 51
-84.04629700000338
  0
ARC
  5
21B
330
5C
100
AcDbEntity
  8
LC-001-002-----0
  6
Continuous
 62
     7
100
AcDbCircle
 10
129.5004299659086
 20
-840.2075091196675
 30
0.0
 40
9.000000000000433
100
AcDbArc
 50
-179.0549479999894
 51
89.05557500001925
  0
ARC
  5
21C
330
5C
100
AcDbEntity
  8
LC-001-002-----0
  6
Continuous
 62
     7
100
AcDbCircle
 10
-129.4995790340909
 20
-840.2075091196675
 30
0.0
 40
8.999999999997186
100
AcDbArc
 50
90.94697399999802
 51
-0.94742100000244
  0
ARC
  5
21D
330
5C
100
AcDbEntity
  8
LC-001-002-----0
  6
Continuous
 62
     7
100
AcDbCircle
 10
129.5004299659086
 20
-581.2075091196675
 30
0.0
 40
8.999999999999687
100
AcDbArc
 50
-89.0696670000161
 51
179.0701100000164
  0
ARC
  5
21E
330
5C
100
AcDbEntity
  8
LC-001-002-----0
  6
Continuous
 62
     7
100
AcDbCircle
 10
-129.4995790340909
 20
-581.2075091196675
 30
0.0
 40
8.99999999999944
100
AcDbArc
 50
0.93225899998888
 51
-90.93288200001386
  0
ARC
  5
21F
330
5C
100
AcDbEntity
  8
LC-001-002-----0
  6
Continuous
 62
     7
100
AcDbCircle
 10
0.0004259659072
 20
-710.7075091196675
 30
0.0
 40
59.50050099999893
100
AcDbArc
 50
-178.8921509999984
 51
-166.1071369999981
  0
ARC
  5
220
330
5C
100
AcDbEntity
  8
LC-001-002-----0
  6
Continuous
 62
     7
100
AcDbCircle
 10
0.0004259659072
 20
-710.7075091196675
 30
0.0
 40
63.00057099999841
100
AcDbArc
 50
-178.9537059999984
 51
-166.0456219999979
  0
ARC
  5
221
330
5C
100
AcDbEntity
  8
LC-001-002-----0
  6
Continuous
 62
     7
100
AcDbCircle
 10
0.0004259659072
 20
-710.7079161196671
 30
0.0
 40
75.00035699999906
100
AcDbArc
 50
-179.1214339999993
 51
-165.8786119999988
  0
ARC
  5
222
330
5C
100
AcDbEntity
  8
LC-001-002-----0
  6
Continuous
 62
     7
100
AcDbCircle
 10
0.0004259659072
 20
-710.7079161196671
 30
0.0
 40
79.00004899999725
100
AcDbArc
 50
-179.1659190000003
 51
-165.834124999997
  0
ARC
  5
223
330
5C
100
AcDbEntity
  8
LC-001-002-----0
  6
Continuous
 62
     7
100
AcDbCircle
 10
0.0004259659072
 20
-710.7079161196671
 30
0.0
 40
79.00004899999877
100
AcDbArc
 50
-164.1659629999999
 51
-150.8341669999992
  0
ARC
  5
224
330
5C
100
AcDbEntity
  8
LC-001-002-----0
  6
Continuous
 62
     7
100
AcDbCircle
 10
0.0004259659072
 20
-710.7079161196671
 30
0.0
 40
75.00035699999815
100
AcDbArc
 50
-164.1214809999979
 51
-150.8786549999995
  0
ARC
  5
225
330
5C
100
AcDbEntity
  8
LC-001-002-----0
  6
Continuous
 62
     7
100
AcDbCircle
 10
0.0004259659072
 20
-710.7075091196675
 30
0.0
 40
63.00057099999915
100
AcDbArc
 50
-163.953774
 51
-151.0457099999991
  0
ARC
  5
226
330
5C
100
AcDbEntity
  8
LC-001-002-----0
  6
Continuous
 62
     7
100
AcDbCircle
 10
0.0004259659072
 20
-710.7075091196675
 30
0.0
 40
59.50050100000082
100
AcDbArc
 50
-163.8922230000004
 51
-151.1072309999998
  0
ARC
  5
227
330
5C
100
AcDbEntity
  8
LC-001-002-----0
  6
Continuous
 62
     7
100
AcDbCircle
 10
0.0004259659072
 20
-710.7075091196675
 30
0.0
 40
59.50050100000036
100
AcDbArc
 50
-148.8923169999987
 51
-136.107339999998
  0
ARC
  5
228
330
5C
100
AcDbEntity
  8
LC-001-002-----0
  6
Continuous
 62
     7
100
AcDbCircle
 10
0.0004259659072
 20
-710.7075091196675
 30
0.0
 40
63.00057100000041
100
AcDbArc
 50
-148.953862999997
 51
-136.0458129999997
  0
ARC
  5
229
330
5C
100
AcDbEntity
  8
LC-001-002-----0
  6
Continuous
 62
     7
100
AcDbCircle
 10
0.0004259659072
 20
-710.7079161196671
 30
0.0
 40
75.00035699999897
100
AcDbArc
 50
-149.1215239999985
 51
-135.8786919999978
  0
ARC
  5
22A
330
5C
100
AcDbEntity
  8
LC-001-002-----0
  6
Continuous
 62
     7
100
AcDbCircle
 10
0.0004259659072
 20
-710.7079161196671
 30
0.0
 40
79.00004899999767
100
AcDbArc
 50
-149.1660039999984
 51
-135.8342019999981
  0
ARC
  5
22B
330
5C
100
AcDbEntity
  8
LC-001-002-----0
  6
Continuous
 62
     7
100
AcDbCircle
 10
0.0004259659072
 20
-710.7075091196675
 30
0.0
 40
59.50050100000017
100
AcDbArc
 50
-133.8924259999982
 51
-121.107456999998
  0
ARC
  5
22C
330
5C
100
AcDbEntity
  8
LC-001-002-----0
  6
Continuous
 62
     7
100
AcDbCircle
 10
0.0004259659072
 20
-710.7075091196675
 30
0.0
 40
63.00057099999822
100
AcDbArc
 50
-133.9539659999994
 51
-121.0459239999976
  0
ARC
  5
22D
330
5C
100
AcDbEntity
  8
LC-001-002-----0
  6
Continuous
 62
     7
100
AcDbCircle
 10
0.0004259659072
 20
-710.7079161196671
 30
0.0
 40
75.00035700000078
100
AcDbArc
 50
-134.1215609999977
 51
-120.8787209999988
  0
ARC
  5
22E
330
5C
100
AcDbEntity
  8
LC-001-002-----0
  6
Continuous
 62
     7
100
AcDbCircle
 10
0.0004259659072
 20
-710.7079161196671
 30
0.0
 40
79.00004900000005
100
AcDbArc
 50
-119.1660660000005
 51
-105.8342459999984
  0
ARC
  5
22F
330
5C
100
AcDbEntity
  8
LC-001-002-----0
  6
Continuous
 62
     7
100
AcDbCircle
 10
0.0004259659072
 20
-710.7079161196671
 30
0.0
 40
75.00035700000015
100
AcDbArc
 50
-119.1215899999991
 51
-105.8787389999985
  0
ARC
  5
230
330
5C
100
AcDbEntity
  8
LC-001-002-----0
  6
Continuous
 62
     7
100
AcDbCircle
 10
0.0004259659072
 20
-710.7075091196675
 30
0.0
 40
63.00057100000047
100
AcDbArc
 50
-118.9540760000001
 51
-106.0460339999991
  0
ARC
  5
231
330
5C
100
AcDbEntity
  8
LC-001-002-----0
  6
Continuous
 62
     7
100
AcDbCircle
 10
0.0004259659072
 20
-710.7075091196675
 30
0.0
 40
59.50050099999817
100
AcDbArc
 50
-118.8925429999979
 51
-106.1075739999995
  0
ARC
  5
232
330
5C
100
AcDbEntity
  8
LC-001-002-----0
  6
Continuous
 62
     7
100
AcDbCircle
 10
0.0004259659072
 20
-710.7075091196675
 30
0.0
 40
63.0005710000008
100
AcDbArc
 50
-103.9541870000003
 51
-91.04613699999946
  0
ARC
  5
233
330
5C
100
AcDbEntity
  8
LC-001-002-----0
  6
Continuous
 62
     7
100
AcDbCircle
 10
0.0004259659072
 20
-710.7079161196671
 30
0.0
 40
79.00004900000097
100
AcDbArc
 50
-89.16608899999859
 51
-75.83424599999877
  0
ARC
  5
234
330
5C
100
AcDbEntity
  8
LC-001-002-----0
  6
Continuous
 62
     7
100
AcDbCircle
 10
0.0004259659072
 20
-710.7079161196671
 30
0.0
 40
75.0003570000013
100
AcDbArc
 50
-89.1216140000001
 51
-75.87873900000031
  0
ARC
  5
235
330
5C
100
AcDbEntity
  8
LC-001-002-----0
  6
Continuous
 62
     7
100
AcDbCircle
 10
0.0004259659072
 20
-710.7075091196675
 30
0.0
 40
63.00057099999886
100
AcDbArc
 50
-88.95428999999852
 51
-76.04622599999885
  0
ARC
  5
236
330
5C
100
AcDbEntity
  8
LC-001-002-----0
  6
Continuous
 62
     7
100
AcDbCircle
 10
0.0004259659072
 20
-710.7075091196675
 30
0.0
 40
59.50050100000247
100
AcDbArc
 50
-88.8927689999993
 51
-76.10777699999834
  0
ARC
  5
237
330
5C
100
AcDbEntity
  8
LC-001-002-----0
  6
Continuous
 62
     7
100
AcDbCircle
 10
0.0004259659072
 20
-710.7075091196675
 30
0.0
 40
59.50050100000175
100
AcDbArc
 50
-73.89286299999905
 51
-61.10784899999987
  0
ARC
  5
238
330
5C
100
AcDbEntity
  8
LC-001-002-----0
  6
Continuous
 62
     7
100
AcDbCircle
 10
0.0004259659072
 20
-710.7075091196675
 30
0.0
 40
63.00057100000212
100
AcDbArc
 50
-73.95437800000082
 51
-61.04629399999998
  0
ARC
  5
239
330
5C
100
AcDbEntity
  8
LC-001-002-----0
  6
Continuous
 62
     7
100
AcDbCircle
 10
0.0004259659072
 20
-710.7079161196671
 30
0.0
 40
79.00004900000089
100
AcDbArc
 50
-74.16608299999871
 51
-60.83422899999978
  0
ARC
  5
23A
330
5C
100
AcDbEntity
  8
LC-001-002-----0
  6
Continuous
 62
     7
100
AcDbCircle
 10
0.0004259659072
 20
-710.7079161196671
 30
0.0
 40
79.00004900000255
100
AcDbArc
 50
-59.16606599999972
 51
-45.83420199999989
  0
ARC
  5
23B
330
5C
100
AcDbEntity
  8
LC-001-002-----0
  6
Continuous
 62
     7
100
AcDbCircle
 10
0.0004259659072
 20
-710.7079161196671
 30
0.0
 40
75.00035700000207
100
AcDbArc
 50
-59.12159000000078
 51
-45.87869199999975
  0
ARC
  5
23C
330
5C
100
AcDbEntity
  8
LC-001-002-----0
  6
Continuous
 62
     7
100
AcDbCircle
 10
0.0004259659072
 20
-710.7079161196671
 30
0.0
 40
79.00004900000263
100
AcDbArc
 50
-44.16603900000046
 51
-30.83416700000123
  0
ARC
  5
23D
330
5C
100
AcDbEntity
  8
LC-001-002-----0
  6
Continuous
 62
     7
100
AcDbCircle
 10
0.0004259659072
 20
-710.7079161196671
 30
0.0
 40
75.00035700000332
100
AcDbArc
 50
-44.12156099999971
 51
-30.87865500000029
  0
ARC
  5
23E
330
5C
100
AcDbEntity
  8
LC-001-002-----0
  6
Continuous
 62
     7
100
AcDbCircle
 10
0.0004259659072
 20
-710.7075091196675
 30
0.0
 40
63.0005710000002
100
AcDbArc
 50
-43.95448800000053
 51
-31.04635100000009
  0
ARC
  5
23F
330
5C
100
AcDbEntity
  8
LC-001-002-----0
  6
Continuous
 62
     7
100
AcDbCircle
 10
0.0004259659072
 20
-710.7075091196675
 30
0.0
 40
59.50050100000227
100
AcDbArc
 50
-43.8929799999978
 51
-31.10790900000154
  0
ARC
  5
240
330
5C
100
AcDbEntity
  8
LC-001-002-----0
  6
Continuous
 62
     7
100
AcDbCircle
 10
0.0004259659072
 20
-710.7079161196671
 30
0.0
 40
79.00004900000027
100
AcDbArc
 50
-29.16600400000039
 51
-15.83412500000057
  0
ARC
  5
241
330
5C
100
AcDbEntity
  8
LC-001-002-----0
  6
Continuous
 62
     7
100
AcDbCircle
 10
0.0004259659072
 20
-710.7079161196671
 30
0.0
 40
75.00035700000048
100
AcDbArc
 50
-29.12152400000237
 51
-15.87861199999984
  0
ARC
  5
242
330
5C
100
AcDbEntity
  8
LC-001-002-----0
  6
Continuous
 62
     7
100
AcDbCircle
 10
0.0004259659072
 20
-710.7075091196675
 30
0.0
 40
63.0005709999995
100
AcDbArc
 50
-28.95450300000046
 51
-16.04633600000145
  0
ARC
  5
243
330
5C
100
AcDbEntity
  8
LC-001-002-----0
  6
Continuous
 62
     7
100
AcDbCircle
 10
0.0004259659072
 20
-710.7075091196675
 30
0.0
 40
59.50050100000306
100
AcDbArc
 50
-28.89299500000103
 51
-16.10789400000082
  0
ARC
  5
244
330
5C
100
AcDbEntity
  8
LC-001-002-----0
  6
Continuous
 62
     7
100
AcDbCircle
 10
0.0004259659072
 20
-710.7075091196675
 30
0.0
 40
59.50050100000233
100
AcDbArc
 50
-13.89298000000187
 51
-1.10784900000154
  0
ARC
  5
245
330
5C
100
AcDbEntity
  8
LC-001-002-----0
  6
Continuous
 62
     7
100
AcDbCircle
 10
0.0004259659072
 20
-710.7075091196675
 30
0.0
 40
63.00057099999995
100
AcDbArc
 50
-13.95448800000052
 51
-1.04629400000156
  0
ARC
  5
246
330
5C
100
AcDbEntity
  8
LC-001-002-----0
  6
Continuous
 62
     7
100
AcDbCircle
 10
0.0004259659072
 20
-710.7079161196671
 30
0.0
 40
75.00035699999994
100
AcDbArc
 50
-14.12148100000056
 51
-0.87856600000062
  0
ARC
  5
247
330
5C
100
AcDbEntity
  8
LC-001-002-----0
  6
Continuous
 62
     7
100
AcDbCircle
 10
0.0004259659072
 20
-710.7079161196671
 30
0.0
 40
79.00004900000089
100
AcDbArc
 50
0.83408099999965
 51
14.16596299999807
  0
ARC
  5
248
330
5C
100
AcDbEntity
  8
LC-001-002-----0
  6
Continuous
 62
     7
100
AcDbCircle
 10
0.0004259659072
 20
-710.7079161196671
 30
0.0
 40
75.00035700000264
100
AcDbArc
 50
0.87856599999784
 51
14.12148099999787
  0
ARC
  5
249
330
5C
100
AcDbEntity
  8
LC-001-002-----0
  6
Continuous
 62
     7
100
AcDbCircle
 10
0.0004259659072
 20
-710.7075091196675
 30
0.0
 40
63.00057099999992
100
AcDbArc
 50
1.04555399999725
 51
13.95377399999793
  0
ARC
  5
24A
330
5C
100
AcDbEntity
  8
LC-001-002-----0
  6
Continuous
 62
     7
100
AcDbCircle
 10
0.0004259659072
 20
-710.7075091196675
 30
0.0
 40
59.50050099999996
100
AcDbArc
 50
1.10706599999858
 51
13.89222299999828
  0
ARC
  5
24B
330
5C
100
AcDbEntity
  8
LC-001-002-----0
  6
Continuous
 62
     7
100
AcDbCircle
 10
0.0004259659072
 20
-710.7075091196675
 30
0.0
 40
59.50050100000075
100
AcDbArc
 50
16.10713699999759
 51
28.89231699999711
  0
ARC
  5
24C
330
5C
100
AcDbEntity
  8
LC-001-002-----0
  6
Continuous
 62
     7
100
AcDbCircle
 10
0.0004259659072
 20
-710.7075091196675
 30
0.0
 40
63.00057100000211
100
AcDbArc
 50
16.04562199999919
 51
28.95386299999707
  0
ARC
  5
24D
330
5C
100
AcDbEntity
  8
LC-001-002-----0
  6
Continuous
 62
     7
100
AcDbCircle
 10
0.0004259659072
 20
-710.7079161196671
 30
0.0
 40
75.000357
100
AcDbArc
 50
15.87861199999984
 51
29.12152399999994
  0
ARC
  5
24E
330
5C
100
AcDbEntity
  8
LC-001-002-----0
  6
Continuous
 62
     7
100
AcDbCircle
 10
0.0004259659072
 20
-710.7079161196671
 30
0.0
 40
79.00004899999965
100
AcDbArc
 50
15.83412499999803
 51
29.16600399999809
  0
ARC
  5
24F
330
5C
100
AcDbEntity
  8
LC-001-002-----0
  6
Continuous
 62
     7
100
AcDbCircle
 10
0.0004259659072
 20
-710.7079161196671
 30
0.0
 40
79.00004900000006
100
AcDbArc
 50
30.83416699999897
 51
44.16603899999856
  0
ARC
  5
250
330
5C
100
AcDbEntity
  8
LC-001-002-----0
  6
Continuous
 62
     7
100
AcDbCircle
 10
0.0004259659072
 20
-710.7079161196671
 30
0.0
 40
75.0003569999994
100
AcDbArc
 50
30.8786549999979
 51
44.12156099999772
  0
ARC
  5
251
330
5C
100
AcDbEntity
  8
LC-001-002-----0
  6
Continuous
 62
     7
100
AcDbCircle
 10
0.0004259659072
 20
-710.7075091196675
 30
0.0
 40
63.00057099999923
100
AcDbArc
 50
31.04570999999935
 51
43.95396599999705
  0
ARC
  5
252
330
5C
100
AcDbEntity
  8
LC-001-002-----0
  6
Continuous
 62
     7
100
AcDbCircle
 10
0.0004259659072
 20
-710.7075091196675
 30
0.0
 40
59.50050100000136
100
AcDbArc
 50
31.10723099999802
 51
43.89242599999822
  0
ARC
  5
253
330
5C
100
AcDbEntity
  8
LC-001-002-----0
  6
Continuous
 62
     7
100
AcDbCircle
 10
0.0004259659072
 20
-710.7075091196675
 30
0.0
 40
63.00057100000092
100
AcDbArc
 50
46.04581299999728
 51
58.95407599999788
  0
ARC
  5
254
330
5C
100
AcDbEntity
  8
LC-001-002-----0
  6
Continuous
 62
     7
100
AcDbCircle
 10
0.0004259659072
 20
-710.7075091196675
 30
0.0
 40
59.50050099999956
100
AcDbArc
 50
46.10733999999803
 51
58.89254300000024
  0
ARC
  5
255
330
5C
100
AcDbEntity
  8
LC-001-002-----0
  6
Continuous
 62
     7
100
AcDbCircle
 10
0.0004259659072
 20
-710.7079161196671
 30
0.0
 40
75.00035699999925
100
AcDbArc
 50
45.87869199999782
 51
59.12158999999935
  0
ARC
  5
256
330
5C
100
AcDbEntity
  8
LC-001-002-----0
  6
Continuous
 62
     7
100
AcDbCircle
 10
0.0004259659072
 20
-710.7079161196671
 30
0.0
 40
79.00004900000128
100
AcDbArc
 50
45.83420199999805
 51
59.16606599999837
  0
ARC
  5
257
330
5C
100
AcDbEntity
  8
LC-001-002-----0
  6
Continuous
 62
     7
100
AcDbCircle
 10
0.0004259659072
 20
-710.7075091196675
 30
0.0
 40
59.50050099999992
100
AcDbArc
 50
61.10745699999907
 51
73.89265999999714
  0
ARC
  5
258
330
5C
100
AcDbEntity
  8
LC-001-002-----0
  6
Continuous
 62
     7
100
AcDbCircle
 10
0.0004259659072
 20
-710.7075091196675
 30
0.0
 40
63.00057100000047
100
AcDbArc
 50
61.04592399999994
 51
73.95418699999843
  0
ARC
  5
259
330
5C
100
AcDbEntity
  8
LC-001-002-----0
  6
Continuous
 62
     7
100
AcDbCircle
 10
0.0004259659072
 20
-710.7079161196671
 30
0.0
 40
75.00035699999887
100
AcDbArc
 50
60.87872099999721
 51
74.12160799999707
  0
ARC
  5
25A
330
5C
100
AcDbEntity
  8
LC-001-002-----0
  6
Continuous
 62
     7
100
AcDbCircle
 10
0.0004259659072
 20
-710.7079161196671
 30
0.0
 40
79.00004900000035
100
AcDbArc
 50
60.8342289999985
 51
74.16608299999798
  0
ARC
  5
25B
330
5C
100
AcDbEntity
  8
LC-001-002-----0
  6
Continuous
 62
     7
100
AcDbCircle
 10
0.0004259659072
 20
-710.7079161196671
 30
0.0
 40
79.00004900000104
100
AcDbArc
 50
75.83424599999877
 51
89.16608899999859
  0
ARC
  5
25C
330
5C
100
AcDbEntity
  8
LC-001-002-----0
  6
Continuous
 62
     7
100
AcDbCircle
 10
0.0004259659072
 20
-710.7079161196671
 30
0.0
 40
75.0003569999987
100
AcDbArc
 50
75.87873899999963
 51
89.12161400000005
  0
ARC
  5
25D
330
5C
100
AcDbEntity
  8
LC-001-002-----0
  6
Continuous
 62
     7
100
AcDbCircle
 10
0.0004259659072
 20
-710.7075091196675
 30
0.0
 40
59.50050099999928
100
AcDbArc
 50
91.10768299999926
 51
103.8928629999985
  0
ARC
  5
25E
330
5C
100
AcDbEntity
  8
LC-001-002-----0
  6
Continuous
 62
     7
100
AcDbCircle
 10
0.0004259659072
 20
-710.7075091196675
 30
0.0
 40
63.00057100000027
100
AcDbArc
 50
91.04613699999946
 51
103.9543779999989
  0
ARC
  5
25F
330
5C
100
AcDbEntity
  8
LC-001-002-----0
  6
Continuous
 62
     7
100
AcDbCircle
 10
0.0004259659072
 20
-710.7079161196671
 30
0.0
 40
75.00035699999735
100
AcDbArc
 50
90.87874499999823
 51
104.1216079999988
  0
ARC
  5
260
330
5C
100
AcDbEntity
  8
LC-001-002-----0
  6
Continuous
 62
     7
100
AcDbCircle
 10
0.0004259659072
 20
-710.7079161196671
 30
0.0
 40
79.00004899999874
100
AcDbArc
 50
90.83425199999867
 51
104.1660829999998
  0
ARC
  5
261
330
5C
100
AcDbEntity
  8
LC-001-002-----0
  6
Continuous
 62
     7
100
AcDbCircle
 10
0.0004259659072
 20
-710.7079161196671
 30
0.0
 40
79.0000489999992
100
AcDbArc
 50
105.8342459999984
 51
119.1660660000005
  0
ARC
  5
262
330
5C
100
AcDbEntity
  8
LC-001-002-----0
  6
Continuous
 62
     7
100
AcDbCircle
 10
0.0004259659072
 20
-710.7079161196671
 30
0.0
 40
75.00035699999866
100
AcDbArc
 50
105.8787389999992
 51
119.1215900000005
  0
ARC
  5
263
330
5C
100
AcDbEntity
  8
LC-001-002-----0
  6
Continuous
 62
     7
100
AcDbCircle
 10
0.0004259659072
 20
-710.7075091196675
 30
0.0
 40
59.50050100000082
100
AcDbArc
 50
106.1077769999996
 51
118.8929339999984
  0
ARC
  5
264
330
5C
100
AcDbEntity
  8
LC-001-002-----0
  6
Continuous
 62
     7
100
AcDbCircle
 10
0.0004259659072
 20
-710.7075091196675
 30
0.0
 40
63.00057099999914
100
AcDbArc
 50
106.0462260000001
 51
118.9544459999991
  0
ARC
  5
265
330
5C
100
AcDbEntity
  8
LC-001-002-----0
  6
Continuous
 62
     7
100
AcDbCircle
 10
0.0004259659072
 20
-710.7075091196675
 30
0.0
 40
59.5005009999977
100
AcDbArc
 50
121.1078490000002
 51
133.8929800000002
  0
ARC
  5
266
330
5C
100
AcDbEntity
  8
LC-001-002-----0
  6
Continuous
 62
     7
100
AcDbCircle
 10
0.0004259659072
 20
-710.7075091196675
 30
0.0
 40
63.0005709999988
100
AcDbArc
 50
121.0462939999977
 51
133.9544880000005
  0
ARC
  5
267
330
5C
100
AcDbEntity
  8
LC-001-002-----0
  6
Continuous
 62
     7
100
AcDbCircle
 10
0.0004259659072
 20
-710.7079161196671
 30
0.0
 40
75.000356999997
100
AcDbArc
 50
120.8787210000002
 51
134.1215609999997
  0
ARC
  5
268
330
5C
100
AcDbEntity
  8
LC-001-002-----0
  6
Continuous
 62
     7
100
AcDbCircle
 10
0.0004259659072
 20
-710.7079161196671
 30
0.0
 40
79.00004899999843
100
AcDbArc
 50
120.8342289999988
 51
134.1660390000004
  0
ARC
  5
269
330
5C
100
AcDbEntity
  8
LC-001-002-----0
  6
Continuous
 62
     7
100
AcDbCircle
 10
0.0004259659072
 20
-710.7079161196671
 30
0.0
 40
79.00004899999874
100
AcDbArc
 50
135.8342019999999
 51
149.1660039999984
  0
ARC
  5
26A
330
5C
100
AcDbEntity
  8
LC-001-002-----0
  6
Continuous
 62
     7
100
AcDbCircle
 10
0.0004259659072
 20
-710.7079161196671
 30
0.0
 40
75.00035699999673
100
AcDbArc
 50
135.8786919999998
 51
149.1215240000009
  0
ARC
  5
26B
330
5C
100
AcDbEntity
  8
LC-001-002-----0
  6
Continuous
 62
     7
100
AcDbCircle
 10
0.0004259659072
 20
-710.7075091196675
 30
0.0
 40
59.50050099999713
100
AcDbArc
 50
136.1078940000005
 51
148.8929949999985
  0
ARC
  5
26C
330
5C
100
AcDbEntity
  8
LC-001-002-----0
  6
Continuous
 62
     7
100
AcDbCircle
 10
0.0004259659072
 20
-710.7075091196675
 30
0.0
 40
63.00057100000017
100
AcDbArc
 50
136.0463359999989
 51
148.9545029999987
  0
ARC
  5
26D
330
5C
100
AcDbEntity
  8
LC-001-002-----0
  6
Continuous
 62
     7
100
AcDbCircle
 10
0.0004259659072
 20
-710.7079161196671
 30
0.0
 40
79.00004899999769
100
AcDbArc
 50
150.8341669999992
 51
164.1659629999999
  0
ARC
  5
26E
330
5C
100
AcDbEntity
  8
LC-001-002-----0
  6
Continuous
 62
     7
100
AcDbCircle
 10
0.0004259659072
 20
-710.7079161196671
 30
0.0
 40
75.00035699999871
100
AcDbArc
 50
150.8786550000019
 51
164.1214810000006
  0
ARC
  5
26F
330
5C
100
AcDbEntity
  8
LC-001-002-----0
  6
Continuous
 62
     7
100
AcDbCircle
 10
0.0004259659072
 20
-710.7075091196675
 30
0.0
 40
63.00057099999952
100
AcDbArc
 50
151.0463510000008
 51
163.9544880000007
  0
ARC
  5
270
330
5C
100
AcDbEntity
  8
LC-001-002-----0
  6
Continuous
 62
     7
100
AcDbCircle
 10
0.0004259659072
 20
-710.7075091196675
 30
0.0
 40
59.50050099999699
100
AcDbArc
 50
151.1079090000001
 51
163.8929800000012
  0
ARC
  5
271
330
5C
100
AcDbEntity
  8
LC-001-002-----0
  6
Continuous
 62
     7
100
AcDbCircle
 10
0.0004259659072
 20
-710.7075091196675
 30
0.0
 40
63.00057099999711
100
AcDbArc
 50
76.04603399999922
 51
88.95428999999852
  0
ARC
  5
272
330
5C
100
AcDbEntity
  8
LC-001-002-----0
  6
Continuous
 62
     7
100
AcDbCircle
 10
0.0004259659072
 20
-710.7075091196675
 30
0.0
 40
63.00057100000226
100
AcDbArc
 50
-58.95444599999913
 51
-46.04633599999885
  0
ARC
  5
273
330
5C
100
AcDbEntity
  8
LC-001-002-----0
  6
Continuous
 62
     7
100
AcDbCircle
 10
0.00019096590768
 20
-710.7079161196671
 30
0.0
 40
57.89999999999792
100
AcDbArc
 50
166.1380739999996
 51
178.8619260000031
  0
ARC
  5
274
330
5C
100
AcDbEntity
  8
LC-001-002-----0
  6
Continuous
 62
     7
100
AcDbCircle
 10
0.00019096590768
 20
-710.7079161196671
 30
0.0
 40
56.19999999999864
100
AcDbArc
 50
166.1725040000027
 51
178.8274960000015
  0
ARC
  5
275
330
5C
100
AcDbEntity
  8
LC-001-002-----0
  6
Continuous
 62
     7
100
AcDbCircle
 10
0.00019096590768
 20
-710.7079161196671
 30
0.0
 40
57.90000000000016
100
AcDbArc
 50
-178.8619259999994
 51
-166.1380739999996
  0
ARC
  5
276
330
5C
100
AcDbEntity
  8
LC-001-002-----0
  6
Continuous
 62
     7
100
AcDbCircle
 10
0.00019096590768
 20
-710.7079161196671
 30
0.0
 40
56.20000000000024
100
AcDbArc
 50
-178.8274959999978
 51
-166.1725039999991
  0
ARC
  5
277
330
5C
100
AcDbEntity
  8
LC-001-002-----0
  6
Continuous
 62
     7
100
AcDbCircle
 10
0.00019096590768
 20
-710.7079161196671
 30
0.0
 40
57.90000000000004
100
AcDbArc
 50
-163.861925999998
 51
-151.1380739999971
  0
ARC
  5
278
330
5C
100
AcDbEntity
  8
LC-001-002-----0
  6
Continuous
 62
     7
100
AcDbCircle
 10
0.00019096590768
 20
-710.7079161196671
 30
0.0
 40
56.19999999999805
100
AcDbArc
 50
-163.8274960000002
 51
-151.1725039999973
  0
ARC
  5
279
330
5C
100
AcDbEntity
  8
LC-001-002-----0
  6
Continuous
 62
     7
100
AcDbCircle
 10
0.00019096590768
 20
-710.7079161196671
 30
0.0
 40
57.90000000000124
100
AcDbArc
 50
-148.8619259999983
 51
-136.138074
  0
ARC
  5
27A
330
5C
100
AcDbEntity
  8
LC-001-002-----0
  6
Continuous
 62
     7
100
AcDbCircle
 10
0.00019096590768
 20
-710.7079161196671
 30
0.0
 40
56.20000000000123
100
AcDbArc
 50
-148.8274959999992
 51
-136.1725039999982
  0
ARC
  5
27B
330
5C
100
AcDbEntity
  8
LC-001-002-----0
  6
Continuous
 62
     7
100
AcDbCircle
 10
0.00019096590768
 20
-710.7079161196671
 30
0.0
 40
57.90000000000212
100
AcDbArc
 50
-133.8619259999975
 51
-121.1380739999986
  0
ARC
  5
27C
330
5C
100
AcDbEntity
  8
LC-001-002-----0
  6
Continuous
 62
     7
100
AcDbCircle
 10
0.00019096590768
 20
-710.7079161196671
 30
0.0
 40
56.20000000000079
100
AcDbArc
 50
-133.8274959999993
 51
-121.1725039999976
  0
ARC
  5
27D
330
5C
100
AcDbEntity
  8
LC-001-002-----0
  6
Continuous
 62
     7
100
AcDbCircle
 10
0.00019096590768
 20
-710.7079161196671
 30
0.0
 40
57.89999999999972
100
AcDbArc
 50
-118.861925999998
 51
-106.1380739999975
  0
ARC
  5
27E
330
5C
100
AcDbEntity
  8
LC-001-002-----0
  6
Continuous
 62
     7
100
AcDbCircle
 10
0.00019096590768
 20
-710.7079161196671
 30
0.0
 40
56.200000000002
100
AcDbArc
 50
-118.8274959999976
 51
-106.1725039999988
  0
ARC
  5
27F
330
5C
100
AcDbEntity
  8
LC-001-002-----0
  6
Continuous
 62
     7
100
AcDbCircle
 10
0.00019096590768
 20
-710.7079161196671
 30
0.0
 40
57.90000000000146
100
AcDbArc
 50
-103.8619259999995
 51
-91.13807400000056
  0
ARC
  5
280
330
5C
100
AcDbEntity
  8
LC-001-002-----0
  6
Continuous
 62
     7
100
AcDbCircle
 10
0.00019096590768
 20
-710.7079161196671
 30
0.0
 40
56.20000000000304
100
AcDbArc
 50
-103.827496
 51
-91.17250399999854
  0
ARC
  5
281
330
5C
100
AcDbEntity
  8
LC-001-002-----0
  6
Continuous
 62
     7
100
AcDbCircle
 10
0.00019096590768
 20
-710.7079161196671
 30
0.0
 40
57.90000000000016
100
AcDbArc
 50
-88.86192599999944
 51
-76.13807400000053
  0
ARC
  5
282
330
5C
100
AcDbEntity
  8
LC-001-002-----0
  6
Continuous
 62
     7
100
AcDbCircle
 10
0.00019096590768
 20
-710.7079161196671
 30
0.0
 40
56.20000000000017
100
AcDbArc
 50
-88.82749600000146
 51
-76.172504
  0
ARC
  5
283
330
5C
100
AcDbEntity
  8
LC-001-002-----0
  6
Continuous
 62
     7
100
AcDbCircle
 10
0.00019096590768
 20
-710.7079161196671
 30
0.0
 40
56.20000000000154
100
AcDbArc
 50
-73.82749600000119
 51
-61.17250400000238
  0
ARC
  5
284
330
5C
100
AcDbEntity
  8
LC-001-002-----0
  6
Continuous
 62
     7
100
AcDbCircle
 10
0.00019096590768
 20
-710.7079161196671
 30
0.0
 40
57.90000000000354
100
AcDbArc
 50
-73.86192599999904
 51
-61.1380739999989
  0
ARC
  5
285
330
5C
100
AcDbEntity
  8
LC-001-002-----0
  6
Continuous
 62
     7
100
AcDbCircle
 10
0.00019096590768
 20
-710.7079161196671
 30
0.0
 40
56.20000000000123
100
AcDbArc
 50
-58.82749599999924
 51
-46.17250400000076
  0
ARC
  5
286
330
5C
100
AcDbEntity
  8
LC-001-002-----0
  6
Continuous
 62
     7
100
AcDbCircle
 10
0.00019096590768
 20
-710.7079161196671
 30
0.0
 40
57.90000000000124
100
AcDbArc
 50
-58.86192599999833
 51
-46.13807400000253
  0
ARC
  5
287
330
5C
100
AcDbEntity
  8
LC-001-002-----0
  6
Continuous
 62
     7
100
AcDbCircle
 10
0.00019096590768
 20
-710.7079161196671
 30
0.0
 40
56.20000000000079
100
AcDbArc
 50
-43.82749599999924
 51
-31.17250400000077
  0
ARC
  5
288
330
5C
100
AcDbEntity
  8
LC-001-002-----0
  6
Continuous
 62
     7
100
AcDbCircle
 10
0.00019096590768
 20
-710.7079161196671
 30
0.0
 40
57.89999999999949
100
AcDbArc
 50
-43.86192599999998
 51
-31.13807400000168
  0
ARC
  5
289
330
5C
100
AcDbEntity
  8
LC-001-002-----0
  6
Continuous
 62
     7
100
AcDbCircle
 10
0.00019096590768
 20
-710.7079161196671
 30
0.0
 40
56.20000000000376
100
AcDbArc
 50
-28.82749600000087
 51
-16.17250399999881
  0
ARC
  5
28A
330
5C
100
AcDbEntity
  8
LC-001-002-----0
  6
Continuous
 62
     7
100
AcDbCircle
 10
0.00019096590768
 20
-710.7079161196671
 30
0.0
 40
57.90000000000148
100
AcDbArc
 50
-28.86192600000111
 51
-16.13807400000196
  0
ARC
  5
28B
330
5C
100
AcDbEntity
  8
LC-001-002-----0
  6
Continuous
 62
     7
100
AcDbCircle
 10
0.00019096590768
 20
-710.7079161196671
 30
0.0
 40
57.90000000000146
100
AcDbArc
 50
-13.86192599999948
 51
-1.13807400000056
  0
ARC
  5
28C
330
5C
100
AcDbEntity
  8
LC-001-002-----0
  6
Continuous
 62
     7
100
AcDbCircle
 10
0.00019096590768
 20
-710.7079161196671
 30
0.0
 40
56.19999999999951
100
AcDbArc
 50
-13.82749600000089
 51
-1.17250400000225
  0
ARC
  5
28D
330
5C
100
AcDbEntity
  8
LC-001-002-----0
  6
Continuous
 62
     7
100
AcDbCircle
 10
0.00019096590768
 20
-710.7079161196671
 30
0.0
 40
56.20000000000016
100
AcDbArc
 50
1.17250399999854
 51
13.82749599999729
  0
ARC
  5
28E
330
5C
100
AcDbEntity
  8
LC-001-002-----0
  6
Continuous
 62
     7
100
AcDbCircle
 10
0.00019096590768
 20
-710.7079161196671
 30
0.0
 40
57.9000000000001
100
AcDbArc
 50
1.13807399999696
 51
13.86192599999948
  0
ARC
  5
28F
330
5C
100
AcDbEntity
  8
LC-001-002-----0
  6
Continuous
 62
     7
100
AcDbCircle
 10
0.00019096590768
 20
-710.7079161196671
 30
0.0
 40
56.20000000000154
100
AcDbArc
 50
16.17250399999881
 51
28.82749599999762
  0
ARC
  5
290
330
5C
100
AcDbEntity
  8
LC-001-002-----0
  6
Continuous
 62
     7
100
AcDbCircle
 10
0.00019096590768
 20
-710.7079161196671
 30
0.0
 40
57.89999999999904
100
AcDbArc
 50
16.1380739999985
 51
28.86192599999796
  0
ARC
  5
291
330
5C
100
AcDbEntity
  8
LC-001-002-----0
  6
Continuous
 62
     7
100
AcDbCircle
 10
0.00019096590768
 20
-710.7079161196671
 30
0.0
 40
56.19999999999934
100
AcDbArc
 50
31.17250399999759
 51
43.82749599999924
  0
ARC
  5
292
330
5C
100
AcDbEntity
  8
LC-001-002-----0
  6
Continuous
 62
     7
100
AcDbCircle
 10
0.00019096590768
 20
-710.7079161196671
 30
0.0
 40
57.89999999999936
100
AcDbArc
 50
31.1380739999986
 51
43.86192599999998
  0
ARC
  5
293
330
5C
100
AcDbEntity
  8
LC-001-002-----0
  6
Continuous
 62
     7
100
AcDbCircle
 10
0.00019096590768
 20
-710.7079161196671
 30
0.0
 40
56.19999999999816
100
AcDbArc
 50
46.17250399999819
 51
58.82749599999732
  0
ARC
  5
294
330
5C
100
AcDbEntity
  8
LC-001-002-----0
  6
Continuous
 62
     7
100
AcDbCircle
 10
0.0004259659072
 20
-710.7079161196671
 30
0.0
 40
75.00035700000217
100
AcDbArc
 50
-74.12160799999783
 51
-60.87872099999857
  0
ARC
  5
295
330
5C
100
AcDbEntity
  8
LC-001-002-----0
  6
Continuous
 62
     7
100
AcDbCircle
 10
0.0004259659072
 20
-710.7079161196671
 30
0.0
 40
79.0000489999996
100
AcDbArc
 50
-14.16596300000062
 51
-0.83408099999965
  0
ARC
  5
296
330
5C
100
AcDbEntity
  8
LC-001-002-----0
  6
Continuous
 62
     7
100
AcDbCircle
 10
0.00019096590768
 20
-710.7079161196671
 30
0.0
 40
57.89999999999949
100
AcDbArc
 50
46.13807400000003
 51
58.03764999999875
  0
ARC
  5
297
330
5C
100
AcDbEntity
  8
LC-001-002-----0
  6
Continuous
 62
     7
100
AcDbCircle
 10
0.00019096590768
 20
-710.7079161196671
 30
0.0
 40
56.19999999999881
100
AcDbArc
 50
61.1725040000006
 51
73.82749600000017
  0
ARC
  5
298
330
5C
100
AcDbEntity
  8
LC-001-002-----0
  6
Continuous
 62
     7
100
AcDbCircle
 10
0.00019096590768
 20
-710.7079161196671
 30
0.0
 40
57.89999999999829
100
AcDbArc
 50
61.13807399999715
 51
73.86192599999805
  0
ARC
  5
299
330
5C
100
AcDbEntity
  8
LC-001-002-----0
  6
Continuous
 62
     7
100
AcDbCircle
 10
0.00019096590768
 20
-710.7079161196671
 30
0.0
 40
57.89999999999792
100
AcDbArc
 50
76.13807399999966
 51
88.86192599999944
  0
ARC
  5
29A
330
5C
100
AcDbEntity
  8
LC-001-002-----0
  6
Continuous
 62
     7
100
AcDbCircle
 10
0.00019096590768
 20
-710.7079161196671
 30
0.0
 40
56.19999999999951
100
AcDbArc
 50
76.17250399999911
 51
88.82749600000146
  0
ARC
  5
29B
330
5C
100
AcDbEntity
  8
LC-001-002-----0
  6
Continuous
 62
     7
100
AcDbCircle
 10
0.00019096590768
 20
-710.7079161196671
 30
0.0
 40
57.90000000000016
100
AcDbArc
 50
91.13807400000056
 51
103.8619260000004
  0
ARC
  5
29C
330
5C
100
AcDbEntity
  8
LC-001-002-----0
  6
Continuous
 62
     7
100
AcDbCircle
 10
0.00019096590768
 20
-710.7079161196671
 30
0.0
 40
56.20000000000017
100
AcDbArc
 50
91.17250399999854
 51
103.8274960000009
  0
ARC
  5
29D
330
5C
100
AcDbEntity
  8
LC-001-002-----0
  6
Continuous
 62
     7
100
AcDbCircle
 10
0.00019096590768
 20
-710.7079161196671
 30
0.0
 40
57.89999999999904
100
AcDbArc
 50
106.1380739999985
 51
118.8619259999997
  0
ARC
  5
29E
330
5C
100
AcDbEntity
  8
LC-001-002-----0
  6
Continuous
 62
     7
100
AcDbCircle
 10
0.00019096590768
 20
-710.7079161196671
 30
0.0
 40
56.19999999999805
100
AcDbArc
 50
106.1725039999998
 51
118.8274959999994
  0
ARC
  5
29F
330
5C
100
AcDbEntity
  8
LC-001-002-----0
  6
Continuous
 62
     7
100
AcDbCircle
 10
0.00019096590768
 20
-710.7079161196671
 30
0.0
 40
57.89999999999936
100
AcDbArc
 50
121.1380739999986
 51
133.861926
  0
ARC
  5
2A0
330
5C
100
AcDbEntity
  8
LC-001-002-----0
  6
Continuous
 62
     7
100
AcDbCircle
 10
0.00019096590768
 20
-710.7079161196671
 30
0.0
 40
56.19999999999624
100
AcDbArc
 50
121.1725039999995
 51
133.8274960000018
  0
ARC
  5
2A1
330
5C
100
AcDbEntity
  8
LC-001-002-----0
  6
Continuous
 62
     7
100
AcDbCircle
 10
0.00019096590768
 20
-710.7079161196671
 30
0.0
 40
57.89999999999949
100
AcDbArc
 50
136.138074
 51
148.8619260000014
  0
ARC
  5
2A2
330
5C
100
AcDbEntity
  8
LC-001-002-----0
  6
Continuous
 62
     7
100
AcDbCircle
 10
0.00019096590768
 20
-710.7079161196671
 30
0.0
 40
56.19999999999816
100
AcDbArc
 50
136.1725039999982
 51
148.8274960000024
  0
ARC
  5
2A3
330
5C
100
AcDbEntity
  8
LC-001-002-----0
  6
Continuous
 62
     7
100
AcDbCircle
 10
0.00019096590768
 20
-710.7079161196671
 30
0.0
 40
57.89999999999654
100
AcDbArc
 50
151.1380740000003
 51
163.8619260000015
  0
ARC
  5
2A4
330
5C
100
AcDbEntity
  8
LC-001-002-----0
  6
Continuous
 62
     7
100
AcDbCircle
 10
0.00019096590768
 20
-710.7079161196671
 30
0.0
 40
56.19999999999881
100
AcDbArc
 50
151.1725040000006
 51
163.8274960000002
  0
ARC
  5
2A5
330
5C
100
AcDbEntity
  8
LC-001-002-----0
  6
Continuous
 62
     7
100
AcDbCircle
 10
0.00019096590768
 20
-710.7079161196671
 30
0.0
 40
70.50000000000071
100
AcDbArc
 50
-164.0653469999999
 51
-150.9346529999987
  0
ARC
  5
2A6
330
5C
100
AcDbEntity
  8
LC-001-002-----0
  6
Continuous
 62
     7
100
AcDbCircle
 10
0.00019096590768
 20
-710.7079161196671
 30
0.0
 40
73.00000000000036
100
AcDbArc
 50
-164.0973579999998
 51
-150.9026419999986
  0
ARC
  5
2A7
330
5C
100
AcDbEntity
  8
LC-001-002-----0
  6
Continuous
 62
     7
100
AcDbCircle
 10
0.00019096590768
 20
-710.7079161196671
 30
0.0
 40
70.50000000000136
100
AcDbArc
 50
-179.0653469999995
 51
-165.934652999999
  0
ARC
  5
2A8
330
5C
100
AcDbEntity
  8
LC-001-002-----0
  6
Continuous
 62
     7
100
AcDbCircle
 10
0.00019096590768
 20
-710.7079161196671
 30
0.0
 40
72.99999999999815
100
AcDbArc
 50
-179.0973579999981
 51
-165.9026419999987
  0
ARC
  5
2A9
330
5C
100
AcDbEntity
  8
LC-001-002-----0
  6
Continuous
 62
     7
100
AcDbCircle
 10
0.00019096590768
 20
-710.7079161196671
 30
0.0
 40
72.99999999999984
100
AcDbArc
 50
-149.0973579999971
 51
-135.902641999999
  0
ARC
  5
2AA
330
5C
100
AcDbEntity
  8
LC-001-002-----0
  6
Continuous
 62
     7
100
AcDbCircle
 10
0.00019096590768
 20
-710.7079161196671
 30
0.0
 40
70.49999999999875
100
AcDbArc
 50
-149.0653469999993
 51
-135.9346529999994
  0
ARC
  5
2AB
330
5C
100
AcDbEntity
  8
LC-001-002-----0
  6
Continuous
 62
     7
100
AcDbCircle
 10
0.00019096590768
 20
-710.7079161196671
 30
0.0
 40
73.00000000000156
100
AcDbArc
 50
-134.097357999999
 51
-120.9026419999989
  0
ARC
  5
2AC
330
5C
100
AcDbEntity
  8
LC-001-002-----0
  6
Continuous
 62
     7
100
AcDbCircle
 10
0.00019096590768
 20
-710.7079161196671
 30
0.0
 40
70.49999999999962
100
AcDbArc
 50
-134.0653470000006
 51
-120.9346529999992
  0
ARC
  5
2AD
330
5C
100
AcDbEntity
  8
LC-001-002-----0
  6
Continuous
 62
     7
100
AcDbCircle
 10
0.00019096590768
 20
-710.7079161196671
 30
0.0
 40
72.99999999999977
100
AcDbArc
 50
-119.097357999999
 51
-105.9026420000002
  0
ARC
  5
2AE
330
5C
100
AcDbEntity
  8
LC-001-002-----0
  6
Continuous
 62
     7
100
AcDbCircle
 10
0.00019096590768
 20
-710.7079161196671
 30
0.0
 40
70.5000000000012
100
AcDbArc
 50
-119.0653469999972
 51
-105.9346530000001
  0
ARC
  5
2AF
330
5C
100
AcDbEntity
  8
LC-001-002-----0
  6
Continuous
 62
     7
100
AcDbCircle
 10
0.00019096590768
 20
-710.7079161196671
 30
0.0
 40
73.00000000000179
100
AcDbArc
 50
-89.09735799999811
 51
-75.90264199999866
  0
ARC
  5
2B0
330
5C
100
AcDbEntity
  8
LC-001-002-----0
  6
Continuous
 62
     7
100
AcDbCircle
 10
0.00019096590768
 20
-710.7079161196671
 30
0.0
 40
70.50000000000136
100
AcDbArc
 50
-89.06534699999953
 51
-75.93465299999899
  0
ARC
  5
2B1
330
5C
100
AcDbEntity
  8
LC-001-002-----0
  6
Continuous
 62
     7
100
AcDbCircle
 10
0.00019096590768
 20
-710.7079161196671
 30
0.0
 40
73.00000000000036
100
AcDbArc
 50
-74.09735799999977
 51
-60.90264200000104
  0
ARC
  5
2B2
330
5C
100
AcDbEntity
  8
LC-001-002-----0
  6
Continuous
 62
     7
100
AcDbCircle
 10
0.00019096590768
 20
-710.7079161196671
 30
0.0
 40
70.50000000000071
100
AcDbArc
 50
-74.06534699999989
 51
-60.93465300000018
  0
ARC
  5
2B3
330
5C
100
AcDbEntity
  8
LC-001-002-----0
  6
Continuous
 62
     7
100
AcDbCircle
 10
0.00019096590768
 20
-710.7079161196671
 30
0.0
 40
73.00000000000111
100
AcDbArc
 50
-59.09735800000107
 51
-45.90264200000101
  0
ARC
  5
2B4
330
5C
100
AcDbEntity
  8
LC-001-002-----0
  6
Continuous
 62
     7
100
AcDbCircle
 10
0.00019096590768
 20
-710.7079161196671
 30
0.0
 40
70.50000000000186
100
AcDbArc
 50
-59.06534700000081
 51
-45.93465299999941
  0
ARC
  5
2B5
330
5C
100
AcDbEntity
  8
LC-001-002-----0
  6
Continuous
 62
     7
100
AcDbCircle
 10
0.00019096590768
 20
-710.7079161196671
 30
0.0
 40
73.00000000000156
100
AcDbArc
 50
-44.09735799999899
 51
-30.90264200000138
  0
ARC
  5
2B6
330
5C
100
AcDbEntity
  8
LC-001-002-----0
  6
Continuous
 62
     7
100
AcDbCircle
 10
0.00019096590768
 20
-710.7079161196671
 30
0.0
 40
70.49999999999962
100
AcDbArc
 50
-44.0653470000006
 51
-30.93465300000073
  0
ARC
  5
2B7
330
5C
100
AcDbEntity
  8
LC-001-002-----0
  6
Continuous
 62
     7
100
AcDbCircle
 10
0.00019096590768
 20
-710.7079161196671
 30
0.0
 40
73.00000000000153
100
AcDbArc
 50
-29.09735800000145
 51
-15.90264200000022
  0
ARC
  5
2B8
330
5C
100
AcDbEntity
  8
LC-001-002-----0
  6
Continuous
 62
     7
100
AcDbCircle
 10
0.00019096590768
 20
-710.7079161196671
 30
0.0
 40
70.50000000000296
100
AcDbArc
 50
-29.06534699999981
 51
-15.93465300000012
  0
ARC
  5
2B9
330
5C
100
AcDbEntity
  8
LC-001-002-----0
  6
Continuous
 62
     7
100
AcDbCircle
 10
0.00019096590768
 20
-710.7079161196671
 30
0.0
 40
73.00000000000173
100
AcDbArc
 50
0.90264199999904
 51
14.09735799999856
  0
ARC
  5
2BA
330
5C
100
AcDbEntity
  8
LC-001-002-----0
  6
Continuous
 62
     7
100
AcDbCircle
 10
0.00019096590768
 20
-710.7079161196671
 30
0.0
 40
70.50000000000131
100
AcDbArc
 50
0.93465299999751
 51
14.06534699999814
  0
ARC
  5
2BB
330
5C
100
AcDbEntity
  8
LC-001-002-----0
  6
Continuous
 62
     7
100
AcDbCircle
 10
0.00019096590768
 20
-710.7079161196671
 30
0.0
 40
73.00000000000036
100
AcDbArc
 50
15.90264200000022
 51
29.09735799999895
  0
ARC
  5
2BC
330
5C
100
AcDbEntity
  8
LC-001-002-----0
  6
Continuous
 62
     7
100
AcDbCircle
 10
0.00019096590768
 20
-710.7079161196671
 30
0.0
 40
70.49999999999972
100
AcDbArc
 50
15.93465299999728
 51
29.06534699999723
  0
ARC
  5
2BD
330
5C
100
AcDbEntity
  8
LC-001-002-----0
  6
Continuous
 62
     7
100
AcDbCircle
 10
0.00019096590768
 20
-710.7079161196671
 30
0.0
 40
73.00000000000111
100
AcDbArc
 50
30.90264199999893
 51
44.09735799999694
  0
ARC
  5
2BE
330
5C
100
AcDbEntity
  8
LC-001-002-----0
  6
Continuous
 62
     7
100
AcDbCircle
 10
0.00019096590768
 20
-710.7079161196671
 30
0.0
 40
72.99999999999895
100
AcDbArc
 50
45.90264199999902
 51
59.0973579999996
  0
ARC
  5
2BF
330
5C
100
AcDbEntity
  8
LC-001-002-----0
  6
Continuous
 62
     7
100
AcDbCircle
 10
0.00019096590768
 20
-710.7079161196671
 30
0.0
 40
72.99999999999977
100
AcDbArc
 50
60.90264200000104
 51
74.09735799999977
  0
ARC
  5
2C0
330
5C
100
AcDbEntity
  8
LC-001-002-----0
  6
Continuous
 62
     7
100
AcDbCircle
 10
0.00019096590768
 20
-710.7079161196671
 30
0.0
 40
70.49999999999874
100
AcDbArc
 50
30.93465300000073
 51
44.0653470000006
  0
ARC
  5
2C1
330
5C
100
AcDbEntity
  8
LC-001-002-----0
  6
Continuous
 62
     7
100
AcDbCircle
 10
0.00019096590768
 20
-710.7079161196671
 30
0.0
 40
70.49999999999962
100
AcDbArc
 50
45.93465299999941
 51
59.06534699999928
  0
ARC
  5
2C2
330
5C
100
AcDbEntity
  8
LC-001-002-----0
  6
Continuous
 62
     7
100
AcDbCircle
 10
0.00019096590768
 20
-710.7079161196671
 30
0.0
 40
70.49999999999979
100
AcDbArc
 50
60.93465299999875
 51
74.06534699999906
  0
ARC
  5
2C3
330
5C
100
AcDbEntity
  8
LC-001-002-----0
  6
Continuous
 62
     7
100
AcDbCircle
 10
0.00019096590768
 20
-710.7079161196671
 30
0.0
 40
72.9999999999981
100
AcDbArc
 50
90.90264199999909
 51
104.0973579999993
  0
ARC
  5
2C4
330
5C
100
AcDbEntity
  8
LC-001-002-----0
  6
Continuous
 62
     7
100
AcDbCircle
 10
0.00019096590768
 20
-710.7079161196671
 30
0.0
 40
70.49999999999773
100
AcDbArc
 50
90.93465300000051
 51
104.0653469999989
  0
ARC
  5
2C5
330
5C
100
AcDbEntity
  8
LC-001-002-----0
  6
Continuous
 62
     7
100
AcDbCircle
 10
0.00019096590768
 20
-710.7079161196671
 30
0.0
 40
73.00000000000036
100
AcDbArc
 50
105.9026420000002
 51
119.097357999999
  0
ARC
  5
2C6
330
5C
100
AcDbEntity
  8
LC-001-002-----0
  6
Continuous
 62
     7
100
AcDbCircle
 10
0.00019096590768
 20
-710.7079161196671
 30
0.0
 40
70.49999999999721
100
AcDbArc
 50
105.9346530000009
 51
119.0653469999987
  0
ARC
  5
2C7
330
5C
100
AcDbEntity
  8
LC-001-002-----0
  6
Continuous
 62
     7
100
AcDbCircle
 10
0.00019096590768
 20
-710.7079161196671
 30
0.0
 40
72.99999999999798
100
AcDbArc
 50
120.9026420000004
 51
134.097358000001
  0
ARC
  5
2C8
330
5C
100
AcDbEntity
  8
LC-001-002-----0
  6
Continuous
 62
     7
100
AcDbCircle
 10
0.00019096590768
 20
-710.7079161196671
 30
0.0
 40
70.49999999999875
100
AcDbArc
 50
120.9346530000007
 51
134.0653470000006
  0
ARC
  5
2C9
330
5C
100
AcDbEntity
  8
LC-001-002-----0
  6
Continuous
 62
     7
100
AcDbCircle
 10
0.00019096590768
 20
-710.7079161196671
 30
0.0
 40
72.99999999999642
100
AcDbArc
 50
135.9026420000011
 51
149.0973579999996
  0
ARC
  5
2CA
330
5C
100
AcDbEntity
  8
LC-001-002-----0
  6
Continuous
 62
     7
100
AcDbCircle
 10
0.00019096590768
 20
-710.7079161196671
 30
0.0
 40
70.49999999999962
100
AcDbArc
 50
135.9346529999994
 51
149.0653469999993
  0
ARC
  5
2CB
330
5C
100
AcDbEntity
  8
LC-001-002-----0
  6
Continuous
 62
     7
100
AcDbCircle
 10
0.00019096590768
 20
-710.7079161196671
 30
0.0
 40
70.49999999999801
100
AcDbArc
 50
150.9346530000014
 51
164.0653470000027
  0
ARC
  5
2CC
330
5C
100
AcDbEntity
  8
LC-001-002-----0
  6
Continuous
 62
     7
100
AcDbCircle
 10
0.00019096590768
 20
-710.7079161196671
 30
0.0
 40
72.99999999999976
100
AcDbArc
 50
150.9026420000011
 51
164.0973579999998
  0
ARC
  5
2CD
330
5C
100
AcDbEntity
  8
LC-001-002-----0
  6
Continuous
 62
     7
100
AcDbCircle
 10
0.0004259659072
 20
-710.7075091196675
 30
0.0
 40
59.50050099999962
100
AcDbArc
 50
-103.8926599999972
 51
-91.10768299999926
  0
ARC
  5
2CE
330
5C
100
AcDbEntity
  8
LC-001-002-----0
  6
Continuous
 62
     7
100
AcDbCircle
 10
0.0004259659072
 20
-710.7079161196671
 30
0.0
 40
75.00035700000146
100
AcDbArc
 50
-104.1216079999981
 51
-90.87874499999819
  0
ARC
  5
2CF
330
5C
100
AcDbEntity
  8
LC-001-002-----0
  6
Continuous
 62
     7
100
AcDbCircle
 10
0.0004259659072
 20
-710.7075091196675
 30
0.0
 40
63.00057099999933
100
AcDbArc
 50
166.0463360000009
 51
178.9544460000027
  0
ARC
  5
2D0
330
5C
100
AcDbEntity
  8
LC-001-002-----0
  6
Continuous
 62
     7
100
AcDbCircle
 10
0.0004259659072
 20
-710.7075091196675
 30
0.0
 40
59.5005009999993
100
AcDbArc
 50
-58.89293400000043
 51
-46.10789400000035
  0
ARC
  5
2D1
330
5C
100
AcDbEntity
  8
LC-001-002-----0
  6
Continuous
 62
     7
100
AcDbCircle
 10
0.0004259659072
 20
-710.7079161196671
 30
0.0
 40
79.00004900000012
100
AcDbArc
 50
-134.1660389999986
 51
-120.8342289999975
  0
ARC
  5
2D2
330
5C
100
AcDbEntity
  8
LC-001-002-----0
  6
Continuous
 62
     7
100
AcDbCircle
 10
0.00019096590768
 20
-710.7079161196671
 30
0.0
 40
73.00000000000097
100
AcDbArc
 50
-14.09735800000133
 51
-0.9026420000019
  0
ARC
  5
2D3
330
5C
100
AcDbEntity
  8
LC-001-002-----0
  6
Continuous
 62
     7
100
AcDbCircle
 10
0.00019096590768
 20
-710.7079161196671
 30
0.0
 40
70.50000000000092
100
AcDbArc
 50
-14.06534700000101
 51
-0.93465300000046
  0
ARC
  5
2D4
330
5C
100
AcDbEntity
  8
LC-001-002-----0
  6
Continuous
 62
     7
100
AcDbCircle
 10
0.00019096590768
 20
-710.7079161196671
 30
0.0
 40
73.00000000000009
100
AcDbArc
 50
-104.0973579999986
 51
-90.90264199999905
  0
ARC
  5
2D5
330
5C
100
AcDbEntity
  8
LC-001-002-----0
  6
Continuous
 62
     7
100
AcDbCircle
 10
0.00019096590768
 20
-710.7079161196671
 30
0.0
 40
70.50000000000004
100
AcDbArc
 50
-104.0653469999981
 51
-90.93465300000047
  0
ARC
  5
2D6
330
5C
100
AcDbEntity
  8
LC-001-002-----0
  6
Continuous
 62
     7
100
AcDbCircle
 10
0.00019096590768
 20
-710.7079161196671
 30
0.0
 40
73.90000000000043
100
AcDbArc
 50
-99.18804599999922
 51
-90.89164799999892
  0
ARC
  5
2D7
330
5C
100
AcDbEntity
  8
LC-001-002-----0
  6
Continuous
 62
     7
100
AcDbCircle
 10
0.0004259659072
 20
-710.7079161196671
 30
0.0
 40
75.00035699999984
100
AcDbArc
 50
165.8786120000015
 51
179.1214340000021
  0
ARC
  5
2D8
330
5C
100
AcDbEntity
  8
LC-001-002-----0
  6
Continuous
 62
     7
100
AcDbCircle
 10
0.00019096590768
 20
-710.7079161196671
 30
0.0
 40
73.90000000000168
100
AcDbArc
 50
-89.10835200000108
 51
-80.8119540000008
  0
ARC
  5
2D9
330
5C
100
AcDbEntity
  8
LC-001-002-----0
  6
Continuous
 62
     7
100
AcDbCircle
 10
0.0004259659072
 20
-710.7079161196671
 30
0.0
 40
79.00004900000319
100
AcDbArc
 50
-104.1660829999991
 51
-90.83425199999863
  0
ARC
  5
2DA
330
5C
100
AcDbEntity
  8
LC-001-002-----0
  6
Continuous
 62
     7
100
AcDbCircle
 10
0.00019096590768
 20
-710.7079161196671
 30
0.0
 40
73.90000000000101
100
AcDbArc
 50
-9.188046000002
 51
-0.89164800000175
  0
ARC
  5
2DB
330
5C
100
AcDbEntity
  8
LC-001-002-----0
  6
Continuous
 62
     7
100
AcDbCircle
 10
0.0004259659072
 20
-710.7079161196671
 30
0.0
 40
79.00004899999715
100
AcDbArc
 50
165.8341249999995
 51
179.1659190000003
  0
ARC
  5
2DC
330
5C
100
AcDbEntity
  8
LC-001-002-----0
  6
Continuous
 62
     7
100
AcDbCircle
 10
0.00019096590768
 20
-710.7079161196671
 30
0.0
 40
73.90000000000168
100
AcDbArc
 50
0.89164799999893
 51
9.18804599999921
  0
ARC
  5
2DD
330
5C
100
AcDbEntity
  8
LC-001-002-----0
  6
Continuous
 62
     7
100
AcDbCircle
 10
0.00019096590768
 20
-710.7079161196671
 30
0.0
 40
73.90000000000043
100
AcDbArc
 50
80.8119540000008
 51
89.10835200000103
  0
ARC
  5
2DE
330
5C
100
AcDbEntity
  8
LC-001-002-----0
  6
Continuous
 62
     7
100
AcDbCircle
 10
0.0004259659072
 20
-710.7075091196675
 30
0.0
 40
59.50050099999857
100
AcDbArc
 50
76.10757399999994
 51
88.89276899999922
  0
ARC
  5
2DF
330
5C
100
AcDbEntity
  8
LC-001-002-----0
  6
Continuous
 62
     7
100
AcDbCircle
 10
0.00019096590768
 20
-710.7079161196671
 30
0.0
 40
73.89999999999803
100
AcDbArc
 50
90.89164799999898
 51
99.18804599999922
  0
ARC
  5
2E0
330
5C
100
AcDbEntity
  8
LC-001-002-----0
  6
Continuous
 62
     7
100
AcDbCircle
 10
0.0004259659072
 20
-710.7075091196675
 30
0.0
 40
59.50050099999819
100
AcDbArc
 50
166.1078940000014
 51
178.8929340000014
  0
ARC
  5
2E1
330
5C
100
AcDbEntity
  8
LC-001-002-----0
  6
Continuous
 62
     7
100
AcDbCircle
 10
0.00019096590768
 20
-710.7079161196671
 30
0.0
 40
73.90000000000043
100
AcDbArc
 50
170.8119540000008
 51
179.108352000001
  0
ARC
  5
2E2
330
5C
100
AcDbEntity
  8
LC-001-002-----0
  6
Continuous
 62
     7
100
AcDbCircle
 10
0.00019096590768
 20
-710.7079161196671
 30
0.0
 40
70.4999999999974
100
AcDbArc
 50
75.93465299999828
 51
89.06534699999949
  0
ARC
  5
2E3
330
5C
100
AcDbEntity
  8
LC-001-002-----0
  6
Continuous
 62
     7
100
AcDbCircle
 10
0.00019096590768
 20
-710.7079161196671
 30
0.0
 40
72.99999999999744
100
AcDbArc
 50
75.90264199999798
 51
89.09735799999805
  0
ARC
  5
2E4
330
5C
100
AcDbEntity
  8
LC-001-002-----0
  6
Continuous
 62
     7
100
AcDbCircle
 10
0.00019096590768
 20
-710.7079161196671
 30
0.0
 40
73.00000000000009
100
AcDbArc
 50
165.9026420000015
 51
179.0973580000009
  0
ARC
  5
2E5
330
5C
100
AcDbEntity
  8
LC-001-002-----0
  6
Continuous
 62
     7
100
AcDbCircle
 10
0.00019096590768
 20
-710.7079161196671
 30
0.0
 40
73.89999999999809
100
AcDbArc
 50
-179.1083519999982
 51
-170.811953999998
  0
ARC
  5
2E6
330
5C
100
AcDbEntity
  8
LC-001-002-----0
  6
Continuous
 62
     7
100
AcDbCircle
 10
0.00019096590768
 20
-710.7079161196671
 30
0.0
 40
70.50000000000004
100
AcDbArc
 50
165.9346530000019
 51
179.0653470000025
  0
ARC
  5
2E7
330
5C
100
AcDbEntity
  8
LC-002-002-RND-0
  6
Continuous
 62
     7
100
AcDbCircle
 10
1.2001909659084
 20
-719.6917851196667
 30
0.0
 40
1.0
100
AcDbArc
 50
0.0
 51
90.0
  0
ARC
  5
2E8
330
5C
100
AcDbEntity
  8
LC-002-002-RND-0
  6
Continuous
 62
     7
100
AcDbCircle
 10
-1.19980903409305
 20
-719.6917851196667
 30
0.0
 40
1.0
100
AcDbArc
 50
90.0
 51
180.0
  0
ARC
  5
2E9
330
5C
100
AcDbEntity
  8
LC-002-002-RND-0
  6
Continuous
 62
     7
100
AcDbCircle
 10
-1.19980903409305
 20
-743.6917851196667
 30
0.0
 40
0.9999999999999998
100
AcDbArc
 50
180.0
 51
-90.0
  0
ARC
  5
2EA
330
5C
100
AcDbEntity
  8
LC-002-002-RND-0
  6
Continuous
 62
     7
100
AcDbCircle
 10
1.2001909659084
 20
-743.6917851196667
 30
0.0
 40
1.0
100
AcDbArc
 50
-90.0
 51
0.0
  0
ARC
  5
2EB
330
5C
100
AcDbEntity
  8
LC-002-002-RND-0
  6
Continuous
 62
     7
100
AcDbCircle
 10
1.2001909659084
 20
-701.7240471196674
 30
0.0
 40
1.0
100
AcDbArc
 50
-90.0
 51
0.0
  0
ARC
  5
2EC
330
5C
100
AcDbEntity
  8
LC-002-002-RND-0
  6
Continuous
 62
     7
100
AcDbCircle
 10
-1.19980903409305
 20
-701.7240471196674
 30
0.0
 40
0.9999999999999998
100
AcDbArc
 50
180.0
 51
-90.0
  0
ARC
  5
2ED
330
5C
100
AcDbEntity
  8
LC-002-002-RND-0
  6
Continuous
 62
     7
100
AcDbCircle
 10
-1.19980903409305
 20
-677.7240471196674
 30
0.0
 40
1.0
100
AcDbArc
 50
90.0
 51
180.0
  0
ARC
  5
2EE
330
5C
100
AcDbEntity
  8
LC-002-002-RND-0
  6
Continuous
 62
     7
100
AcDbCircle
 10
1.2001909659084
 20
-677.7240471196674
 30
0.0
 40
1.0
100
AcDbArc
 50
0.0
 51
90.0
  0
ARC
  5
2EF
330
5C
100
AcDbEntity
  8
LC-001-002-----0
  6
Continuous
 62
     7
100
AcDbCircle
 10
0.00019096590768
 20
-710.7079161196671
 30
0.0
 40
44.83999999999904
100
AcDbArc
 50
61.46961099999938
 51
73.53038899999922
  0
ARC
  5
2F0
330
5C
100
AcDbEntity
  8
LC-001-002-----0
  6
Continuous
 62
     7
100
AcDbCircle
 10
0.00019096590768
 20
-710.7079161196671
 30
0.0
 40
44.83999999999953
100
AcDbArc
 50
46.46961099999983
 51
58.53038899999645
  0
ARC
  5
2F1
330
5C
100
AcDbEntity
  8
LC-001-002-----0
  6
Continuous
 62
     7
100
AcDbCircle
 10
0.00019096590768
 20
-710.7079161196671
 30
0.0
 40
44.83999999999891
100
AcDbArc
 50
31.46961099999717
 51
43.53038900000017
  0
ARC
  5
2F2
330
5C
100
AcDbEntity
  8
LC-001-002-----0
  6
Continuous
 62
     7
100
AcDbCircle
 10
0.00019096590768
 20
-710.7079161196671
 30
0.0
 40
44.84000000000089
100
AcDbArc
 50
16.46961099999947
 51
28.53038899999653
  0
ARC
  5
2F3
330
5C
100
AcDbEntity
  8
LC-001-002-----0
  6
Continuous
 62
     7
100
AcDbCircle
 10
0.00019096590768
 20
-710.7079161196671
 30
0.0
 40
44.84000000000112
100
AcDbArc
 50
1.4696109999983
 51
13.53038899999733
  0
ARC
  5
2F4
330
5C
100
AcDbEntity
  8
LC-001-002-----0
  6
Continuous
 62
     7
100
AcDbCircle
 10
0.00019096590768
 20
-710.7079161196671
 30
0.0
 40
44.83999999999997
100
AcDbArc
 50
-13.53038900000185
 51
-1.46961100000295
  0
ARC
  5
2F5
330
5C
100
AcDbEntity
  8
LC-001-002-----0
  6
Continuous
 62
     7
100
AcDbCircle
 10
0.00019096590768
 20
-710.7079161196671
 30
0.0
 40
44.83999999999904
100
AcDbArc
 50
-28.53038900000061
 51
-16.46961100000393
  0
ARC
  5
2F6
330
5C
100
AcDbEntity
  8
LC-001-002-----0
  6
Continuous
 62
     7
100
AcDbCircle
 10
0.00019096590768
 20
-710.7079161196671
 30
0.0
 40
44.83999999999953
100
AcDbArc
 50
-43.53038900000017
 51
-31.46961100000113
  0
ARC
  5
2F7
330
5C
100
AcDbEntity
  8
LC-001-002-----0
  6
Continuous
 62
     7
100
AcDbCircle
 10
0.00019096590768
 20
-710.7079161196671
 30
0.0
 40
44.84000000000081
100
AcDbArc
 50
-58.53038899999886
 51
-46.46961099999983
  0
ARC
  5
2F8
330
5C
100
AcDbEntity
  8
LC-001-002-----0
  6
Continuous
 62
     7
100
AcDbCircle
 10
0.00019096590768
 20
-710.7079161196671
 30
0.0
 40
44.84000000000089
100
AcDbArc
 50
-73.53038900000054
 51
-61.46961100000161
  0
ARC
  5
2F9
330
5C
100
AcDbEntity
  8
LC-001-002-----0
  6
Continuous
 62
     7
100
AcDbCircle
 10
0.00019096590768
 20
-710.7079161196671
 30
0.0
 40
44.8400000000012
100
AcDbArc
 50
-88.53038899999704
 51
-76.46961099999923
  0
ARC
  5
2FA
330
5C
100
AcDbEntity
  8
LC-001-002-----0
  6
Continuous
 62
     7
100
AcDbCircle
 10
0.00019096590768
 20
-710.7079161196671
 30
0.0
 40
44.84000000000351
100
AcDbArc
 50
-103.5303890000008
 51
-91.46961099999831
  0
ARC
  5
2FB
330
5C
100
AcDbEntity
  8
LC-001-002-----0
  6
Continuous
 62
     7
100
AcDbCircle
 10
0.00019096590768
 20
-710.7079161196671
 30
0.0
 40
44.84000000000224
100
AcDbArc
 50
-118.5303889999984
 51
-106.4696109999995
  0
ARC
  5
2FC
330
5C
100
AcDbEntity
  8
LC-001-002-----0
  6
Continuous
 62
     7
100
AcDbCircle
 10
0.00019096590768
 20
-710.7079161196671
 30
0.0
 40
44.83999999999953
100
AcDbArc
 50
-133.5303890000002
 51
-121.4696109999972
  0
ARC
  5
2FD
330
5C
100
AcDbEntity
  8
LC-001-002-----0
  6
Continuous
 62
     7
100
AcDbCircle
 10
0.00019096590768
 20
-710.7079161196671
 30
0.0
 40
44.84000000000081
100
AcDbArc
 50
-148.5303889999989
 51
-136.4696109999998
  0
ARC
  5
2FE
330
5C
100
AcDbEntity
  8
LC-001-002-----0
  6
Continuous
 62
     7
100
AcDbCircle
 10
0.00019096590768
 20
-710.7079161196671
 30
0.0
 40
44.84000000000193
100
AcDbArc
 50
-163.5303889999961
 51
-151.4696109999994
  0
ARC
  5
2FF
330
5C
100
AcDbEntity
  8
LC-001-002-----0
  6
Continuous
 62
     7
100
AcDbCircle
 10
0.00019096590768
 20
-710.7079161196671
 30
0.0
 40
44.8400000000012
100
AcDbArc
 50
-178.5303889999971
 51
-166.4696109999982
  0
ARC
  5
300
330
5C
100
AcDbEntity
  8
LC-001-002-----0
  6
Continuous
 62
     7
100
AcDbCircle
 10
0.00019096590768
 20
-710.7079161196671
 30
0.0
 40
41.0000000000032
100
AcDbArc
 50
-131.9188669999988
 51
-93.08113299999653
  0
ARC
  5
301
330
5C
100
AcDbEntity
  8
LC-002-002-RND-0
  6
Continuous
 62
     7
100
AcDbCircle
 10
-2.14980903409014
 20
-750.6500931196679
 30
0.0
 40
0.9999999999999203
100
AcDbArc
 50
-93.08113299999174
 51
0.0
  0
ARC
  5
302
330
5C
100
AcDbEntity
  8
LC-002-002-RND-0
  6
Continuous
 62
     7
100
AcDbCircle
 10
2.15019096590913
 20
-750.6500931196679
 30
0.0
 40
1.0
100
AcDbArc
 50
180.0
 51
-86.91886700000828
  0
ARC
  5
303
330
5C
100
AcDbEntity
  8
LC-001-002-----0
  6
Continuous
 62
     7
100
AcDbCircle
 10
0.00019096590768
 20
-710.7079161196671
 30
0.0
 40
41.00000000000076
100
AcDbArc
 50
-86.9188669999984
 51
-48.08113300000117
  0
ARC
  5
304
330
5C
100
AcDbEntity
  8
LC-001-002-----0
  6
Continuous
 62
     7
100
AcDbCircle
 10
0.00019096590768
 20
-710.7079161196671
 30
0.0
 40
40.99999999999712
100
AcDbArc
 50
-176.9188669999981
 51
-138.0811329999978
  0
ARC
  5
305
330
5C
100
AcDbEntity
  8
LC-002-002-RND-0
  6
Continuous
 62
     7
100
AcDbCircle
 10
26.72329496590828
 20
-740.4715801196689
 30
0.0
 40
1.000000000000166
100
AcDbArc
 50
-48.08113299989665
 51
44.99999999999986
  0
ARC
  5
306
330
5C
100
AcDbEntity
  8
LC-002-002-RND-0
  6
Continuous
 62
     7
100
AcDbCircle
 10
29.76385496590956
 20
-737.431021119668
 30
0.0
 40
1.000000000002744
100
AcDbArc
 50
-135.0000000000001
 51
-41.91886700010365
  0
ARC
  5
307
330
5C
100
AcDbEntity
  8
LC-002-002-RND-0
  6
Continuous
 62
     7
100
AcDbCircle
 10
-26.72291403409326
 20
-740.4715801196689
 30
0.0
 40
1.000000000000169
100
AcDbArc
 50
134.9999999998526
 51
-131.9188669999487
  0
ARC
  5
308
330
5C
100
AcDbEntity
  8
LC-002-002-RND-0
  6
Continuous
 62
     7
100
AcDbCircle
 10
-29.76347303409057
 20
-737.431021119668
 30
0.0
 40
1.000000000002872
100
AcDbArc
 50
-138.0811330000356
 51
-45.00000000014725
  0
ARC
  5
309
330
5C
100
AcDbEntity
  8
LC-001-002-----0
  6
Continuous
 62
     7
100
AcDbCircle
 10
0.00019096590768
 20
-710.7079161196671
 30
0.0
 40
41.00000000000049
100
AcDbArc
 50
-41.91886700000223
 51
-3.08113300000161
  0
ARC
  5
30A
330
5C
100
AcDbEntity
  8
LC-001-002-----0
  6
Continuous
 62
     7
100
AcDbCircle
 10
0.00019096590768
 20
-710.7079161196671
 30
0.0
 40
41.00000000000057
100
AcDbArc
 50
3.08113299999653
 51
41.91886699999845
  0
ARC
  5
30B
330
5C
100
AcDbEntity
  8
LC-001-002-----0
  6
Continuous
 62
     7
100
AcDbCircle
 10
0.00019096590768
 20
-710.7079161196671
 30
0.0
 40
41.00000000000049
100
AcDbArc
 50
48.08113299999778
 51
86.91886699999813
  0
ARC
  5
30C
330
5C
100
AcDbEntity
  8
LC-001-002-----0
  6
Continuous
 62
     7
100
AcDbCircle
 10
0.00019096590768
 20
-710.7079161196671
 30
0.0
 40
40.99999999999693
100
AcDbArc
 50
93.08113299999681
 51
131.9188670000022
  0
ARC
  5
30D
330
5C
100
AcDbEntity
  8
LC-001-002-----0
  6
Continuous
 62
     7
100
AcDbCircle
 10
0.00019096590768
 20
-710.7079161196671
 30
0.0
 40
44.83999999999997
100
AcDbArc
 50
76.46961099999815
 51
88.53038899999693
  0
ARC
  5
30E
330
5C
100
AcDbEntity
  8
LC-001-002-----0
  6
Continuous
 62
     7
100
AcDbCircle
 10
0.00019096590768
 20
-710.7079161196671
 30
0.0
 40
44.83999999999747
100
AcDbArc
 50
91.46961099999842
 51
103.5303890000018
  0
ARC
  5
30F
330
5C
100
AcDbEntity
  8
LC-001-002-----0
  6
Continuous
 62
     7
100
AcDbCircle
 10
0.00019096590768
 20
-710.7079161196671
 30
0.0
 40
44.8399999999974
100
AcDbArc
 50
106.4696110000008
 51
118.5303890000006
  0
ARC
  5
310
330
5C
100
AcDbEntity
  8
LC-001-002-----0
  6
Continuous
 62
     7
100
AcDbCircle
 10
0.00019096590768
 20
-710.7079161196671
 30
0.0
 40
44.83999999999581
100
AcDbArc
 50
121.4696109999996
 51
133.4745849999999
  0
ARC
  5
311
330
5C
100
AcDbEntity
  8
LC-001-002-----0
  6
Continuous
 62
     7
100
AcDbCircle
 10
0.00019096590768
 20
-710.7079161196671
 30
0.0
 40
44.83999999999953
100
AcDbArc
 50
136.4696109999998
 51
148.5303890000028
  0
ARC
  5
312
330
5C
100
AcDbEntity
  8
LC-001-002-----0
  6
Continuous
 62
     7
100
AcDbCircle
 10
0.00019096590768
 20
-710.7079161196671
 30
0.0
 40
44.8399999999973
100
AcDbArc
 50
151.4696110000035
 51
163.5303890000005
  0
ARC
  5
313
330
5C
100
AcDbEntity
  8
LC-002-002-RND-0
  6
Continuous
 62
     7
100
AcDbCircle
 10
39.94236796590849
 20
-708.5579161196692
 30
0.0
 40
1.0
100
AcDbArc
 50
-90.0
 51
3.08113299999173
  0
ARC
  5
314
330
5C
100
AcDbEntity
  8
LC-002-002-RND-0
  6
Continuous
 62
     7
100
AcDbCircle
 10
39.94236796590849
 20
-712.8579161196685
 30
0.0
 40
0.9999999999999203
100
AcDbArc
 50
-3.08113299999173
 51
90.0
  0
ARC
  5
315
330
5C
100
AcDbEntity
  8
LC-002-002-RND-0
  6
Continuous
 62
     7
100
AcDbCircle
 10
26.72329496590828
 20
-680.9442521196688
 30
0.0
 40
1.000000000000171
100
AcDbArc
 50
-44.99999999985247
 51
48.08113299989665
  0
ARC
  5
316
330
5C
100
AcDbEntity
  8
LC-002-002-RND-0
  6
Continuous
 62
     7
100
AcDbCircle
 10
29.76385496590956
 20
-683.9848111196698
 30
0.0
 40
1.000000000000165
100
AcDbArc
 50
41.91886700010365
 51
135.0000000000001
  0
ARC
  5
317
330
5C
100
AcDbEntity
  8
LC-002-002-RND-0
  6
Continuous
 62
     7
100
AcDbCircle
 10
-2.14980903409014
 20
-670.7657391196699
 30
0.0
 40
1.0
100
AcDbArc
 50
0.0
 51
93.08113299999174
  0
ARC
  5
318
330
5C
100
AcDbEntity
  8
LC-002-002-RND-0
  6
Continuous
 62
     7
100
AcDbCircle
 10
2.15019096590913
 20
-670.7657391196699
 30
0.0
 40
0.9999999999999203
100
AcDbArc
 50
86.91886700000828
 51
180.0
  0
ARC
  5
319
330
5C
100
AcDbEntity
  8
LC-002-002-RND-0
  6
Continuous
 62
     7
100
AcDbCircle
 10
-29.76347303409057
 20
-683.9848111196698
 30
0.0
 40
1.000000000000171
100
AcDbArc
 50
45.00000000014725
 51
138.0811330000356
  0
ARC
  5
31A
330
5C
100
AcDbEntity
  8
LC-002-002-RND-0
  6
Continuous
 62
     7
100
AcDbCircle
 10
-26.72291403409326
 20
-680.9442521196688
 30
0.0
 40
0.9999999999977424
100
AcDbArc
 50
131.9188669999487
 51
-135.0
  0
ARC
  5
31B
330
5C
100
AcDbEntity
  8
LC-001-002-----0
  6
Continuous
 62
     7
100
AcDbCircle
 10
0.00019096590768
 20
-710.7079161196671
 30
0.0
 40
44.83999999999912
100
AcDbArc
 50
166.4696110000027
 51
178.5303890000017
  0
ARC
  5
31C
330
5C
100
AcDbEntity
  8
LC-002-002-RND-0
  6
Continuous
 62
     7
100
AcDbCircle
 10
-39.94198603409313
 20
-712.8579161196685
 30
0.0
 40
1.0
100
AcDbArc
 50
90.0
 51
-176.9188670000083
  0
ARC
  5
31D
330
5C
100
AcDbEntity
  8
LC-002-002-RND-0
  6
Continuous
 62
     7
100
AcDbCircle
 10
-39.94198603409313
 20
-708.5579161196692
 30
0.0
 40
0.9999999999999345
100
AcDbArc
 50
176.9188670000083
 51
-90.0
  0
ARC
  5
31E
330
5C
100
AcDbEntity
  8
LC-001-002-----0
  6
Continuous
 62
     7
100
AcDbCircle
 10
0.00019096590768
 20
-710.7079161196671
 30
0.0
 40
40.99999999999806
100
AcDbArc
 50
138.0811330000016
 51
176.9188670000032
  0
ARC
  5
31F
330
5C
100
AcDbEntity
  8
LC-001-002-----0
  6
Continuous
 62
     7
100
AcDbCircle
 10
0.00019096590768
 20
-710.7079161196671
 30
0.0
 40
3.499999999998411
100
AcDbArc
 50
109.1820900000047
 51
115.8179100000039
  0
ARC
  5
320
330
5C
100
AcDbEntity
  8
LC-001-002-----0
  6
Continuous
 62
     7
100
AcDbCircle
 10
0.00019096590768
 20
-710.7079161196671
 30
0.0
 40
85.60000000000052
100
AcDbArc
 50
-15.76976800000082
 51
-14.2302319999999
  0
ARC
  5
321
330
5C
100
AcDbEntity
  8
LC-001-002-----0
  6
Continuous
 62
     7
100
AcDbCircle
 10
0.00019096590768
 20
-710.7079161196671
 30
0.0
 40
85.60000000000235
100
AcDbArc
 50
-30.76976799999957
 51
-29.23023200000113
  0
ARC
  5
322
330
5C
100
AcDbEntity
  8
LC-001-002-----0
  6
Continuous
 62
     7
100
AcDbCircle
 10
0.00019096590768
 20
-710.7079161196671
 30
0.0
 40
85.59999999999947
100
AcDbArc
 50
-45.7697680000006
 51
-44.23023200000114
  0
ARC
  5
323
330
5C
100
AcDbEntity
  8
LC-001-002-----0
  6
Continuous
 62
     7
100
AcDbCircle
 10
0.00019096590768
 20
-710.7079161196671
 30
0.0
 40
85.60000000000089
100
AcDbArc
 50
-60.76976799999888
 51
-59.23023200000043
  0
ARC
  5
324
330
5C
100
AcDbEntity
  8
LC-001-002-----0
  6
Continuous
 62
     7
100
AcDbCircle
 10
0.00019096590768
 20
-710.7079161196671
 30
0.0
 40
85.60000000000028
100
AcDbArc
 50
-75.76976800000011
 51
-74.23023199999919
  0
ARC
  5
325
330
5C
100
AcDbEntity
  8
LC-001-002-----0
  6
Continuous
 62
     7
100
AcDbCircle
 10
0.00019096590768
 20
-710.7079161196671
 30
0.0
 40
85.59999999999894
100
AcDbArc
 50
-0.76976800000084
 51
0.76976799999841
  0
ARC
  5
326
330
5C
100
AcDbEntity
  8
LC-001-002-----0
  6
Continuous
 62
     7
100
AcDbCircle
 10
0.00019096590768
 20
-710.7079161196671
 30
0.0
 40
85.60000000000028
100
AcDbArc
 50
14.2302319999999
 51
15.76976799999848
  0
ARC
  5
327
330
5C
100
AcDbEntity
  8
LC-001-002-----0
  6
Continuous
 62
     7
100
AcDbCircle
 10
0.00019096590768
 20
-710.7079161196671
 30
0.0
 40
85.59999999999911
100
AcDbArc
 50
29.230231999999
 51
30.76976799999957
  0
ARC
  5
328
330
5C
100
AcDbEntity
  8
LC-001-002-----0
  6
Continuous
 62
     7
100
AcDbCircle
 10
0.00019096590768
 20
-710.7079161196671
 30
0.0
 40
85.59999999999948
100
AcDbArc
 50
44.2302319999994
 51
45.7697679999989
  0
ARC
  5
329
330
5C
100
AcDbEntity
  8
LC-001-002-----0
  6
Continuous
 62
     7
100
AcDbCircle
 10
0.00019096590768
 20
-710.7079161196671
 30
0.0
 40
85.59999999999923
100
AcDbArc
 50
59.23023199999918
 51
60.76976799999888
  0
ARC
  5
32A
330
5C
100
AcDbEntity
  8
LC-001-002-----0
  6
Continuous
 62
     7
100
AcDbCircle
 10
0.00019096590768
 20
-710.7079161196671
 30
0.0
 40
85.60000000000052
100
AcDbArc
 50
74.23023199999919
 51
75.76976799999952
  0
ARC
  5
32B
330
5C
100
AcDbEntity
  8
LC-001-002-----0
  6
Continuous
 62
     7
100
AcDbCircle
 10
0.00019096590768
 20
-710.7079161196671
 30
0.0
 40
85.59999999999894
100
AcDbArc
 50
89.23023199999916
 51
90.76976800000084
  0
ARC
  5
32C
330
5C
100
AcDbEntity
  8
LC-001-002-----0
  6
Continuous
 62
     7
100
AcDbCircle
 10
0.00019096590768
 20
-710.7079161196671
 30
0.0
 40
85.59999999999675
100
AcDbArc
 50
104.2302320000005
 51
105.7697679999985
  0
ARC
  5
32D
330
5C
100
AcDbEntity
  8
LC-001-002-----0
  6
Continuous
 62
     7
100
AcDbCircle
 10
0.00019096590768
 20
-710.7079161196671
 30
0.0
 40
85.59999999999594
100
AcDbArc
 50
119.2302320000002
 51
120.7697680000008
  0
ARC
  5
32E
330
5C
100
AcDbEntity
  8
LC-001-002-----0
  6
Continuous
 62
     7
100
AcDbCircle
 10
0.00019096590768
 20
-710.7079161196671
 30
0.0
 40
85.59999999999687
100
AcDbArc
 50
134.2302320000011
 51
135.7697680000006
  0
ARC
  5
32F
330
5C
100
AcDbEntity
  8
LC-001-002-----0
  6
Continuous
 62
     7
100
AcDbCircle
 10
0.00019096590768
 20
-710.7079161196671
 30
0.0
 40
85.60000000000258
100
AcDbArc
 50
-90.76976800000081
 51
-89.23023199999919
  0
ARC
  5
330
330
5C
100
AcDbEntity
  8
LC-001-002-----0
  6
Continuous
 62
     7
100
AcDbCircle
 10
0.00019096590768
 20
-710.7079161196671
 30
0.0
 40
85.59999999999954
100
AcDbArc
 50
-105.7697679999985
 51
-104.2302319999999
  0
ARC
  5
331
330
5C
100
AcDbEntity
  8
LC-001-002-----0
  6
Continuous
 62
     7
100
AcDbCircle
 10
0.00019096590768
 20
-710.7079161196671
 30
0.0
 40
85.60000000000235
100
AcDbArc
 50
-120.7697679999996
 51
-119.230231999999
  0
ARC
  5
332
330
5C
100
AcDbEntity
  8
LC-001-002-----0
  6
Continuous
 62
     7
100
AcDbCircle
 10
0.00019096590768
 20
-710.7079161196671
 30
0.0
 40
85.60000000000201
100
AcDbArc
 50
-135.7697679999989
 51
-134.2302319999994
  0
ARC
  5
333
330
5C
100
AcDbEntity
  8
LC-001-002-----0
  6
Continuous
 62
     7
100
AcDbCircle
 10
0.00019096590768
 20
-710.7079161196671
 30
0.0
 40
85.60000000000089
100
AcDbArc
 50
-150.7697679999989
 51
-149.2302319999992
  0
ARC
  5
334
330
5C
100
AcDbEntity
  8
LC-001-002-----0
  6
Continuous
 62
     7
100
AcDbCircle
 10
0.00019096590768
 20
-710.7079161196671
 30
0.0
 40
85.60000000000028
100
AcDbArc
 50
-165.7697680000001
 51
-164.2302319999992
  0
ARC
  5
335
330
5C
100
AcDbEntity
  8
LC-001-002-----0
  6
Continuous
 62
     7
100
AcDbCircle
 10
0.00019096590768
 20
-710.7079161196671
 30
0.0
 40
85.5999999999989
100
AcDbArc
 50
179.2302320000016
 51
-179.2302319999991
  0
ARC
  5
336
330
5C
100
AcDbEntity
  8
LC-001-002-----0
  6
Continuous
 62
     7
100
AcDbCircle
 10
0.00019096590768
 20
-710.7079161196671
 30
0.0
 40
85.59999999999923
100
AcDbArc
 50
149.2302319999992
 51
150.769768000001
  0
ARC
  5
337
330
5C
100
AcDbEntity
  8
LC-001-002-----0
  6
Continuous
 62
     7
100
AcDbCircle
 10
0.00019096590768
 20
-710.7079161196671
 30
0.0
 40
85.59999999999954
100
AcDbArc
 50
164.2302320000015
 51
165.7697680000001
  0
ARC
  5
338
330
5C
100
AcDbEntity
  8
LC-001-002-----0
  6
Continuous
 62
     7
100
AcDbCircle
 10
0.00019096590768
 20
-710.7079161196671
 30
0.0
 40
3.499999999999097
100
AcDbArc
 50
154.1820900000497
 51
160.8179099999953
  0
ARC
  5
339
330
5C
100
AcDbEntity
  8
LC-001-002-----0
  6
Continuous
 62
     7
100
AcDbCircle
 10
0.00019096590768
 20
-710.7079161196671
 30
0.0
 40
3.499999999998411
100
AcDbArc
 50
-160.8179099999953
 51
-154.1820899999961
  0
ARC
  5
33A
330
5C
100
AcDbEntity
  8
LC-001-002-----0
  6
Continuous
 62
     7
100
AcDbCircle
 10
0.00019096590768
 20
-710.7079161196671
 30
0.0
 40
3.500000000000681
100
AcDbArc
 50
-115.8179100000039
 51
-109.1820899999852
  0
ARC
  5
33B
330
5C
100
AcDbEntity
  8
LC-001-002-----0
  6
Continuous
 62
     7
100
AcDbCircle
 10
0.00019096590768
 20
-710.7079161196671
 30
0.0
 40
3.500000000001847
100
AcDbArc
 50
-70.81791000001485
 51
-64.18208999999611
  0
ARC
  5
33C
330
5C
100
AcDbEntity
  8
LC-001-002-----0
  6
Continuous
 62
     7
100
AcDbCircle
 10
0.00019096590768
 20
-710.7079161196671
 30
0.0
 40
3.500000000000682
100
AcDbArc
 50
-25.81791000000391
 51
-19.18208999998515
  0
ARC
  5
33D
330
5C
100
AcDbEntity
  8
LC-001-002-----0
  6
Continuous
 62
     7
100
AcDbCircle
 10
0.00019096590768
 20
-710.7079161196671
 30
0.0
 40
3.500000000001847
100
AcDbArc
 50
19.18208999998515
 51
25.8179099999503
  0
ARC
  5
33E
330
5C
100
AcDbEntity
  8
LC-001-002-----0
  6
Continuous
 62
     7
100
AcDbCircle
 10
0.00019096590768
 20
-710.7079161196671
 30
0.0
 40
3.500000000000682
100
AcDbArc
 50
64.18208999999611
 51
70.81790999999528
  0
ARC
  5
33F
330
5C
100
AcDbEntity
  8
LC-002-002-RND-0
  6
Continuous
 62
     7
100
AcDbCircle
 10
-178.9991870340928
 20
-889.7086901196672
 30
0.0
 40
9.999999999997897
100
AcDbArc
 50
-179.9998759999875
 51
-89.99975199999555
  0
ARC
  5
340
330
5C
100
AcDbEntity
  8
LC-002-002-RND-0
  6
Continuous
 62
     7
100
AcDbCircle
 10
179.0008129659072
 20
-889.707142119667
 30
0.0
 40
10.00000000000273
100
AcDbArc
 50
-89.9997519999744
 51
0.00012399999164
  0
ARC
  5
341
330
5C
100
AcDbEntity
  8
LC-002-002-RND-0
  6
Continuous
 62
     7
100
AcDbCircle
 10
179.0000389659072
 20
-531.707142119667
 30
0.0
 40
10.0000000000052
100
AcDbArc
 50
0.00012399999164
 51
90.00024800002497
  0
ARC
  5
342
330
5C
100
AcDbEntity
  8
LC-002-002-RND-0
  6
Continuous
 62
     7
100
AcDbCircle
 10
-178.9999610340929
 20
-531.7086901196672
 30
0.0
 40
9.999999999999089
100
AcDbArc
 50
90.00024799998312
 51
-179.9998759999875
  0
CIRCLE
  5
343
330
5C
100
AcDbEntity
  8
LC-001-002-----0
  6
Continuous
 62
     7
100
AcDbCircle
 10
0.00022196590726
 20
-710.7087181196694
 30
0.0
 40
177.0
  0
CIRCLE
  5
344
330
5C
100
AcDbEntity
  8
LC-001-002-----0
  6
Continuous
 62
     7
100
AcDbCircle
 10
129.5004259659072
 20
-840.2075141196692
 30
0.0
 40
4.75
  0
CIRCLE
  5
345
330
5C
100
AcDbEntity
  8
LC-001-002-----0
  6
Continuous
 62
     7
100
AcDbCircle
 10
-129.4995740340928
 20
-840.2075141196692
 30
0.0
 40
4.75
  0
CIRCLE
  5
346
330
5C
100
AcDbEntity
  8
LC-001-002-----0
  6
Continuous
 62
     7
100
AcDbCircle
 10
129.5004259659072
 20
-581.2075051196698
 30
0.0
 40
4.75
  0
CIRCLE
  5
347
330
5C
100
AcDbEntity
  8
LC-001-002-----0
  6
Continuous
 62
     7
100
AcDbCircle
 10
-129.4995740340928
 20
-581.2075091196675
 30
0.0
 40
4.75
  0
CIRCLE
  5
348
330
5C
100
AcDbEntity
  8
LC-001-002-----0
  6
Continuous
 62
     7
100
AcDbCircle
 10
129.5004259659072
 20
-840.2075091196675
 30
0.0
 40
2.5
  0
CIRCLE
  5
349
330
5C
100
AcDbEntity
  8
LC-001-002-----0
  6
Continuous
 62
     7
100
AcDbCircle
 10
-129.4995740340928
 20
-840.2075091196675
 30
0.0
 40
2.5
  0
CIRCLE
  5
34A
330
5C
100
AcDbEntity
  8
LC-001-002-----0
  6
Continuous
 62
     7
100
AcDbCircle
 10
-129.4995740340928
 20
-581.2075091196675
 30
0.0
 40
2.5
  0
CIRCLE
  5
34B
330
5C
100
AcDbEntity
  8
LC-001-002-----0
  6
Continuous
 62
     7
100
AcDbCircle
 10
129.5004259659072
 20
-581.2075091196675
 30
0.0
 40
2.5
  0
CIRCLE
  5
34C
330
5C
100
AcDbEntity
  8
LC-001-002-----0
  6
Continuous
 62
     7
100
AcDbCircle
 10
129.5004299659086
 20
-840.2075141196692
 30
0.0
 40
3.500004000001297
  0
CIRCLE
  5
34D
330
5C
100
AcDbEntity
  8
LC-001-002-----0
  6
Continuous
 62
     7
100
AcDbCircle
 10
129.5004299659086
 20
-581.2075051196698
 30
0.0
 40
3.500004000001297
  0
CIRCLE
  5
34E
330
5C
100
AcDbEntity
  8
LC-001-002-----0
  6
Continuous
 62
     7
100
AcDbCircle
 10
-129.4995790340909
 20
-581.2075051196698
 30
0.0
 40
3.500003999997816
  0
CIRCLE
  5
34F
330
5C
100
AcDbEntity
  8
LC-001-002-----0
  6
Continuous
 62
     7
100
AcDbCircle
 10
0.00019096590768
 20
-710.7079161196671
 30
0.0
 40
43.20000000000073
  0
CIRCLE
  5
350
330
5C
100
AcDbEntity
  8
LC-001-002-----0
  6
Continuous
 62
     7
100
AcDbCircle
 10
0.00022196590726
 20
-710.7087181196694
 30
0.0
 40
87.5
  0
ENDBLK
  5
5E
330
5C
100
AcDbEntity
  8
0
100
AcDbBlockEnd
  0
BLOCK
  5
359
330
351
100
AcDbEntity
  8
0
100
AcDbBlockBegin
  2
*D7
 70
     1
 71
     0
 10
0.0
 20
0.0
 30
0.0
  3
*D7
  1

  0
LINE
  5
352
330
351
100
AcDbEntity
  8
1
  6
Continuous
 62
     4
100
AcDbLine
 10
176.9999999999986
 20
120.816070502553
 30
0.0
 11
-177.0000000000013
 21
120.816070502553
 31
0.0
  0
LINE
  5
353
330
351
100
AcDbEntity
  8
1
  6
Continuous
 62
     4
100
AcDbLine
 10
176.9999999999986
 20
-2.0
 30
0.0
 11
176.9999999999986
 21
122.816070502553
 31
0.0
  0
LINE
  5
354
330
351
100
AcDbEntity
  8
1
  6
Continuous
 62
     4
100
AcDbLine
 10
-177.0000000000013
 20
-2.5
 30
0.0
 11
-177.0000000000013
 21
122.816070502553
 31
0.0
  0
SOLID
  5
355
330
351
100
AcDbEntity
  8
1
 62
     4
100
AcDbTrace
 10
164.9999999999986
 20
119.2362405315043
 30
0.0
 11
164.9999999999986
 21
122.3959004736018
 31
0.0
 12
176.9999999999986
 22
120.816070502553
 32
0.0
 13
176.9999999999986
 23
120.816070502553
 33
0.0
  0
SOLID
  5
356
330
351
100
AcDbEntity
  8
1
 62
     4
100
AcDbTrace
 10
-165.0000000000013
 20
122.3959004736018
 30
0.0
 11
-165.0000000000013
 21
119.2362405315043
 31
0.0
 12
-177.0000000000013
 22
120.816070502553
 32
0.0
 13
-177.0000000000013
 23
120.816070502553
 33
0.0
  0
MTEXT
  5
358
330
351
100
AcDbEntity
  8
1
 62
     1
100
AcDbMText
 10
-5.22332963768168
 20
122.8160227968868
 30
0.0
 40
12.0
 41
0.0
 71
     7
 72
     1
  1
\C1;\U+00d8\C1;354
  7
CONVERTER_11
 11
0.9999999999970619
 21
2.424068405545306E-6
 31
0.0
 73
     1
 44
0.60024009603842
  0
ENDBLK
  5
35A
330
351
100
AcDbEntity
  8
0
100
AcDbBlockEnd
  0
BLOCK
  5
364
330
35D
100
AcDbEntity
  8
0
100
AcDbBlockBegin
  2
*D8
 70
     1
 71
     0
 10
0.0
 20
0.0
 30
0.0
  3
*D8
  1

  0
LINE
  5
35E
330
35D
100
AcDbEntity
  8
1
  6
Continuous
 62
     4
100
AcDbLine
 10
-85.50000000000132
 20
-410.1695081729948
 30
0.0
 11
85.49999999999858
 21
-410.1695081729948
 31
0.0
  0
LINE
  5
35F
330
35D
100
AcDbEntity
  8
1
  6
Continuous
 62
     4
100
AcDbLine
 10
85.49999999999858
 20
-273.4988999007779
 30
0.0
 11
85.49999999999858
 21
-412.1695081729948
 31
0.0
  0
LINE
  5
360
330
35D
100
AcDbEntity
  8
1
  6
Continuous
 62
     4
100
AcDbLine
 10
-85.50000000000132
 20
-273.4988999007779
 30
0.0
 11
-85.50000000000132
 21
-412.1695081729948
 31
0.0
  0
SOLID
  5
361
330
35D
100
AcDbEntity
  8
1
 62
     4
100
AcDbTrace
 10
-73.50000000000132
 20
-408.5896782019461
 30
0.0
 11
-73.50000000000132
 21
-411.7493381440436
 31
0.0
 12
-85.50000000000132
 22
-410.1695081729948
 32
0.0
 13
-85.50000000000132
 23
-410.1695081729948
 33
0.0
  0
SOLID
  5
362
330
35D
100
AcDbEntity
  8
1
 62
     4
100
AcDbTrace
 10
73.49999999999858
 20
-411.7493381440436
 30
0.0
 11
73.49999999999858
 21
-408.5896782019461
 31
0.0
 12
85.49999999999858
 22
-410.1695081729948
 32
0.0
 13
85.49999999999858
 23
-410.1695081729948
 33
0.0
  0
MTEXT
  5
363
330
35D
100
AcDbEntity
  8
1
 62
     1
100
AcDbMText
 10
-26.55486244182076
 20
-408.1695558786611
 30
0.0
 40
12.0
 41
0.0
 71
     7
 72
     1
  1
\C1;\U+00d8\C1;171
  7
CONVERTER_11
 11
0.9999999999970619
 21
2.424068405545306E-6
 31
0.0
 73
     1
 44
0.60024009603842
  0
ENDBLK
  5
365
330
35D
100
AcDbEntity
  8
0
100
AcDbBlockEnd
  0
BLOCK
  5
36F
330
368
100
AcDbEntity
  8
0
100
AcDbBlockBegin
  2
*D9
 70
     1
 71
     0
 10
0.0
 20
0.0
 30
0.0
  3
*D9
  1

  0
LINE
  5
369
330
368
100
AcDbEntity
  8
1
  6
Continuous
 62
     4
100
AcDbLine
 10
-55.00000000000134
 20
-377.6849243739021
 30
0.0
 11
54.9999999999985
 21
-377.6849243739021
 31
0.0
  0
LINE
  5
36A
330
368
100
AcDbEntity
  8
1
  6
Continuous
 62
     4
100
AcDbLine
 10
54.9999999999985
 20
-343.4981289007781
 30
0.0
 11
54.9999999999985
 21
-379.6849243739021
 31
0.0
  0
LINE
  5
36B
330
368
100
AcDbEntity
  8
1
  6
Continuous
 62
     4
100
AcDbLine
 10
-55.00000000000134
 20
-343.4981289007781
 30
0.0
 11
-55.00000000000134
 21
-379.6849243739021
 31
0.0
  0
SOLID
  5
36C
330
368
100
AcDbEntity
  8
1
 62
     4
100
AcDbTrace
 10
-43.00000000000134
 20
-376.1050944028534
 30
0.0
 11
-43.00000000000134
 21
-379.2647543449509
 31
0.0
 12
-55.00000000000134
 22
-377.6849243739021
 32
0.0
 13
-55.00000000000134
 23
-377.6849243739021
 33
0.0
  0
SOLID
  5
36D
330
368
100
AcDbEntity
  8
1
 62
     4
100
AcDbTrace
 10
42.9999999999985
 20
-379.2647543449509
 30
0.0
 11
42.9999999999985
 21
-376.1050944028534
 31
0.0
 12
54.9999999999985
 22
-377.6849243739021
 32
0.0
 13
54.9999999999985
 23
-377.6849243739021
 33
0.0
  0
MTEXT
  5
36E
330
368
100
AcDbEntity
  8
1
 62
     1
100
AcDbMText
 10
-17.41214567561211
 20
-375.6849720795684
 30
0.0
 40
12.0
 41
0.0
 71
     7
 72
     1
  1
\C1;DN\C1;110
  7
CONVERTER_11
 11
0.9999999999970619
 21
2.424068405545306E-6
 31
0.0
 73
     1
 44
0.60024009603842
  0
ENDBLK
  5
370
330
368
100
AcDbEntity
  8
0
100
AcDbBlockEnd
  0
BLOCK
  5
37A
330
373
100
AcDbEntity
  8
0
100
AcDbBlockBegin
  2
*D10
 70
     1
 71
     0
 10
0.0
 20
0.0
 30
0.0
  3
*D10
  1

  0
LINE
  5
374
330
373
100
AcDbEntity
  8
1
  6
Continuous
 62
     4
100
AcDbLine
 10
207.1984407625386
 20
-278.4988999007779
 30
0.0
 11
207.1984407625386
 21
-108.000248900778
 31
0.0
  0
LINE
  5
375
330
373
100
AcDbEntity
  8
1
  6
Continuous
 62
     4
100
AcDbLine
 10
77.49999999999851
 20
-278.4988999007779
 30
0.0
 11
209.1984407625386
 21
-278.4988999007779
 31
0.0
  0
LINE
  5
376
330
373
100
AcDbEntity
  8
1
  6
Continuous
 62
     4
100
AcDbLine
 10
188.9999999999985
 20
-108.000248900778
 30
0.0
 11
209.1984407625386
 21
-108.000248900778
 31
0.0
  0
SOLID
  5
377
330
373
100
AcDbEntity
  8
1
 62
     4
100
AcDbTrace
 10
205.6186107914899
 20
-266.4988999007779
 30
0.0
 11
208.7782707335874
 21
-266.4988999007779
 31
0.0
 12
207.1984407625386
 22
-278.4988999007779
 32
0.0
 13
207.1984407625386
 23
-278.4988999007779
 33
0.0
  0
SOLID
  5
378
330
373
100
AcDbEntity
  8
1
 62
     4
100
AcDbTrace
 10
208.7782707335874
 20
-120.000248900778
 30
0.0
 11
205.6186107914899
 21
-120.000248900778
 31
0.0
 12
207.1984407625386
 22
-108.000248900778
 32
0.0
 13
207.1984407625386
 23
-108.000248900778
 33
0.0
  0
MTEXT
  5
379
330
373
100
AcDbEntity
  8
1
 62
     1
100
AcDbMText
 10
205.1984407625386
 20
-235.3613494705439
 30
0.0
 40
12.0
 41
0.0
 71
     7
 72
     1
  1
\C1;(\C1;111-171\C1;)
  7
CONVERTER_11
 11
0.0
 21
1.0
 31
0.0
 73
     1
 44
0.60024009603842
  0
ENDBLK
  5
37B
330
373
100
AcDbEntity
  8
0
100
AcDbBlockEnd
  0
BLOCK
  5
385
330
37E
100
AcDbEntity
  8
0
100
AcDbBlockBegin
  2
*D11
 70
     1
 71
     0
 10
0.0
 20
0.0
 30
0.0
  3
*D11
  1

  0
LINE
  5
37F
330
37E
100
AcDbEntity
  8
1
  6
Continuous
 62
     4
100
AcDbLine
 10
225.6739113855687
 20
-105.500248900778
 30
0.0
 11
225.6739113855687
 21
-5.50048805267353
 31
0.0
  0
LINE
  5
380
330
37E
100
AcDbEntity
  8
1
  6
Continuous
 62
     4
100
AcDbLine
 10
179.9999459999987
 20
-5.50048805267353
 30
0.0
 11
227.6739113855687
 21
-5.50048805267353
 31
0.0
  0
LINE
  5
381
330
37E
100
AcDbEntity
  8
1
  6
Continuous
 62
     4
100
AcDbLine
 10
186.9999999999986
 20
-105.500248900778
 30
0.0
 11
227.6739113855687
 21
-105.500248900778
 31
0.0
  0
SOLID
  5
382
330
37E
100
AcDbEntity
  8
1
 62
     4
100
AcDbTrace
 10
224.0940814145199
 20
-93.50024890077796
 30
0.0
 11
227.2537413566174
 21
-93.50024890077796
 31
0.0
 12
225.6739113855687
 22
-105.500248900778
 32
0.0
 13
225.6739113855687
 23
-105.500248900778
 33
0.0
  0
SOLID
  5
383
330
37E
100
AcDbEntity
  8
1
 62
     4
100
AcDbTrace
 10
227.2537413566174
 20
-17.50048805267353
 30
0.0
 11
224.0940814145199
 21
-17.50048805267353
 31
0.0
 12
225.6739113855687
 22
-5.50048805267353
 32
0.0
 13
225.6739113855687
 23
-5.50048805267353
 33
0.0
  0
MTEXT
  5
384
330
37E
100
AcDbEntity
  8
1
 62
     1
100
AcDbMText
 10
223.6739113855687
 20
-85.77777677783993
 30
0.0
 40
12.0
 41
0.0
 71
     7
 72
     1
  1
100-160
  7
CONVERTER_11
 11
0.0
 21
1.0
 31
0.0
 73
     1
 44
0.60024009603842
  0
ENDBLK
  5
386
330
37E
100
AcDbEntity
  8
0
100
AcDbBlockEnd
  0
BLOCK
  5
390
330
389
100
AcDbEntity
  8
0
100
AcDbBlockBegin
  2
*D12
 70
     1
 71
     0
 10
0.0
 20
0.0
 30
0.0
  3
*D12
  1

  0
LINE
  5
38A
330
389
100
AcDbEntity
  8
1
  6
Continuous
 62
     4
100
AcDbLine
 10
-142.0501740000014
 20
93.8215118979104
 30
0.0
 11
142.0501749999987
 21
93.8215118979104
 31
0.0
  0
LINE
  5
38B
330
389
100
AcDbEntity
  8
1
  6
Continuous
 62
     4
100
AcDbLine
 10
142.0501749999987
 20
-5.4998190526734
 30
0.0
 11
142.0501749999987
 21
95.8215118979104
 31
0.0
  0
LINE
  5
38C
330
389
100
AcDbEntity
  8
1
  6
Continuous
 62
     4
100
AcDbLine
 10
-142.0501740000014
 20
-5.4998190526734
 30
0.0
 11
-142.0501740000014
 21
95.8215118979104
 31
0.0
  0
SOLID
  5
38D
330
389
100
AcDbEntity
  8
1
 62
     4
100
AcDbTrace
 10
-130.0501740000014
 20
95.40134186895915
 30
0.0
 11
-130.0501740000014
 21
92.24168192686165
 31
0.0
 12
-142.0501740000014
 22
93.8215118979104
 32
0.0
 13
-142.0501740000014
 23
93.8215118979104
 33
0.0
  0
SOLID
  5
38E
330
389
100
AcDbEntity
  8
1
 62
     4
100
AcDbTrace
 10
130.0501749999987
 20
92.24168192686165
 30
0.0
 11
130.0501749999987
 21
95.40134186895915
 31
0.0
 12
142.0501749999987
 22
93.8215118979104
 32
0.0
 13
142.0501749999987
 23
93.8215118979104
 33
0.0
  0
MTEXT
  5
38F
330
389
100
AcDbEntity
  8
1
 62
     1
100
AcDbMText
 10
-59.58607436942557
 20
95.82141648657796
 30
0.0
 40
12.0
 41
0.0
 71
     7
 72
     1
  1
\C1;284x\C1;284
  7
CONVERTER_11
 11
0.9999999999970619
 21
2.424068405545306E-6
 31
0.0
 73
     1
 44
0.60024009603842
  0
ENDBLK
  5
391
330
389
100
AcDbEntity
  8
0
100
AcDbBlockEnd
  0
BLOCK
  5
39B
330
394
100
AcDbEntity
  8
0
100
AcDbBlockBegin
  2
*D13
 70
     1
 71
     0
 10
0.0
 20
0.0
 30
0.0
  3
*D13
  1

  0
LINE
  5
395
330
394
100
AcDbEntity
  8
1
  6
Continuous
 62
     4
100
AcDbLine
 10
-189.0000000000013
 20
145.559693643638
 30
0.0
 11
188.9999999999985
 21
145.559693643638
 31
0.0
  0
LINE
  5
396
330
394
100
AcDbEntity
  8
1
  6
Continuous
 62
     4
100
AcDbLine
 10
-189.0000000000013
 20
-108.000248900778
 30
0.0
 11
-189.0000000000013
 21
147.559693643638
 31
0.0
  0
LINE
  5
397
330
394
100
AcDbEntity
  8
1
  6
Continuous
 62
     4
100
AcDbLine
 10
188.9999999999985
 20
-108.000248900778
 30
0.0
 11
188.9999999999985
 21
147.559693643638
 31
0.0
  0
SOLID
  5
398
330
394
100
AcDbEntity
  8
1
 62
     4
100
AcDbTrace
 10
-177.0000000000013
 20
147.1395236146868
 30
0.0
 11
-177.0000000000013
 21
143.9798636725893
 31
0.0
 12
-189.0000000000013
 22
145.559693643638
 32
0.0
 13
-189.0000000000013
 23
145.559693643638
 33
0.0
  0
SOLID
  5
399
330
394
100
AcDbEntity
  8
1
 62
     4
100
AcDbTrace
 10
176.9999999999985
 20
143.9798636725893
 30
0.0
 11
176.9999999999985
 21
147.1395236146868
 31
0.0
 12
188.9999999999985
 22
145.559693643638
 32
0.0
 13
188.9999999999985
 23
145.559693643638
 33
0.0
  0
MTEXT
  5
39A
330
394
100
AcDbEntity
  8
1
 62
     1
100
AcDbMText
 10
-63.43000525874805
 20
147.5595982323056
 30
0.0
 40
12.0
 41
0.0
 71
     7
 72
     1
  1
\C1;378x\C1;378
  7
CONVERTER_11
 11
0.9999999999970619
 21
2.424068405545306E-6
 31
0.0
 73
     1
 44
0.60024009603842
  0
ENDBLK
  5
39C
330
394
100
AcDbEntity
  8
0
100
AcDbBlockEnd
  0
BLOCK
  5
3A6
330
39F
100
AcDbEntity
  8
0
100
AcDbBlockBegin
  2
*D14
 70
     1
 71
     0
 10
0.0
 20
0.0
 30
0.0
  3
*D14
  1

  0
LINE
  5
3A0
330
39F
100
AcDbEntity
  8
1
  6
Continuous
 62
     4
100
AcDbLine
 10
256.841794440571
 20
-278.4988999007779
 30
0.0
 11
256.841794440571
 21
-5.50048805267349
 31
0.0
  0
LINE
  5
3A1
330
39F
100
AcDbEntity
  8
1
  6
Continuous
 62
     4
100
AcDbLine
 10
77.49999999999861
 20
-278.4988999007779
 30
0.0
 11
258.841794440571
 21
-278.4988999007779
 31
0.0
  0
LINE
  5
3A2
330
39F
100
AcDbEntity
  8
1
  6
Continuous
 62
     4
100
AcDbLine
 10
179.9999459999987
 20
-5.50048805267349
 30
0.0
 11
258.841794440571
 21
-5.50048805267349
 31
0.0
  0
SOLID
  5
3A3
330
39F
100
AcDbEntity
  8
1
 62
     4
100
AcDbTrace
 10
255.2619644695222
 20
-266.4988999007779
 30
0.0
 11
258.4216244116197
 21
-266.4988999007779
 31
0.0
 12
256.841794440571
 22
-278.4988999007779
 32
0.0
 13
256.841794440571
 23
-278.4988999007779
 33
0.0
  0
SOLID
  5
3A4
330
39F
100
AcDbEntity
  8
1
 62
     4
100
AcDbTrace
 10
258.4216244116197
 20
-17.50048805267349
 30
0.0
 11
255.2619644695222
 21
-17.50048805267349
 31
0.0
 12
256.841794440571
 22
-5.50048805267349
 32
0.0
 13
256.841794440571
 23
-5.50048805267349
 33
0.0
  0
MTEXT
  5
3A5
330
39F
100
AcDbEntity
  8
1
 62
     1
100
AcDbMText
 10
254.841794440571
 20
-161.417085296547
 30
0.0
 40
12.0
 41
0.0
 71
     7
 72
     1
  1
271
  7
CONVERTER_11
 11
0.0
 21
1.0
 31
0.0
 73
     1
 44
0.60024009603842
  0
ENDBLK
  5
3A7
330
39F
100
AcDbEntity
  8
0
100
AcDbBlockEnd
  0
ENDSEC
  0
SECTION
  2
ENTITIES
  0
INSERT
  5
5F
330
1F
100
AcDbEntity
  8
1
100
AcDbBlockReference
  2
Senkschraube_M_6x25_DIN_965
 10
6.05062919496666
 20
-837.0285292033035
 30
0.0
  0
INSERT
  5
60
330
1F
100
AcDbEntity
  8
0
100
AcDbBlockReference
  2
Bauschutz_062_9E
 10
-646.596795999998
 20
-265.067673686026
 30
0.0
  0
INSERT
  5
61
330
1F
100
AcDbEntity
  8
1
100
AcDbBlockReference
  2
PVC_Manschette
 10
-1177.000000000001
 20
-77.67209328386544
 30
0.0
  0
INSERT
  5
62
330
1F
100
AcDbEntity
  8
0
100
AcDbBlockReference
  2
060_1E_Laubfangkorb
 10
17.77195867930509
 20
-743.2796355232712
 30
0.0
  0
INSERT
  5
63
330
1F
100
AcDbEntity
  8
1
100
AcDbBlockReference
  2
Außenansicht
 10
-29.52887217687742
 20
288.7124654531013
 30
0.0
  0
INSERT
  5
64
330
1F
100
AcDbEntity
  8
1
100
AcDbBlockReference
  2
Körper
 10
-268.79612903409
 20
-452.8599210371031
 30
0.0
  0
DIMENSION
  5
35C
330
1F
100
AcDbEntity
  8
1
100
AcDbDimension
  2
*D7
 10
176.9999999999986
 20
120.816070502553
 30
0.0
 11
21.6566703622605
 21
128.816070502553
 31
0.0
 70
    32
  1
<>
 71
     5
 42
-1.0
 53
0.00013888888889
  3
ME10_DIM_10
100
AcDbAlignedDimension
 13
-177.0000000000013
 23
-2.5
 33
0.0
 14
176.9999999999986
 24
-2.00000000000001
 34
0.0
 50
0.00000000000001
100
AcDbRotatedDimension
  0
DIMENSION
  5
367
330
1F
100
AcDbEntity
  8
1
100
AcDbDimension
  2
*D8
 10
-85.50000000000132
 20
-410.1695081729948
 30
0.0
 11
-3.27486244187858
 21
-402.1695081729948
 31
0.0
 70
    32
  1
<>
 71
     5
 42
-1.0
 53
0.00013888888889
  3
ME10_DIM_11
100
AcDbAlignedDimension
 13
85.49999999999861
 23
-273.498899900778
 33
0.0
 14
-85.50000000000134
 24
-273.498899900778
 34
0.0
 50
0.00000000000001
100
AcDbRotatedDimension
  0
DIMENSION
  5
372
330
1F
100
AcDbEntity
  8
1
100
AcDbDimension
  2
*D9
 10
-55.00000000000134
 20
-377.6849243739021
 30
0.0
 11
-0.13214567566993
 21
-369.6849243739021
 31
0.0
 70
    32
  1
<>
 71
     5
 42
-1.0
 53
0.00013888888889
  3
ME10_DIM_12
100
AcDbAlignedDimension
 13
54.9999999999985
 23
-343.4981289007779
 33
0.0
 14
-55.00000000000133
 24
-343.4981289007779
 34
0.0
 50
0.00000000000001
100
AcDbRotatedDimension
  0
DIMENSION
  5
37D
330
1F
100
AcDbEntity
  8
1
100
AcDbDimension
  2
*D10
 10
207.1984407625386
 20
-278.4988999007779
 30
0.0
 11
199.1984407625386
 21
-199.1213494705439
 31
0.0
 70
    32
  1
(111-171
 71
     5
 42
-1.0
 53
-89.99999999999999
  3
ME10_DIM_13
100
AcDbAlignedDimension
 13
188.9999999999985
 23
-108.0002489007779
 33
0.0
 14
77.4999999999986
 24
-278.4988999007779
 34
0.0
 50
-89.99999999999999
100
AcDbRotatedDimension
  0
DIMENSION
  5
388
330
1F
100
AcDbEntity
  8
1
100
AcDbDimension
  2
*D11
 10
225.6739113855687
 20
-105.500248900778
 30
0.0
 11
217.6739113855687
 21
-53.97777677783994
 31
0.0
 70
    32
  1
100-160
 71
     5
 42
-1.0
 53
-89.99999999999999
  3
ME10_DIM_14
100
AcDbAlignedDimension
 13
179.9999459999987
 23
-5.50048805267352
 33
0.0
 14
186.9999999999986
 24
-105.500248900778
 34
0.0
 50
-89.99999999999999
100
AcDbRotatedDimension
  0
DIMENSION
  5
393
330
1F
100
AcDbEntity
  8
1
100
AcDbDimension
  2
*D12
 10
-142.0501740000014
 20
93.8215118979104
 30
0.0
 11
-28.62607436954122
 21
101.8215118979104
 31
0.0
 70
    32
  1
284x284
 71
     5
 42
-1.0
 53
0.00013888888889
  3
ME10_DIM_15
100
AcDbAlignedDimension
 13
142.0501749999988
 23
-5.4998190526735
 33
0.0
 14
-142.0501740000013
 24
-5.4998190526735
 34
0.0
 50
0.00000000000001
100
AcDbRotatedDimension
  0
DIMENSION
  5
39E
330
1F
100
AcDbEntity
  8
1
100
AcDbDimension
  2
*D13
 10
-189.0000000000013
 20
145.559693643638
 30
0.0
 11
-32.4700052588637
 21
153.559693643638
 31
0.0
 70
    32
  1
<>
 71
     5
 42
-1.0
 53
0.00013888888889
  3
ME10_DIM_16
100
AcDbAlignedDimension
 13
188.9999999999985
 23
-108.0002489007779
 33
0.0
 14
-189.0000000000013
 24
-108.0002489007779
 34
0.0
 50
0.00000000000001
100
AcDbRotatedDimension
  0
DIMENSION
  5
3A9
330
1F
100
AcDbEntity
  8
1
100
AcDbDimension
  2
*D14
 10
256.841794440571
 20
-278.4988999007779
 30
0.0
 11
248.841794440571
 21
-148.817085296547
 31
0.0
 70
    32
  1
271
 71
     5
 42
-1.0
 53
90.0
  3
ME10_DIM_17
100
AcDbAlignedDimension
 13
179.9999459999987
 23
-5.50048805267352
 33
0.0
 14
77.4999999999986
 24
-278.4988999007779
 34
0.0
 50
90.0
100
AcDbRotatedDimension
  0
ENDSEC
  0
SECTION
  2
OBJECTS
  0
DICTIONARY
  5
C
330
0
100
AcDbDictionary
281
     1
  3
ACAD_GROUP
350
D
  3
ACAD_LAYOUT
350
1A
  3
ACAD_MLINESTYLE
350
17
  3
ACAD_PLOTSETTINGS
350
19
  3
ACAD_PLOTSTYLENAME
350
E
  3
ACAD_TABLESTYLE
350
3AA
  3
ACAD_VISUALSTYLE
350
2A
  0
DICTIONARY
  5
D
102
{ACAD_REACTORS
330
C
102
}
330
C
100
AcDbDictionary
281
     1
  0
DICTIONARY
  5
1A
102
{ACAD_REACTORS
330
C
102
}
330
C
100
AcDbDictionary
281
     1
  3
Layout1
350
1E
  3
Layout2
350
26
  3
Model
350
22
  0
DICTIONARY
  5
17
102
{ACAD_REACTORS
330
C
102
}
330
C
100
AcDbDictionary
281
     1
  3
Standard
350
18
  0
DICTIONARY
  5
19
102
{ACAD_REACTORS
330
C
102
}
330
C
100
AcDbDictionary
281
     1
  0
ACDBDICTIONARYWDFLT
  5
E
102
{ACAD_REACTORS
330
C
102
}
330
C
100
AcDbDictionary
281
     1
  3
Normal
350
F
100
AcDbDictionaryWithDefault
340
F
  0
DICTIONARY
  5
3AA
102
{ACAD_REACTORS
330
C
102
}
330
C
100
AcDbDictionary
281
     1
  0
DICTIONARY
  5
2A
102
{ACAD_REACTORS
330
C
102
}
330
C
100
AcDbDictionary
281
     1
  3
2dWireframe
350
2F
  3
3D Hidden
350
31
  3
3dWireframe
350
30
  3
Basic
350
32
  3
Brighten
350
36
  3
ColorChange
350
3A
  3
Conceptual
350
34
  3
Dim
350
35
  3
Facepattern
350
39
  3
Flat
350
2B
  3
FlatWithEdges
350
2C
  3
Gouraud
350
2D
  3
GouraudWithEdges
350
2E
  3
Linepattern
350
38
  3
Realistic
350
33
  3
Thicken
350
37
  0
LAYOUT
  5
1E
102
{ACAD_REACTORS
330
1A
102
}
330
1A
100
AcDbPlotSettings
  1

  2
none_device
  4

  6

 40
0.0
 41
0.0
 42
0.0
 43
0.0
 44
0.0
 45
0.0
 46
0.0
 47
0.0
 48
0.0
 49
0.0
140
0.0
141
0.0
142
1.0
143
1.0
 70
   688
 72
     0
 73
     0
 74
     5
  7

 75
    16
147
1.0
148
0.0
149
0.0
100
AcDbLayout
  1
Layout1
 70
     1
 71
     1
 10
0.0
 20
0.0
 11
12.0
 21
9.0
 12
0.0
 22
0.0
 32
0.0
 14
1.00000000000000E+20
 24
1.00000000000000E+20
 34
1.00000000000000E+20
 15
-1.00000000000000E+20
 25
-1.00000000000000E+20
 35
-1.00000000000000E+20
146
0.0
 13
0.0
 23
0.0
 33
0.0
 16
1.0
 26
0.0
 36
0.0
 17
0.0
 27
1.0
 37
0.0
 76
     0
330
1B
  0
LAYOUT
  5
26
102
{ACAD_REACTORS
330
1A
102
}
330
1A
100
AcDbPlotSettings
  1

  2
none_device
  4

  6

 40
0.0
 41
0.0
 42
0.0
 43
0.0
 44
0.0
 45
0.0
 46
0.0
 47
0.0
 48
0.0
 49
0.0
140
0.0
141
0.0
142
1.0
143
1.0
 70
   688
 72
     0
 73
     0
 74
     5
  7

 75
    16
147
1.0
148
0.0
149
0.0
100
AcDbLayout
  1
Layout2
 70
     1
 71
     2
 10
0.0
 20
0.0
 11
0.0
 21
0.0
 12
0.0
 22
0.0
 32
0.0
 14
0.0
 24
0.0
 34
0.0
 15
0.0
 25
0.0
 35
0.0
146
0.0
 13
0.0
 23
0.0
 33
0.0
 16
1.0
 26
0.0
 36
0.0
 17
0.0
 27
1.0
 37
0.0
 76
     0
330
23
  0
LAYOUT
  5
22
102
{ACAD_REACTORS
330
1A
102
}
330
1A
100
AcDbPlotSettings
  1

  2
none_device
  4

  6

 40
0.0
 41
0.0
 42
0.0
 43
0.0
 44
0.0
 45
0.0
 46
0.0
 47
0.0
 48
0.0
 49
0.0
140
0.0
141
0.0
142
1.0
143
1.0
 70
  1712
 72
     0
 73
     0
 74
     0
  7

 75
     0
147
1.0
148
0.0
149
0.0
100
AcDbLayout
  1
Model
 70
     1
 71
     0
 10
0.0
 20
0.0
 11
12.0
 21
9.0
 12
0.0
 22
0.0
 32
0.0
 14
-204.8234320736774
 24
-908.1247340371046
 34
0.0
 15
258.841794440571
 25
209.9265893886004
 35
0.0
146
0.0
 13
0.0
 23
0.0
 33
0.0
 16
1.0
 26
0.0
 36
0.0
 17
0.0
 27
1.0
 37
0.0
 76
     0
330
1F
331
29
  0
MLINESTYLE
  5
18
102
{ACAD_REACTORS
330
17
102
}
330
17
100
AcDbMlineStyle
  2
Standard
 70
     0
  3

 62
   256
 51
90.0
 52
90.0
 71
     2
 49
0.5
 62
   256
  6
BYLAYER
 49
-0.5
 62
   256
  6
BYLAYER
  0
ACDBPLACEHOLDER
  5
F
102
{ACAD_REACTORS
330
E
102
}
330
E
  0
VISUALSTYLE
  5
2F
102
{ACAD_REACTORS
330
2A
102
}
330
2A
100
AcDbVisualStyle
  2
2dWireframe
 70
     4
 71
     0
 72
     2
 73
     0
 90
        0
 40
-0.6
 41
-30.0
 62
     5
 63
     7
 74
     1
 91
        4
 64
     7
 65
   257
 75
     1
175
     1
 42
1.0
 92
        0
 66
   257
 43
1.0
 76
     1
 77
     6
 78
     2
 67
     7
 79
     5
170
     0
171
     0
290
     0
174
     0
 93
        1
 44
0.0
173
     0
291
     0
 45
0.0
1001
ACAD
1000
AcDbSavedByObjectVersion
1070
     0
  0
VISUALSTYLE
  5
31
102
{ACAD_REACTORS
330
2A
102
}
330
2A
100
AcDbVisualStyle
  2
3D Hidden
 70
     6
 71
     1
 72
     2
 73
     2
 90
        0
 40
-0.6
 41
-30.0
 62
     5
 63
     7
 74
     2
 91
        2
 64
     7
 65
   257
 75
     2
175
     1
 42
40.0
 92
        0
 66
   257
 43
1.0
 76
     1
 77
     6
 78
     2
 67
     7
 79
     3
170
     0
171
     0
290
     0
174
     0
 93
        1
 44
0.0
173
     0
291
     0
 45
0.0
1001
ACAD
1000
AcDbSavedByObjectVersion
1070
     0
  0
VISUALSTYLE
  5
30
102
{ACAD_REACTORS
330
2A
102
}
330
2A
100
AcDbVisualStyle
  2
3dWireframe
 70
     5
 71
     0
 72
     2
 73
     0
 90
        0
 40
-0.6
 41
-30.0
 62
     5
 63
     7
 74
     1
 91
        4
 64
     7
 65
   257
 75
     1
175
     1
 42
1.0
 92
        0
 66
   257
 43
1.0
 76
     1
 77
     6
 78
     2
 67
     7
 79
     5
170
     0
171
     0
290
     0
174
     0
 93
        1
 44
0.0
173
     0
291
     0
 45
0.0
1001
ACAD
1000
AcDbSavedByObjectVersion
1070
     0
  0
VISUALSTYLE
  5
32
102
{ACAD_REACTORS
330
2A
102
}
330
2A
100
AcDbVisualStyle
  2
Basic
 70
     7
 71
     1
 72
     0
 73
     1
 90
        0
 40
-0.6
 41
-30.0
 62
     5
 63
     7
 74
     0
 91
        4
 64
     7
 65
   257
 75
     1
175
     1
 42
1.0
 92
        8
 66
     7
 43
1.0
 76
     1
 77
     6
 78
     2
 67
     7
 79
     5
170
     0
171
     0
290
     0
174
     0
 93
        1
 44
0.0
173
     0
291
     1
 45
0.0
1001
ACAD
1000
AcDbSavedByObjectVersion
1070
     0
  0
VISUALSTYLE
  5
36
102
{ACAD_REACTORS
330
2A
102
}
330
2A
100
AcDbVisualStyle
  2
Brighten
 70
    12
 71
     2
 72
     2
 73
     0
 90
        0
 40
-0.6
 41
-30.0
 62
     5
 63
     7
 74
     1
 91
        4
 64
     7
 65
   257
 75
     1
175
     1
 42
1.0
 92
        8
 66
     7
 43
1.0
 76
     1
 77
     6
 78
     2
 67
     7
 79
     5
170
     0
171
     0
290
     0
174
     0
 93
        1
 44
50.0
173
     0
291
     1
 45
0.0
1001
ACAD
1000
AcDbSavedByObjectVersion
1070
     0
  0
VISUALSTYLE
  5
3A
102
{ACAD_REACTORS
330
2A
102
}
330
2A
100
AcDbVisualStyle
  2
ColorChange
 70
    16
 71
     2
 72
     2
 73
     3
 90
        0
 40
-0.6
 41
-30.0
 62
     5
 63
     8
 74
     1
 91
        4
 64
     7
 65
   257
 75
     1
175
     1
 42
1.0
 92
        8
 66
     8
 43
1.0
 76
     1
 77
     6
 78
     2
 67
     7
 79
     5
170
     0
171
     0
290
     0
174
     0
 93
        1
 44
0.0
173
     0
291
     1
 45
0.0
1001
ACAD
1000
AcDbSavedByObjectVersion
1070
     0
  0
VISUALSTYLE
  5
34
102
{ACAD_REACTORS
330
2A
102
}
330
2A
100
AcDbVisualStyle
  2
Conceptual
 70
     9
 71
     3
 72
     2
 73
     0
 90
        0
 40
-0.6
 41
-30.0
 62
     5
 63
     7
 74
     2
 91
        2
 64
     7
 65
   257
 75
     1
175
     1
 42
40.0
 92
        8
 66
     7
 43
1.0
 76
     1
 77
     6
 78
     2
 67
     7
 79
     3
170
     0
171
     0
290
     0
174
     0
 93
        1
 44
0.0
173
     0
291
     0
 45
0.0
1001
ACAD
1000
AcDbSavedByObjectVersion
1070
     0
  0
VISUALSTYLE
  5
35
102
{ACAD_REACTORS
330
2A
102
}
330
2A
100
AcDbVisualStyle
  2
Dim
 70
    11
 71
     2
 72
     2
 73
     0
 90
        0
 40
-0.6
 41
-30.0
 62
     5
 63
     7
 74
     1
 91
        4
 64
     7
 65
   257
 75
     1
175
     1
 42
1.0
 92
        8
 66
     7
 43
1.0
 76
     1
 77
     6
 78
     2
 67
     7
 79
     5
170
     0
171
     0
290
     0
174
     0
 93
        1
 44
-50.0
173
     0
291
     1
 45
0.0
1001
ACAD
1000
AcDbSavedByObjectVersion
1070
     0
  0
VISUALSTYLE
  5
39
102
{ACAD_REACTORS
330
2A
102
}
330
2A
100
AcDbVisualStyle
  2
Facepattern
 70
    15
 71
     2
 72
     2
 73
     0
 90
        0
 40
-0.6
 41
-30.0
 62
     5
 63
     7
 74
     1
 91
        4
 64
     7
 65
   257
 75
     1
175
     1
 42
1.0
 92
        8
 66
     7
 43
1.0
 76
     1
 77
     6
 78
     2
 67
     7
 79
     5
170
     0
171
     0
290
     0
174
     0
 93
        1
 44
0.0
173
     0
291
     1
 45
0.0
1001
ACAD
1000
AcDbSavedByObjectVersion
1070
     0
  0
VISUALSTYLE
  5
2B
102
{ACAD_REACTORS
330
2A
102
}
330
2A
100
AcDbVisualStyle
  2
Flat
 70
     0
 71
     2
 72
     1
 73
     1
 90
        2
 40
-0.6
 41
30.0
 62
     5
 63
     7
 74
     0
 91
        4
 64
     7
 65
   257
 75
     1
175
     1
 42
1.0
 92
        8
 66
     7
 43
1.0
 76
     1
 77
     6
 78
     2
 67
     7
 79
     5
170
     0
171
     0
290
     0
174
     0
 93
       13
 44
0.0
173
     0
291
     1
 45
0.0
1001
ACAD
1000
AcDbSavedByObjectVersion
1070
     0
  0
VISUALSTYLE
  5
2C
102
{ACAD_REACTORS
330
2A
102
}
330
2A
100
AcDbVisualStyle
  2
FlatWithEdges
 70
     1
 71
     2
 72
     1
 73
     1
 90
        2
 40
-0.6
 41
30.0
 62
     5
 63
     7
 74
     1
 91
        4
 64
     7
 65
   257
 75
     1
175
     1
 42
1.0
 92
        0
 66
   257
 43
1.0
 76
     1
 77
     6
 78
     2
 67
     7
 79
     5
170
     0
171
     0
290
     0
174
     0
 93
       13
 44
0.0
173
     0
291
     1
 45
0.0
1001
ACAD
1000
AcDbSavedByObjectVersion
1070
     0
  0
VISUALSTYLE
  5
2D
102
{ACAD_REACTORS
330
2A
102
}
330
2A
100
AcDbVisualStyle
  2
Gouraud
 70
     2
 71
     2
 72
     2
 73
     1
 90
        2
 40
-0.6
 41
30.0
 62
     5
 63
     7
 74
     0
 91
        4
 64
     7
 65
   257
 75
     1
175
     1
 42
1.0
 92
        0
 66
     7
 43
1.0
 76
     1
 77
     6
 78
     2
 67
     7
 79
     5
170
     0
171
     0
290
     0
174
     0
 93
       13
 44
0.0
173
     0
291
     1
 45
0.0
1001
ACAD
1000
AcDbSavedByObjectVersion
1070
     0
  0
VISUALSTYLE
  5
2E
102
{ACAD_REACTORS
330
2A
102
}
330
2A
100
AcDbVisualStyle
  2
GouraudWithEdges
 70
     3
 71
     2
 72
     2
 73
     1
 90
        2
 40
-0.6
 41
30.0
 62
     5
 63
     7
 74
     1
 91
        4
 64
     7
 65
   257
 75
     1
175
     1
 42
1.0
 92
        0
 66
   257
 43
1.0
 76
     1
 77
     6
 78
     2
 67
     7
 79
     5
170
     0
171
     0
290
     0
174
     0
 93
       13
 44
0.0
173
     0
291
     1
 45
0.0
1001
ACAD
1000
AcDbSavedByObjectVersion
1070
     0
  0
VISUALSTYLE
  5
38
102
{ACAD_REACTORS
330
2A
102
}
330
2A
100
AcDbVisualStyle
  2
Linepattern
 70
    14
 71
     2
 72
     2
 73
     0
 90
        0
 40
-0.6
 41
-30.0
 62
     5
 63
     7
 74
     1
 91
        4
 64
     7
 65
   257
 75
     7
175
     7
 42
1.0
 92
        8
 66
     7
 43
1.0
 76
     1
 77
     6
 78
     2
 67
     7
 79
     5
170
     0
171
     0
290
     0
174
     0
 93
        1
 44
0.0
173
     0
291
     1
 45
0.0
1001
ACAD
1000
AcDbSavedByObjectVersion
1070
     0
  0
VISUALSTYLE
  5
33
102
{ACAD_REACTORS
330
2A
102
}
330
2A
100
AcDbVisualStyle
  2
Realistic
 70
     8
 71
     2
 72
     2
 73
     0
 90
        0
 40
-0.6
 41
-30.0
 62
     5
 63
     7
 74
     1
 91
        0
 64
     7
 65
   257
 75
     1
175
     1
 42
1.0
 92
        8
 66
     8
 43
1.0
 76
     1
 77
     6
 78
     2
 67
     7
 79
     5
170
     0
171
     0
290
     0
174
     0
 93
       13
 44
0.0
173
     0
291
     0
 45
0.0
1001
ACAD
1000
AcDbSavedByObjectVersion
1070
     0
  0
VISUALSTYLE
  5
37
102
{ACAD_REACTORS
330
2A
102
}
330
2A
100
AcDbVisualStyle
  2
Thicken
 70
    13
 71
     2
 72
     2
 73
     0
 90
        0
 40
-0.6
 41
-30.0
 62
     5
 63
     7
 74
     1
 91
        4
 64
     7
 65
   257
 75
     1
175
     1
 42
1.0
 92
       12
 66
     7
 43
1.0
 76
     1
 77
     6
 78
     2
 67
     7
 79
     5
170
     0
171
     0
290
     0
174
     0
 93
        1
 44
0.0
173
     0
291
     1
 45
0.0
1001
ACAD
1000
AcDbSavedByObjectVersion
1070
     0
  0
ENDSEC
  0
EOF
