  0
SECTION
  2
HEADER
  9
$ACADVER
  1
AC1014
  9
$ACADMAINTVER
 70
             0
  9
$DWGCODEPAGE
  3
ANSI_1252
  9
$INSBASE
 10
0.0
 20
0.0
 30
0.0
  9
$EXTMIN
 10
-249.9995512616066
 20
-229.85192125602001
 30
0.0
  9
$EXTMAX
 10
363.84732506181808
 20
75.13705199328307
 30
0.0
  9
$LIMMIN
 10
0.0
 20
0.0
  9
$LIMMAX
 10
0.0
 20
0.0
  9
$ORTHOMODE
 70
             0
  9
$REGENMODE
 70
             1
  9
$FILLMODE
 70
             1
  9
$QTEXTMODE
 70
             0
  9
$MIRRTEXT
 70
             1
  9
$DRAGMODE
 70
             2
  9
$LTSCALE
 40
1.0
  9
$OSMODE
 70
             0
  9
$ATTMODE
 70
             1
  9
$TEXTSIZE
 40
0.2
  9
$TRACEWID
 40
0.05
  9
$TEXTSTYLE
  7
STANDARD
  9
$CLAYER
  8
0
  9
$CELTYPE
  6
CONTINUOUS
  9
$CECOLOR
 62
           256
  9
$CELTSCALE
 40
1.0
  9
$DELOBJ
 70
             1
  9
$DISPSILH
 70
             0
  9
$DIMSCALE
 40
1.0
  9
$DIMASZ
 40
0.18
  9
$DIMEXO
 40
0.0625
  9
$DIMDLI
 40
0.38
  9
$DIMRND
 40
0.0
  9
$DIMDLE
 40
0.0
  9
$DIMEXE
 40
0.18
  9
$DIMTP
 40
0.0
  9
$DIMTM
 40
0.0
  9
$DIMTXT
 40
0.18
  9
$DIMCEN
 40
0.09
  9
$DIMTSZ
 40
0.0
  9
$DIMTOL
 70
             0
  9
$DIMLIM
 70
             0
  9
$DIMTIH
 70
             1
  9
$DIMTOH
 70
             1
  9
$DIMSE1
 70
             0
  9
$DIMSE2
 70
             0
  9
$DIMTAD
 70
             0
  9
$DIMZIN
 70
             0
  9
$DIMBLK
  1

  9
$DIMASO
 70
             1
  9
$DIMSHO
 70
             1
  9
$DIMPOST
  1

  9
$DIMAPOST
  1

  9
$DIMALT
 70
             0
  9
$DIMALTD
 70
             2
  9
$DIMALTF
 40
25.4
  9
$DIMLFAC
 40
1.0
  9
$DIMTOFL
 70
             0
  9
$DIMTVP
 40
0.0
  9
$DIMTIX
 70
             0
  9
$DIMSOXD
 70
             0
  9
$DIMSAH
 70
             0
  9
$DIMBLK1
  1

  9
$DIMBLK2
  1

  9
$DIMSTYLE
  2
STANDARD
  9
$DIMCLRD
 70
             0
  9
$DIMCLRE
 70
             0
  9
$DIMCLRT
 70
             0
  9
$DIMTFAC
 40
1.0
  9
$DIMGAP
 40
0.09
  9
$DIMJUST
 70
             0
  9
$DIMSD1
 70
             0
  9
$DIMSD2
 70
             0
  9
$DIMTOLJ
 70
             1
  9
$DIMTZIN
 70
             0
  9
$DIMALTZ
 70
             0
  9
$DIMALTTZ
 70
             0
  9
$DIMFIT
 70
             3
  9
$DIMUPT
 70
             0
  9
$DIMUNIT
 70
             2
  9
$DIMDEC
 70
             4
  9
$DIMTDEC
 70
             4
  9
$DIMALTU
 70
             2
  9
$DIMALTTD
 70
             2
  9
$DIMTXSTY
  7
STANDARD
  9
$DIMAUNIT
 70
             0
  9
$LUNITS
 70
             2
  9
$LUPREC
 70
             4
  9
$SKETCHINC
 40
0.1
  9
$FILLETRAD
 40
0.0
  9
$AUNITS
 70
             0
  9
$AUPREC
 70
             0
  9
$MENU
  1
acad
  9
$ELEVATION
 40
0.0
  9
$PELEVATION
 40
0.0
  9
$THICKNESS
 40
0.0
  9
$LIMCHECK
 70
             0
  9
$BLIPMODE
 70
             1
  9
$CHAMFERA
 40
0.0
  9
$CHAMFERB
 40
0.0
  9
$CHAMFERC
 40
0.0
  9
$CHAMFERD
 40
0.0
  9
$SKPOLY
 70
             0
  9
$TDCREATE
 40
0.000000000
  9
$TDUPDATE
 40
0.000000000
  9
$TDINDWG
 40
0.0000000000
  9
$TDUSRTIMER
 40
0.0000000000
  9
$USRTIMER
 70
             1
  9
$ANGBASE
 50
0.0
  9
$ANGDIR
 70
             0
  9
$PDMODE
 70
             0
  9
$PDSIZE
 40
0.0
  9
$PLINEWID
 40
0.0
  9
$COORDS
 70
             0
  9
$SPLFRAME
 70
             0
  9
$SPLINETYPE
 70
             6
  9
$SPLINESEGS
 70
             8
  9
$ATTDIA
 70
             0
  9
$ATTREQ
 70
             1
  9
$HANDLING
 70
             1
  9
$HANDSEED
  5
106
  9
$SURFTAB1
 70
             6
  9
$SURFTAB2
 70
             6
  9
$SURFTYPE
 70
             6
  9
$SURFU
 70
             6
  9
$SURFV
 70
             6
  9
$UCSNAME
  2

  9
$UCSORG
 10
0.0
 20
0.0
 30
0.0
  9
$UCSXDIR
 10
1.0
 20
0.0
 30
0.0
  9
$UCSYDIR
 10
0.0
 20
1.0
 30
0.0
  9
$PUCSNAME
  2

  9
$PUCSORG
 10
0.0
 20
0.0
 30
0.0
  9
$PUCSXDIR
 10
1.0
 20
0.0
 30
0.0
  9
$PUCSYDIR
 10
0.0
 20
1.0
 30
0.0
  9
$USERI1
 70
             0
  9
$USERI2
 70
             0
  9
$USERI3
 70
             0
  9
$USERI4
 70
             0
  9
$USERI5
 70
             0
  9
$USERR1
 40
12.01
  9
$USERR2
 40
0.0
  9
$USERR3
 40
0.0
  9
$USERR4
 40
0.0
  9
$USERR5
 40
0.0
  9
$WORLDVIEW
 70
             1
  9
$SHADEDGE
 70
             3
  9
$SHADEDIF
 70
            70
  9
$TILEMODE
 70
             1
  9
$MAXACTVP
 70
            16
  9
$PINSBASE
 10
0.0
 20
0.0
 30
0.0
  9
$PLIMCHECK
 70
             0
  9
$PEXTMIN
 10
1.00000000000000E+20
 20
1.00000000000000E+20
 30
1.00000000000000E+20
  9
$PEXTMAX
 10
-1.00000000000000E+20
 20
-1.00000000000000E+20
 30
-1.00000000000000E+20
  9
$PLIMMIN
 10
0.0
 20
0.0
  9
$PLIMMAX
 10
12.0
 20
9.0
  9
$UNITMODE
 70
             0
  9
$VISRETAIN
 70
             0
  9
$PLINEGEN
 70
             1
  9
$PSLTSCALE
 70
             0
  9
$TREEDEPTH
 70
          3020
  9
$PICKSTYLE
 70
             1
  9
$CMLSTYLE
  2
STANDARD
  9
$CMLJUST
 70
             0
  9
$CMLSCALE
 40
1.0
  9
$PROXYGRAPHICS
 70
             0
  9
$MEASUREMENT
 70
             1
  0
ENDSEC
  0
SECTION
  2
CLASSES
  0
CLASS
  1
LWPOLYLINE
  2
AcDbPolyline
  3
"AutoCAD"
 90
        0
280
             0
281
             1
  0
CLASS
  1
IMAGE
  2
AcDbRasterImage
  3
ISM
 90
      127
280
             0
281
             1
  0
CLASS
  1
OLE2FRAME
  2
AcDbOle2Frame
  3
""
 90
        0
280
             0
281
             1
  0
CLASS
  1
HATCH
  2
AcDbHatch
  3
"ACAD_SEDONA"
 90
        0
280
             0
281
             1
  0
CLASS
  1
DICTIONARYVAR
  2
AcDbDictionaryVar
  3
"AutoCAD"
 90
        0
280
             0
281
             0
  0
CLASS
  1
RASTERVARIABLES
  2
AcDbRasterVariables
  3
ISM
 90
        0
280
             0
281
             0
  0
CLASS
  1
IMAGEDEF
  2
AcDbRasterImageDef
  3
ISM
 90
        0
280
             0
281
             0
  0
CLASS
  1
IMAGEDEF_REACTOR
  2
AcDbRasterImageDefReactor
  3
ISM
 90
        1
280
             0
281
             0
  0
CLASS
  1
IDBUFFER
  2
AcDbIdBuffer
  3
"Acad"
 90
        0
280
             0
281
             0
  0
CLASS
  1
SPATIAL_FILTER
  2
AcDbSpatialFilter
  3
"Acad"
 90
        0
280
             0
281
             0
  0
CLASS
  1
XRECORD
  2
AcDbXrecord
  3
"<Built In>"
 90
        0
280
             0
281
             0
  0
CLASS
  1
SORTENTSTABLE
  2
AcDbSortentsTable
  3
"AutoCAD"
 90
        0
280
             0
281
             0
  0
CLASS
  1
LAYER_INDEX
  2
AcDbLayerIndex
  3
"Acad"
 90
        0
280
             0
281
             0
  0
CLASS
  1
SPATIAL_INDEX
  2
AcDbSpatialIndex
  3
"Acad"
 90
        0
280
             0
281
             0
  0
CLASS
  1
OBJECT_PTR
  2
CAseDLPNTableRecord
  3
"ASE-LPNTableRecord"
 90
        1
280
             0
281
             0
  0
CLASS
  1
LAYOUT
  2
AcDbLayout
  3
"AutoCAD 2000"
 90
        0
280
             0
281
             0
  0
CLASS
  1
PLOTSETTINGS
  2
AcDbPlotSettings
  3
"AutoCAD 2000"
 90
        0
280
             0
281
             0
  0
CLASS
  1
ACDBDICTIONARYWDFLT
  2
AcDbDictionaryWithDefault
  3
"AutoCAD 2000"
 90
        0
280
             0
281
             0
  0
CLASS
  1
ACDBPLACEHOLDER
  2
AcDbPlaceHolder
  3
"AutoCAD 2000"
 90
        0
280
             0
281
             0
  0
ENDSEC
  0
SECTION
  2
TABLES
  0
TABLE
  2
VPORT
  5
7
100
AcDbSymbolTable
 70
             1
  0
VPORT
  5
15
100
AcDbSymbolTableRecord
100
AcDbViewportTableRecord
  2
*ACTIVE
 70
             0
 10
0.0
 20
0.0
 11
1.0
 21
1.0
 12
56.92388690010574
 22
-77.35743463136848
 13
0.0
 23
0.0
 14
1.0
 24
1.0
 15
0.0
 25
0.0
 16
0.0
 26
0.0
 36
1.0
 17
0.0
 27
0.0
 37
0.0
 40
421.31440202254015
 41
1.60267857142857
 42
50.0
 43
0.0
 44
0.0
 50
0.0
 51
0.0
 71
             0
 72
           100
 73
             1
 74
             1
 75
             0
 76
             0
 77
             0
 78
             0
  0
ENDTAB
  0
TABLE
  2
LTYPE
  5
4
100
AcDbSymbolTable
 70
            10
  0
LTYPE
  5
11
100
AcDbSymbolTableRecord
100
AcDbLinetypeTableRecord
  2
BYBLOCK
 70
            64
  3

 72
            65
 73
             0
 40
0.0
  0
LTYPE
  5
12
100
AcDbSymbolTableRecord
100
AcDbLinetypeTableRecord
  2
BYLAYER
 70
            64
  3

 72
            65
 73
             0
 40
0.0
  0
LTYPE
  5
13
100
AcDbSymbolTableRecord
100
AcDbLinetypeTableRecord
  2
CONTINUOUS
 70
            64
  3
Solid line
 72
            65
 73
             0
 40
0.0
  0
LTYPE
  5
1D
100
AcDbSymbolTableRecord
100
AcDbLinetypeTableRecord
  2
DASHED
 70
            64
  3
Dashed
 72
            65
 73
             2
 40
15.0
 49
7.0
 74
             0
 49
-8.0
 74
             0
  0
LTYPE
  5
1E
100
AcDbSymbolTableRecord
100
AcDbLinetypeTableRecord
  2
DOTTED
 70
            64
  3
Dotted
 72
            65
 73
             2
 40
1.0
 49
0.0
 74
             0
 49
-1.0
 74
             0
  0
LTYPE
  5
1F
100
AcDbSymbolTableRecord
100
AcDbLinetypeTableRecord
  2
DOT_CENTER
 70
            64
  3
Dot_Center
 72
            65
 73
             4
 40
14.0
 49
12.0
 74
             0
 49
-1.0
 74
             0
 49
0.0
 74
             0
 49
-1.0
 74
             0
  0
LTYPE
  5
20
100
AcDbSymbolTableRecord
100
AcDbLinetypeTableRecord
  2
LONG_DASHED
 70
            64
  3
Long_Dashed
 72
            65
 73
             2
 40
15.0
 49
10.0
 74
             0
 49
-5.0
 74
             0
  0
LTYPE
  5
21
100
AcDbSymbolTableRecord
100
AcDbLinetypeTableRecord
  2
DASH_CENTER
 70
            64
  3
Dash_Center
 72
            65
 73
             4
 40
14.0
 49
11.0
 74
             0
 49
-1.0
 74
             0
 49
1.0
 74
             0
 49
-1.0
 74
             0
  0
LTYPE
  5
22
100
AcDbSymbolTableRecord
100
AcDbLinetypeTableRecord
  2
PHANTOM
 70
            64
  3
Phantom
 72
            65
 73
             6
 40
13.0
 49
10.0
 74
             0
 49
-1.0
 74
             0
 49
0.0
 74
             0
 49
-1.0
 74
             0
 49
0.0
 74
             0
 49
-1.0
 74
             0
  0
LTYPE
  5
23
100
AcDbSymbolTableRecord
100
AcDbLinetypeTableRecord
  2
CENTER_DASH_DASH
 70
            64
  3
Center_Dash_Dash
 72
            65
 73
             6
 40
14.0
 49
9.0
 74
             0
 49
-1.0
 74
             0
 49
1.0
 74
             0
 49
-1.0
 74
             0
 49
1.0
 74
             0
 49
-1.0
 74
             0
  0
ENDTAB
  0
TABLE
  2
LAYER
  5
2
100
AcDbSymbolTable
 70
             6
  0
LAYER
  5
14
100
AcDbSymbolTableRecord
100
AcDbLayerTableRecord
  2
0
 70
             0
 62
             7
  6
CONTINUOUS
  0
LAYER
  5
24
100
AcDbSymbolTableRecord
100
AcDbLayerTableRecord
  2
1
 70
             0
 62
             7
  6
CONTINUOUS
  0
LAYER
  5
25
100
AcDbSymbolTableRecord
100
AcDbLayerTableRecord
  2
LC-001-020-----0
 70
             0
 62
             7
  6
CONTINUOUS
  0
LAYER
  5
26
100
AcDbSymbolTableRecord
100
AcDbLayerTableRecord
  2
LC-002-002-----0
 70
             0
 62
             7
  6
CONTINUOUS
  0
LAYER
  5
27
100
AcDbSymbolTableRecord
100
AcDbLayerTableRecord
  2
LC-003-002-----0
 70
             0
 62
             7
  6
CONTINUOUS
  0
LAYER
  5
28
100
AcDbSymbolTableRecord
100
AcDbLayerTableRecord
  2
LC-009-002-RND-0
 70
             0
 62
             7
  6
CONTINUOUS
  0
ENDTAB
  0
TABLE
  2
STYLE
  5
3
100
AcDbSymbolTable
 70
             2
  0
STYLE
  5
17
100
AcDbSymbolTableRecord
100
AcDbTextStyleTableRecord
  2
STANDARD
 70
             0
 40
0.0
 41
1.0
 50
0.0
 71
             0
 42
0.0
  3
txt
  4

  0
STYLE
  5
B3
100
AcDbSymbolTableRecord
100
AcDbTextStyleTableRecord
  2
CONVERTER_1
 70
             0
 40
0.0
 41
0.9
 50
0.0
 71
             0
 42
0.0
  3
txt.shx
  4

  0
ENDTAB
  0
TABLE
  2
VIEW
  5
5
100
AcDbSymbolTable
 70
             0
  0
ENDTAB
  0
TABLE
  2
UCS
  5
6
100
AcDbSymbolTable
 70
             0
  0
ENDTAB
  0
TABLE
  2
APPID
  5
8
100
AcDbSymbolTable
 70
             1
  0
APPID
  5
16
100
AcDbSymbolTableRecord
100
AcDbRegAppTableRecord
  2
ACAD
 70
             0
  0
ENDTAB
  0
TABLE
  2
DIMSTYLE
  5
9
100
AcDbSymbolTable
 70
             9
  0
DIMSTYLE
105
18
100
AcDbSymbolTableRecord
100
AcDbDimStyleTableRecord
  2
STANDARD
 70
             0
  3

  4

  5

  6

  7

 40
1.0
 41
0.18
 42
0.0625
 43
0.38
 44
0.18
 45
0.0
 46
0.0
 47
0.0
 48
0.0
 71
             0
 72
             0
 73
             1
 74
             1
 75
             0
 76
             0
 77
             0
 78
             0
140
0.18
141
0.09
142
0.0
143
25.4
144
1.0
145
0.0
146
1.0
147
0.09
170
             0
171
             2
172
             0
173
             0
174
             0
175
             0
176
             0
177
             0
178
             0
270
             2
271
             4
272
             4
273
             2
274
             2
275
             0
280
             0
281
             0
282
             0
283
             1
284
             0
285
             0
286
             0
287
             3
288
             0
340
17
  0
DIMSTYLE
105
B6
100
AcDbSymbolTableRecord
100
AcDbDimStyleTableRecord
  2
ME10_DIM_0
 70
             0
  3

  4

  5

  6

  7

 40
1.0
 41
12.0
 42
0.0
 43
0.38
 44
2.0
 45
0.0
 46
0.0
 47
0.0
 48
0.0
 71
             0
 72
             0
 73
             0
 74
             0
 75
             0
 76
             0
 77
             1
 78
             8
140
12.0
141
0.09
142
0.0
143
25.4
144
1.0
145
0.0
146
1.0
147
0.625
170
             0
171
             2
172
             1
173
             1
174
             0
175
             0
176
             4
177
             4
178
             1
270
             2
271
             2
272
             4
273
             2
274
             2
275
             0
280
             0
281
             0
282
             0
283
             1
284
             0
285
             0
286
             0
287
             3
288
             0
340
B3
  0
DIMSTYLE
105
C1
100
AcDbSymbolTableRecord
100
AcDbDimStyleTableRecord
  2
ME10_DIM_1
 70
             0
  3
20-<>
  4

  5

  6

  7

 40
1.0
 41
12.0
 42
0.0
 43
0.38
 44
2.0
 45
0.0
 46
0.0
 47
0.0
 48
0.0
 71
             0
 72
             0
 73
             0
 74
             0
 75
             0
 76
             0
 77
             1
 78
             8
140
12.0
141
0.09
142
0.0
143
25.4
144
1.0
145
0.0
146
1.0
147
0.625
170
             0
171
             2
172
             1
173
             1
174
             0
175
             0
176
             4
177
             4
178
             1
270
             2
271
             2
272
             4
273
             2
274
             2
275
             0
280
             0
281
             0
282
             0
283
             1
284
             0
285
             0
286
             0
287
             3
288
             0
340
B3
  0
DIMSTYLE
105
CC
100
AcDbSymbolTableRecord
100
AcDbDimStyleTableRecord
  2
ME10_DIM_2
 70
             0
  3
Ø<>
  4

  5

  6

  7

 40
1.0
 41
12.0
 42
0.0
 43
0.38
 44
2.0
 45
0.0
 46
0.0
 47
0.0
 48
0.0
 71
             0
 72
             0
 73
             0
 74
             0
 75
             0
 76
             0
 77
             1
 78
             8
140
12.0
141
0.09
142
0.0
143
25.4
144
1.0
145
0.0
146
1.0
147
0.625
170
             0
171
             2
172
             1
173
             1
174
             0
175
             0
176
             4
177
             4
178
             1
270
             2
271
             0
272
             4
273
             2
274
             2
275
             0
280
             0
281
             0
282
             0
283
             1
284
             0
285
             0
286
             0
287
             3
288
             0
340
B3
  0
DIMSTYLE
105
D7
100
AcDbSymbolTableRecord
100
AcDbDimStyleTableRecord
  2
ME10_DIM_3
 70
             0
  3
Ø<>
  4

  5

  6

  7

 40
1.0
 41
12.0
 42
0.0
 43
0.38
 44
2.0
 45
0.0
 46
0.0
 47
0.0
 48
0.0
 71
             0
 72
             0
 73
             0
 74
             0
 75
             0
 76
             0
 77
             1
 78
             8
140
12.0
141
0.09
142
0.0
143
25.4
144
1.0
145
0.0
146
1.0
147
0.625
170
             0
171
             2
172
             1
173
             1
174
             0
175
             0
176
             4
177
             4
178
             1
270
             2
271
             2
272
             4
273
             2
274
             2
275
             0
280
             0
281
             0
282
             0
283
             1
284
             0
285
             0
286
             0
287
             3
288
             0
340
B3
  0
DIMSTYLE
105
E2
100
AcDbSymbolTableRecord
100
AcDbDimStyleTableRecord
  2
ME10_DIM_4
 70
             0
  3
x150
  4

  5

  6

  7

 40
1.0
 41
12.0
 42
0.0
 43
0.38
 44
2.0
 45
0.0
 46
0.0
 47
0.0
 48
0.0
 71
             0
 72
             0
 73
             0
 74
             0
 75
             0
 76
             0
 77
             1
 78
             8
140
12.0
141
0.09
142
0.0
143
25.4
144
1.0
145
0.0
146
1.0
147
0.625
170
             0
171
             2
172
             1
173
             1
174
             0
175
             0
176
             4
177
             4
178
             1
270
             2
271
             2
272
             4
273
             2
274
             2
275
             0
280
             0
281
             0
282
             0
283
             1
284
             0
285
             0
286
             0
287
             3
288
             0
340
B3
  0
DIMSTYLE
105
ED
100
AcDbSymbolTableRecord
100
AcDbDimStyleTableRecord
  2
ME10_DIM_5
 70
             0
  3
DN<>
  4

  5

  6

  7

 40
1.0
 41
12.0
 42
0.0
 43
0.38
 44
2.0
 45
0.0
 46
0.0
 47
0.0
 48
0.0
 71
             0
 72
             0
 73
             0
 74
             0
 75
             0
 76
             0
 77
             1
 78
             8
140
12.0
141
0.09
142
0.0
143
25.4
144
1.0
145
0.0
146
1.0
147
0.625
170
             0
171
             2
172
             1
173
             1
174
             0
175
             0
176
             4
177
             4
178
             1
270
             2
271
             2
272
             4
273
             2
274
             2
275
             0
280
             0
281
             0
282
             0
283
             1
284
             0
285
             0
286
             0
287
             3
288
             0
340
B3
  0
DIMSTYLE
105
F8
100
AcDbSymbolTableRecord
100
AcDbDimStyleTableRecord
  2
ME10_DIM_6
 70
             0
  3
DN<>
  4

  5

  6

  7

 40
1.0
 41
12.0
 42
0.0
 43
0.38
 44
2.0
 45
0.0
 46
0.0
 47
0.0
 48
0.0
 71
             0
 72
             0
 73
             0
 74
             0
 75
             0
 76
             0
 77
             1
 78
             8
140
12.0
141
0.09
142
0.0
143
25.4
144
1.0
145
0.0
146
1.0
147
0.625
170
             0
171
             2
172
             1
173
             1
174
             0
175
             0
176
             4
177
             4
178
             1
270
             2
271
             2
272
             4
273
             2
274
             2
275
             0
280
             0
281
             0
282
             0
283
             1
284
             0
285
             0
286
             0
287
             3
288
             0
340
B3
  0
DIMSTYLE
105
103
100
AcDbSymbolTableRecord
100
AcDbDimStyleTableRecord
  2
ME10_DIM_7
 70
             0
  3

  4

  5

  6

  7

 40
1.0
 41
12.0
 42
0.0
 43
0.38
 44
2.0
 45
0.0
 46
0.0
 47
0.0
 48
0.0
 71
             0
 72
             0
 73
             0
 74
             0
 75
             0
 76
             0
 77
             1
 78
             8
140
12.0
141
0.09
142
0.0
143
25.4
144
1.0
145
0.0
146
1.0
147
0.625
170
             0
171
             2
172
             1
173
             1
174
             0
175
             0
176
             4
177
             4
178
             1
270
             2
271
             2
272
             4
273
             2
274
             2
275
             0
280
             0
281
             0
282
             0
283
             1
284
             0
285
             0
286
             0
287
             3
288
             0
340
B3
  0
ENDTAB
  0
TABLE
  2
BLOCK_RECORD
  5
1
100
AcDbSymbolTable
 70
            11
  0
BLOCK_RECORD
  5
A
100
AcDbSymbolTableRecord
100
AcDbBlockTableRecord
  2
*MODEL_SPACE
  0
BLOCK_RECORD
  5
B
100
AcDbSymbolTableRecord
100
AcDbBlockTableRecord
  2
*PAPER_SPACE
  0
BLOCK_RECORD
  5
29
100
AcDbSymbolTableRecord
100
AcDbBlockTableRecord
  2
0317_2E_AUFSATZRAHMEN
  0
BLOCK_RECORD
  5
2B
100
AcDbSymbolTableRecord
100
AcDbBlockTableRecord
  2
0317_4E_REDUKTION_DN11DN75
  0
BLOCK_RECORD
  5
2D
100
AcDbSymbolTableRecord
100
AcDbBlockTableRecord
  2
HL72_1KH_K_RPER
  0
BLOCK_RECORD
  5
AC
100
AcDbSymbolTableRecord
100
AcDbBlockTableRecord
  2
*D3
  0
BLOCK_RECORD
  5
B8
100
AcDbSymbolTableRecord
100
AcDbBlockTableRecord
  2
*D4
  0
BLOCK_RECORD
  5
C3
100
AcDbSymbolTableRecord
100
AcDbBlockTableRecord
  2
*D5
  0
BLOCK_RECORD
  5
CE
100
AcDbSymbolTableRecord
100
AcDbBlockTableRecord
  2
*D6
  0
BLOCK_RECORD
  5
D9
100
AcDbSymbolTableRecord
100
AcDbBlockTableRecord
  2
*D7
  0
BLOCK_RECORD
  5
E4
100
AcDbSymbolTableRecord
100
AcDbBlockTableRecord
  2
*D8
  0
BLOCK_RECORD
  5
EF
100
AcDbSymbolTableRecord
100
AcDbBlockTableRecord
  2
*D9
  0
BLOCK_RECORD
  5
FA
100
AcDbSymbolTableRecord
100
AcDbBlockTableRecord
  2
*D10
  0
ENDTAB
  0
ENDSEC
  0
SECTION
  2
BLOCKS
  0
BLOCK
  5
D
100
AcDbEntity
  8
0
100
AcDbBlockBegin
  2
*MODEL_SPACE
 70
             0
 10
0.0
 20
0.0
 30
0.0
  3
*MODEL_SPACE
  1

  0
ENDBLK
  5
E
100
AcDbEntity
  8
0
100
AcDbBlockEnd
  0
BLOCK
  5
F
100
AcDbEntity
 67
             1
  8
0
100
AcDbBlockBegin
  2
*PAPER_SPACE
 70
             0
 10
0.0
 20
0.0
 30
0.0
  3
*PAPER_SPACE
  1

  0
ENDBLK
  5
10
100
AcDbEntity
 67
             1
  8
0
100
AcDbBlockEnd
  0
BLOCK
  5
2A
100
AcDbEntity
  8
0
100
AcDbBlockBegin
  2
0317_2E_AUFSATZRAHMEN
 70
             0
 10
706.73161564280531
 20
-77.24026476431601
 30
0.0
  3
0317_2E_AUFSATZRAHMEN
  1

  0
LINE
  5
4B
100
AcDbEntity
  8
LC-003-002-----0
  6
CONTINUOUS
 62
             7
100
AcDbLine
 10
64.71017100000006
 20
-0.34993499999999
 11
64.71016900000006
 21
-0.34993499999999
  0
LINE
  5
4A
100
AcDbEntity
  8
1
  6
CONTINUOUS
 62
             7
100
AcDbLine
 10
-68.21000000000004
 20
-0.35
 11
-64.709611
 21
-0.35
  0
LINE
  5
49
100
AcDbEntity
  8
1
  6
CONTINUOUS
 62
             7
100
AcDbLine
 10
68.15708300000006
 20
-0.34993499999999
 11
64.71017100000006
 21
-0.34993499999999
  0
LINE
  5
48
100
AcDbEntity
  8
LC-003-002-----0
  6
CONTINUOUS
 62
             7
100
AcDbLine
 10
-70.38384371691495
 20
-66.35179300000004
 11
-70.38396699999998
 21
-18.85
  0
LINE
  5
47
100
AcDbEntity
  8
LC-003-002-----0
  6
CONTINUOUS
 62
             7
100
AcDbLine
 10
-64.709611
 20
-0.35
 11
0.0
 21
-0.35
  0
LINE
  5
46
100
AcDbEntity
  8
LC-003-002-----0
  6
CONTINUOUS
 62
             7
100
AcDbLine
 10
-73.71000000000004
 20
-15.85
 11
-73.71000000000004
 21
-16.10858800000003
  0
LINE
  5
45
100
AcDbEntity
  8
LC-003-002-----0
  6
CONTINUOUS
 62
             7
100
AcDbLine
 10
-73.71000000000004
 20
-11.85
 11
-73.71000000000004
 21
-11.85
  0
LINE
  5
44
100
AcDbEntity
  8
LC-003-002-----0
  6
CONTINUOUS
 62
             7
100
AcDbLine
 10
68.15708300000006
 20
-0.34993499999999
 11
73.65708100000006
 21
-0.34993499999999
  0
LINE
  5
43
100
AcDbEntity
  8
LC-003-002-----0
  6
CONTINUOUS
 62
             7
100
AcDbLine
 10
73.65708300000006
 20
-0.34993499999999
 11
73.65707399999997
 21
-13.84993699999999
  0
LINE
  5
42
100
AcDbEntity
  8
LC-003-002-----0
  6
CONTINUOUS
 62
             7
100
AcDbLine
 10
0.00016900000003
 20
-0.349889
 11
64.71017100000006
 21
-0.349932
  0
LINE
  5
41
100
AcDbEntity
  8
LC-003-002-----0
  6
CONTINUOUS
 62
             7
100
AcDbLine
 10
68.15708300000006
 20
-0.349933
 11
68.15708300000006
 21
-0.34993499999999
  0
LINE
  5
40
100
AcDbEntity
  8
LC-003-002-----0
  6
CONTINUOUS
 62
             7
100
AcDbLine
 10
-70.21000000000004
 20
-0.35
 11
-68.21000000000004
 21
-0.35
  0
LINE
  5
3F
100
AcDbEntity
  8
LC-003-002-----0
  6
CONTINUOUS
 62
             7
100
AcDbLine
 10
-70.21000000000004
 20
-0.35
 11
-73.71000000000004
 21
-0.35
  0
LINE
  5
3E
100
AcDbEntity
  8
LC-003-002-----0
  6
CONTINUOUS
 62
             7
100
AcDbLine
 10
-73.71000000000004
 20
-0.35
 11
-73.71000000000004
 21
-13.85
  0
LINE
  5
3D
100
AcDbEntity
  8
LC-003-002-----0
  6
CONTINUOUS
 62
             7
100
AcDbLine
 10
73.71015699999998
 20
-18.84993799999999
 11
70.38529600000003
 21
-18.84993599999999
  0
LINE
  5
3C
100
AcDbEntity
  8
LC-003-002-----0
  6
CONTINUOUS
 62
             7
100
AcDbLine
 10
73.71015999999997
 20
-13.84993699999999
 11
73.71015699999998
 21
-18.84993799999999
  0
LINE
  5
3B
100
AcDbEntity
  8
LC-003-002-----0
  6
CONTINUOUS
 62
             7
100
AcDbLine
 10
-73.71000000000004
 20
-18.85
 11
-70.38396699999998
 21
-18.85
  0
LINE
  5
3A
100
AcDbEntity
  8
LC-003-002-----0
  6
CONTINUOUS
 62
             7
100
AcDbLine
 10
-73.71000000000004
 20
-13.85
 11
-73.71000000000004
 21
-18.85
  0
LINE
  5
39
100
AcDbEntity
  8
LC-003-002-----0
  6
CONTINUOUS
 62
             7
100
AcDbLine
 10
70.38542435949091
 20
-66.35179300000004
 11
70.38529600000003
 21
-18.84993599999999
  0
LINE
  5
38
100
AcDbEntity
  8
1
  6
PHANTOM
 62
             2
100
AcDbLine
 10
0.00122314013718
 20
-229.85192125602001
 11
0.00060118528654
 21
4.9572372033798
  0
LINE
  5
37
100
AcDbEntity
  8
1
  6
CONTINUOUS
 62
             7
100
AcDbLine
 10
-70.38396699999998
 20
-18.85
 11
70.38529600000004
 21
-18.85
  0
POINT
  5
36
100
AcDbEntity
  8
0
 62
             7
100
AcDbPoint
 10
73.65708300000006
 20
-0.34993499999999
  0
POINT
  5
35
100
AcDbEntity
  8
0
 62
             7
100
AcDbPoint
 10
73.65708300000006
 20
-0.34993499999999
  0
POINT
  5
34
100
AcDbEntity
  8
0
 62
             7
100
AcDbPoint
 10
-73.71000000000004
 20
-0.35
  0
ENDBLK
  5
4C
100
AcDbEntity
  8
0
100
AcDbBlockEnd
  0
BLOCK
  5
2C
100
AcDbEntity
  8
0
100
AcDbBlockBegin
  2
0317_4E_REDUKTION_DN11DN75
 70
             0
 10
660.53926293018139
 20
-628.95665176431601
 30
0.0
  3
0317_4E_REDUKTION_DN11DN75
  1

  0
ARC
  5
67
100
AcDbEntity
  8
LC-009-002-RND-0
  6
CONTINUOUS
 62
             7
100
AcDbCircle
 10
254.49743699999999
 20
-190.30621700000009
 40
5.00000000000024
100
AcDbArc
 50
-135.00000000000139
 51
-90.0
  0
ARC
  5
66
100
AcDbEntity
  8
LC-009-002-RND-0
  6
CONTINUOUS
 62
             7
100
AcDbCircle
 10
254.49743699999999
 20
-112.3062170000001
 40
5.0
100
AcDbArc
 50
90.0
 51
134.99999999999909
  0
ARC
  5
65
100
AcDbEntity
  8
LC-009-002-RND-0
  6
CONTINUOUS
 62
             7
100
AcDbCircle
 10
265.42636900000008
 20
-92.30621700000006
 40
2.0
100
AcDbArc
 50
90.0
 51
180.0
  0
ARC
  5
64
100
AcDbEntity
  8
LC-009-002-RND-0
  6
CONTINUOUS
 62
             7
100
AcDbCircle
 10
265.42636900000008
 20
-198.30621700000009
 40
2.0
100
AcDbArc
 50
180.0
 51
-90.0
  0
LINE
  5
63
100
AcDbEntity
  8
1
  6
PHANTOM
 62
             2
100
AcDbLine
 10
242.07681958798699
 20
-145.30621700000009
 11
341.77755597443121
 21
-145.30621700000009
  0
LINE
  5
62
100
AcDbEntity
  8
LC-003-002-----0
  6
CONTINUOUS
 62
             7
100
AcDbLine
 10
254.49743699999999
 20
-195.30621700000009
 11
263.42636900000008
 21
-195.30621700000009
  0
LINE
  5
61
100
AcDbEntity
  8
LC-003-002-----0
  6
CONTINUOUS
 62
             7
100
AcDbLine
 10
248.42636900000011
 20
-191.30621700000009
 11
250.96190300000001
 21
-193.8417509999999
  0
LINE
  5
60
100
AcDbEntity
  8
LC-003-002-----0
  6
CONTINUOUS
 62
             7
100
AcDbLine
 10
244.92636900000011
 20
-191.30621700000009
 11
248.42636900000011
 21
-191.30621700000009
  0
LINE
  5
5F
100
AcDbEntity
  8
LC-003-002-----0
  6
CONTINUOUS
 62
             7
100
AcDbLine
 10
248.42636900000011
 20
-111.3062170000001
 11
250.96190300000001
 21
-108.77068300000001
  0
LINE
  5
5E
100
AcDbEntity
  8
LC-003-002-----0
  6
CONTINUOUS
 62
             7
100
AcDbLine
 10
254.49743699999999
 20
-107.3062170000001
 11
263.42636900000008
 21
-107.3062170000001
  0
LINE
  5
5D
100
AcDbEntity
  8
LC-003-002-----0
  6
CONTINUOUS
 62
             7
100
AcDbLine
 10
265.42636900000008
 20
-200.30621700000009
 11
333.42636900000008
 21
-200.30621700000009
  0
LINE
  5
5C
100
AcDbEntity
  8
LC-003-002-----0
  6
CONTINUOUS
 62
             7
100
AcDbLine
 10
263.42636900000008
 20
-92.30621700000006
 11
263.42636900000008
 21
-107.3062170000001
  0
LINE
  5
5B
100
AcDbEntity
  8
LC-003-002-----0
  6
CONTINUOUS
 62
             7
100
AcDbLine
 10
333.42636900000008
 20
-90.30621700000006
 11
339.42636900000008
 21
-91.36417900000004
  0
LINE
  5
5A
100
AcDbEntity
  8
LC-003-002-----0
  6
CONTINUOUS
 62
             7
100
AcDbLine
 10
339.42636900000008
 20
-91.36417900000004
 11
339.42636900000008
 21
-141.30621700000009
  0
LINE
  5
59
100
AcDbEntity
  8
LC-003-002-----0
  6
CONTINUOUS
 62
             7
100
AcDbLine
 10
265.42636900000008
 20
-90.30621700000006
 11
333.42636900000008
 21
-90.30621700000006
  0
LINE
  5
58
100
AcDbEntity
  8
LC-003-002-----0
  6
CONTINUOUS
 62
             7
100
AcDbLine
 10
333.42636900000008
 20
-200.30621700000009
 11
339.42636900000008
 21
-199.248255
  0
LINE
  5
57
100
AcDbEntity
  8
LC-003-002-----0
  6
CONTINUOUS
 62
             7
100
AcDbLine
 10
244.92636900000011
 20
-111.3062170000001
 11
248.42636900000011
 21
-111.3062170000001
  0
LINE
  5
56
100
AcDbEntity
  8
LC-003-002-----0
  6
CONTINUOUS
 62
             7
100
AcDbLine
 10
339.42636900000008
 20
-199.248255
 11
339.42636900000008
 21
-141.30621700000009
  0
LINE
  5
55
100
AcDbEntity
  8
LC-003-002-----0
  6
CONTINUOUS
 62
             7
100
AcDbLine
 10
263.42636900000008
 20
-198.30621700000009
 11
263.42636900000008
 21
-195.30621700000009
  0
LINE
  5
54
100
AcDbEntity
  8
LC-003-002-----0
  6
CONTINUOUS
 62
             7
100
AcDbLine
 10
244.92636900000011
 20
-111.3062170000001
 11
244.92636900000011
 21
-191.30621700000009
  0
LINE
  5
53
100
AcDbEntity
  8
1
  6
CONTINUOUS
 62
             7
100
AcDbLine
 10
333.42636900000008
 20
-200.30621700000009
 11
333.42636900000008
 21
-90.30621700000006
  0
LINE
  5
52
100
AcDbEntity
  8
1
  6
CONTINUOUS
 62
             7
100
AcDbLine
 10
263.42636900000008
 20
-107.3062170000001
 11
263.42636900000008
 21
-195.30621700000009
  0
LINE
  5
51
100
AcDbEntity
  8
1
  6
CONTINUOUS
 62
             7
100
AcDbLine
 10
265.42636900000008
 20
-90.30621700000006
 11
265.42636900000008
 21
-200.30621700000009
  0
LINE
  5
50
100
AcDbEntity
  8
1
  6
CONTINUOUS
 62
             7
100
AcDbLine
 10
254.49743699999999
 20
-195.30621700000009
 11
254.49743699999999
 21
-107.3062170000001
  0
LINE
  5
4F
100
AcDbEntity
  8
1
  6
CONTINUOUS
 62
             7
100
AcDbLine
 10
248.42636900000011
 20
-111.3062170000001
 11
248.42636900000011
 21
-191.30621700000009
  0
POINT
  5
4E
100
AcDbEntity
  8
0
 62
             7
100
AcDbPoint
 10
333.42636900000008
 20
-90.30621700000006
  0
POINT
  5
4D
100
AcDbEntity
  8
0
 62
             7
100
AcDbPoint
 10
333.42636900000008
 20
-200.30621700000009
  0
ENDBLK
  5
68
100
AcDbEntity
  8
0
100
AcDbBlockEnd
  0
BLOCK
  5
2E
100
AcDbEntity
  8
0
100
AcDbBlockBegin
  2
HL72_1KH_K_RPER
 70
             0
 10
606.27718264280531
 20
-211.58064476431611
 30
0.0
  3
HL72_1KH_K_RPER
  1

  0
ARC
  5
A9
100
AcDbEntity
  8
LC-003-002-----0
  6
CONTINUOUS
 62
             7
100
AcDbCircle
 10
-91.202945
 20
-90.07246499999997
 40
1.99870399999974
100
AcDbArc
 50
0.00026700000376
 51
85.82908600001336
  0
ARC
  5
A8
100
AcDbEntity
  8
LC-003-002-----0
  6
CONTINUOUS
 62
             7
100
AcDbCircle
 10
-90.203621
 20
-84.13158999999996
 40
3.99740799999962
100
AcDbArc
 50
-179.99974799999433
 51
-102.29040700000498
  0
ARC
  5
A7
100
AcDbEntity
  8
LC-003-002-----0
  6
CONTINUOUS
 62
             7
100
AcDbCircle
 10
-95.20039899999995
 20
-80.27590800000002
 40
0.99935199999959
100
AcDbArc
 50
0.00025200002036
 51
86.00000299997842
  0
ARC
  5
A6
100
AcDbEntity
  8
LC-009-002-RND-0
  6
CONTINUOUS
 62
             7
100
AcDbCircle
 10
-80.91610700000001
 20
-105.85512300000001
 40
2.9990279999999
100
AcDbArc
 50
-157.64751199999591
 51
-90.0
  0
ARC
  5
A5
100
AcDbEntity
  8
LC-003-002-----0
  6
CONTINUOUS
 62
             7
100
AcDbCircle
 10
91.20362399999999
 20
-90.07246499999997
 40
1.9987040000002
100
AcDbArc
 50
94.17091399998664
 51
179.99973299999624
  0
ARC
  5
A4
100
AcDbEntity
  8
LC-003-002-----0
  6
CONTINUOUS
 62
             7
100
AcDbCircle
 10
95.20107800000005
 20
-80.27590800000002
 40
0.99935199999967
100
AcDbArc
 50
93.99999700002158
 51
179.99974799997963
  0
ARC
  5
A3
100
AcDbEntity
  8
LC-003-002-----0
  6
CONTINUOUS
 62
             7
100
AcDbCircle
 10
90.20429999999999
 20
-84.13158999999996
 40
3.9974079999998
100
AcDbArc
 50
-77.70959299999504
 51
-0.0002520000057
  0
ARC
  5
A2
100
AcDbEntity
  8
LC-009-002-RND-0
  6
CONTINUOUS
 62
             7
100
AcDbCircle
 10
80.916786
 20
-105.85512300000001
 40
2.999028
100
AcDbArc
 50
-90.0
 51
-22.35248800000329
  0
ARC
  5
A1
100
AcDbEntity
  8
LC-001-020-----0
  6
CONTINUOUS
 62
             7
100
AcDbCircle
 10
52.00117671494714
 20
-203.361716
 40
19.99999999999949
100
AcDbArc
 50
-90.00007600000116
 51
-0.00053199999883
  0
ARC
  5
A0
100
AcDbEntity
  8
LC-001-020-----0
  6
CONTINUOUS
 62
             7
100
AcDbCircle
 10
-51.99957800000004
 20
-203.361581
 40
20.00000000000043
100
AcDbArc
 50
179.99990499999939
 51
-90.00007600000083
  0
ARC
  5
9F
100
AcDbEntity
  8
1
  6
CONTINUOUS
 62
             7
100
AcDbCircle
 10
125.08116330210829
 20
-150.3562156054964
 40
64.99024135393766
100
AcDbArc
 50
144.75996427816648
 51
-144.75950359313916
  0
LINE
  5
9E
100
AcDbEntity
  8
LC-002-002-----0
  6
CONTINUOUS
 62
             7
100
AcDbLine
 10
250.00079126238111
 20
-70.35179300000004
 11
250.00079926238121
 21
-66.35179300000004
  0
LINE
  5
9D
100
AcDbEntity
  8
LC-002-002-----0
  6
CONTINUOUS
 62
             7
100
AcDbLine
 10
-249.9992082774238
 20
-66.35179300000004
 11
-249.9992002774238
 21
-70.35179300000004
  0
LINE
  5
9C
100
AcDbEntity
  8
1
  6
CONTINUOUS
 62
             7
100
AcDbLine
 10
-81.84703660683954
 20
-70.35179300000004
 11
150.00176053552741
 21
-70.35179300000004
  0
LINE
  5
9B
100
AcDbEntity
  8
1
  6
CONTINUOUS
 62
             7
100
AcDbLine
 10
-149.9991962588615
 20
-70.35179300000004
 11
-81.84703660683954
 21
-70.35179300000004
  0
LINE
  5
9A
100
AcDbEntity
  8
1
  6
PHANTOM
 62
             2
100
AcDbLine
 10
72.00090919900629
 20
-150.35642900000011
 11
147.03803500000001
 21
-150.35642900000011
  0
LINE
  5
99
100
AcDbEntity
  8
LC-003-002-----0
  6
CONTINUOUS
 62
             7
100
AcDbLine
 10
72.00090919900629
 20
-112.856641
 11
147.03803500000001
 21
-112.856641
  0
LINE
  5
98
100
AcDbEntity
  8
LC-003-002-----0
  6
CONTINUOUS
 62
             7
100
AcDbLine
 10
72.00090919900629
 20
-112.856641
 11
72.00091619900627
 21
-108.854696
  0
LINE
  5
97
100
AcDbEntity
  8
LC-001-020-----0
  6
CONTINUOUS
 62
             7
100
AcDbLine
 10
72.00110671494709
 20
-203.36190199999999
 11
72.00121071494705
 21
-187.8562170000001
  0
LINE
  5
96
100
AcDbEntity
  8
LC-003-002-----0
  6
CONTINUOUS
 62
             7
100
AcDbLine
 10
147.03803500000001
 20
-187.8562170000001
 11
150.22622100000001
 21
-187.00194500000009
  0
LINE
  5
95
100
AcDbEntity
  8
LC-003-002-----0
  6
CONTINUOUS
 62
             7
100
AcDbLine
 10
-89.20424100000003
 20
-90.0724560000001
 11
-89.20420200000001
 21
-95.15635199999997
  0
LINE
  5
94
100
AcDbEntity
  8
LC-003-002-----0
  6
CONTINUOUS
 62
             7
100
AcDbLine
 10
-94.20104700000002
 20
-80.27590400000003
 11
-94.20102999999995
 21
-84.13160800000003
  0
LINE
  5
93
100
AcDbEntity
  8
LC-003-002-----0
  6
CONTINUOUS
 62
             7
100
AcDbLine
 10
-110.940877
 20
-78.17343500000004
 11
-95.13068799999996
 21
-79.27899000000002
  0
LINE
  5
92
100
AcDbEntity
  8
LC-003-002-----0
  6
CONTINUOUS
 62
             7
100
AcDbLine
 10
-117.96564100000001
 20
-75.64369099999999
 11
-110.938446
 21
-78.13866400000001
  0
LINE
  5
91
100
AcDbEntity
  8
LC-003-002-----0
  6
CONTINUOUS
 62
             7
100
AcDbLine
 10
-149.9991962588615
 20
-73.35717
 11
-117.96564100000001
 21
-75.64369099999999
  0
LINE
  5
90
100
AcDbEntity
  8
LC-003-002-----0
  6
CONTINUOUS
 62
             7
100
AcDbLine
 10
-149.9991962588615
 20
-73.35717
 11
-149.9991962588615
 21
-70.35179300000004
  0
LINE
  5
8F
100
AcDbEntity
  8
LC-003-002-----0
  6
CONTINUOUS
 62
             7
100
AcDbLine
 10
-89.20420200000001
 20
-95.15635199999997
 11
-83.68979300000001
 21
-106.995664
  0
LINE
  5
8E
100
AcDbEntity
  8
LC-003-002-----0
  6
CONTINUOUS
 62
             7
100
AcDbLine
 10
-80.91610700000001
 20
-108.8544010000001
 11
-71.99946499999999
 21
-108.8544010000001
  0
LINE
  5
8D
100
AcDbEntity
  8
LC-003-002-----0
  6
CONTINUOUS
 62
             7
100
AcDbLine
 10
150.00080359501629
 20
-73.35717
 11
150.00080359501629
 21
-70.35179300000004
  0
LINE
  5
8C
100
AcDbEntity
  8
LC-003-002-----0
  6
CONTINUOUS
 62
             7
100
AcDbLine
 10
117.96632
 20
-75.64369099999999
 11
110.93912400000011
 21
-78.13866400000001
  0
LINE
  5
8B
100
AcDbEntity
  8
LC-003-002-----0
  6
CONTINUOUS
 62
             7
100
AcDbLine
 10
89.20492000000002
 20
-90.0724560000001
 11
89.204881
 21
-95.15635199999997
  0
LINE
  5
8A
100
AcDbEntity
  8
LC-003-002-----0
  6
CONTINUOUS
 62
             7
100
AcDbLine
 10
150.00080359501629
 20
-73.35717
 11
117.96632
 21
-75.64369099999999
  0
LINE
  5
89
100
AcDbEntity
  8
LC-003-002-----0
  6
CONTINUOUS
 62
             7
100
AcDbLine
 10
94.20172500000001
 20
-80.27590400000003
 11
94.20170900000005
 21
-84.13160800000003
  0
LINE
  5
88
100
AcDbEntity
  8
LC-003-002-----0
  6
CONTINUOUS
 62
             7
100
AcDbLine
 10
110.94155600000011
 20
-78.17343500000004
 11
95.13136599999996
 21
-79.27899000000002
  0
LINE
  5
87
100
AcDbEntity
  8
LC-003-002-----0
  6
CONTINUOUS
 62
             7
100
AcDbLine
 10
89.20490800000005
 20
-92.65606800000001
 11
89.20488399999999
 21
-94.42887199999996
  0
LINE
  5
86
100
AcDbEntity
  8
LC-003-002-----0
  6
CONTINUOUS
 62
             7
100
AcDbLine
 10
80.916786
 20
-108.8544010000001
 11
72.00091619900627
 21
-108.8544010000001
  0
LINE
  5
85
100
AcDbEntity
  8
LC-003-002-----0
  6
CONTINUOUS
 62
             7
100
AcDbLine
 10
89.204881
 20
-95.15635199999997
 11
83.690472
 21
-106.995664
  0
LINE
  5
84
100
AcDbEntity
  8
LC-003-002-----0
  6
CONTINUOUS
 62
             7
100
AcDbLine
 10
147.22622100000001
 20
-112.856641
 11
150.22622100000001
 21
-113.660489
  0
LINE
  5
83
100
AcDbEntity
  8
LC-003-002-----0
  6
CONTINUOUS
 62
             7
100
AcDbLine
 10
150.22622100000001
 20
-113.660489
 11
150.22622100000001
 21
-187.00194500000009
  0
LINE
  5
82
100
AcDbEntity
  8
LC-003-002-----0
  6
CONTINUOUS
 62
             7
100
AcDbLine
 10
72.00121071494705
 20
-187.8562170000001
 11
147.03803500000001
 21
-187.8562170000001
  0
LINE
  5
81
100
AcDbEntity
  8
LC-001-020-----0
  6
CONTINUOUS
 62
             7
100
AcDbLine
 10
-51.99960400000003
 20
-223.36158
 11
52.00115071494709
 21
-223.361716
  0
LINE
  5
80
100
AcDbEntity
  8
LC-001-020-----0
  6
CONTINUOUS
 62
             7
100
AcDbLine
 10
-71.99946499999999
 20
-108.85440199999989
 11
-71.99959200000001
 21
-203.361581
  0
LINE
  5
7F
100
AcDbEntity
  8
1
  6
CONTINUOUS
 62
             7
100
AcDbLine
 10
-89.20424100002197
 20
-90.07245568598103
 11
89.20492000000002
 21
-90.07245568598103
  0
LINE
  5
7E
100
AcDbEntity
  8
1
  6
CONTINUOUS
 62
             7
100
AcDbLine
 10
91.058254451464
 20
-88.07905451192301
 11
-91.057575451464
 21
-88.07905451192301
  0
LINE
  5
7D
100
AcDbEntity
  8
1
  6
CONTINUOUS
 62
             7
100
AcDbLine
 10
-89.20420200000001
 20
-95.15635199999997
 11
89.20488399999999
 21
-95.15635199999997
  0
LINE
  5
7C
100
AcDbEntity
  8
1
  6
CONTINUOUS
 62
             7
100
AcDbLine
 10
83.690472
 20
-106.995664
 11
-83.68979300000001
 21
-106.995664
  0
LINE
  5
7B
100
AcDbEntity
  8
1
  6
CONTINUOUS
 62
             7
100
AcDbLine
 10
-71.99946499999999
 20
-108.85440199999989
 11
72.00091619900627
 21
-108.85440199999989
  0
LINE
  5
7A
100
AcDbEntity
  8
1
  6
CONTINUOUS
 62
             7
100
AcDbLine
 10
-94.20102899996095
 20
-84.13160758151901
 11
94.20172500000001
 21
-84.13160758151901
  0
LINE
  5
79
100
AcDbEntity
  8
1
  6
CONTINUOUS
 62
             7
100
AcDbLine
 10
94.20172500000001
 20
-80.27590400000003
 11
-94.20104700000002
 21
-80.27590400000003
  0
LINE
  5
78
100
AcDbEntity
  8
1
  6
CONTINUOUS
 62
             7
100
AcDbLine
 10
-95.13068799999996
 20
-79.27899000000002
 11
95.13136678064905
 21
-79.27899000000002
  0
LINE
  5
77
100
AcDbEntity
  8
1
  6
CONTINUOUS
 62
             7
100
AcDbLine
 10
110.94155600000011
 20
-78.17343500000004
 11
-110.940877
 21
-78.17343500000004
  0
LINE
  5
76
100
AcDbEntity
  8
1
  6
CONTINUOUS
 62
             7
100
AcDbLine
 10
-117.96564100000001
 20
-75.64369099999999
 11
117.96632
 21
-75.64369099999999
  0
LINE
  5
75
100
AcDbEntity
  8
1
  6
CONTINUOUS
 62
             7
100
AcDbLine
 10
-149.9991962588615
 20
-73.35717
 11
150.00080359501629
 21
-73.35717
  0
LINE
  5
74
100
AcDbEntity
  8
1
  6
CONTINUOUS
 62
             7
100
AcDbLine
 10
-71.99957799997299
 20
-203.361547838744
 11
72.00117671424023
 21
-203.361547838744
  0
LINE
  5
73
100
AcDbEntity
  8
1
  6
PHANTOM
 62
             2
100
AcDbLine
 10
0.00033950213601
 20
-90.07245600000009
 11
0.00033950213601
 21
-95.15635199999998
  0
LINE
  5
72
100
AcDbEntity
  8
LC-002-002-----0
  6
CONTINUOUS
 62
             7
100
AcDbLine
 10
250.00079126238111
 20
-70.35179300000004
 11
-249.9992002774238
 21
-70.35179300000004
  0
LINE
  5
71
100
AcDbEntity
  8
LC-002-002-----0
  6
CONTINUOUS
 62
             7
100
AcDbLine
 10
250.00079926238121
 20
-66.35179300000004
 11
-249.9992082774238
 21
-66.35179300000004
  0
LINE
  5
70
100
AcDbEntity
  8
1
  6
CONTINUOUS
 62
             7
100
AcDbLine
 10
147.03803500000001
 20
-187.8562170000001
 11
147.03803500000001
 21
-112.856641
  0
LINE
  5
6F
100
AcDbEntity
  8
LC-003-002-----0
  6
CONTINUOUS
 62
             7
100
AcDbLine
 10
147.03803500000001
 20
-112.856641
 11
147.22622100000001
 21
-112.856641
  0
POINT
  5
6E
100
AcDbEntity
  8
0
 62
             7
100
AcDbPoint
 10
147.03803500000001
 20
-187.8562170000001
  0
POINT
  5
6D
100
AcDbEntity
  8
0
 62
             7
100
AcDbPoint
 10
150.00080359501629
 20
-73.35717
  0
POINT
  5
6C
100
AcDbEntity
  8
0
 62
             7
100
AcDbPoint
 10
150.00080359501629
 20
-70.35179300000004
  0
POINT
  5
6B
100
AcDbEntity
  8
0
 62
             7
100
AcDbPoint
 10
-149.9991962588615
 20
-70.35179300000004
  0
POINT
  5
6A
100
AcDbEntity
  8
0
 62
             7
100
AcDbPoint
 10
-51.99960400000003
 20
-223.361581
  0
POINT
  5
69
100
AcDbEntity
  8
0
 62
             7
100
AcDbPoint
 10
-149.9991962588615
 20
-73.35717
  0
ENDBLK
  5
AA
100
AcDbEntity
  8
0
100
AcDbBlockEnd
  0
BLOCK
  5
AD
100
AcDbEntity
  8
0
100
AcDbBlockBegin
  2
*D3
 70
             1
 10
0.0
 20
0.0
 30
0.0
  3
*D3
  1

  0
LINE
  5
AE
100
AcDbEntity
  8
0
  6
CONTINUOUS
 62
             4
100
AcDbLine
 10
-159.9991962588615
 20
-223.36158
 11
-159.9991962588615
 21
-73.35717
  0
LINE
  5
AF
100
AcDbEntity
  8
0
  6
CONTINUOUS
 62
             4
100
AcDbLine
 10
-149.9991962588615
 20
-73.35717
 11
-161.9991962588615
 21
-73.35717
  0
LINE
  5
B0
100
AcDbEntity
  8
0
  6
CONTINUOUS
 62
             4
100
AcDbLine
 10
-51.99960400000001
 20
-223.36158
 11
-161.9991962588615
 21
-223.36158
  0
SOLID
  5
B1
100
AcDbEntity
  8
0
 62
             4
100
AcDbTrace
 10
-161.57902622991026
 20
-211.36158
 11
-158.41936628781275
 21
-211.36158
 12
-159.9991962588615
 22
-223.36158
 13
-159.9991962588615
 23
-223.36158
  0
SOLID
  5
B2
100
AcDbEntity
  8
0
 62
             4
100
AcDbTrace
 10
-158.41936628781275
 20
-85.35717
 11
-161.57902622991026
 21
-85.35717
 12
-159.9991962588615
 22
-73.35717
 13
-159.9991962588615
 23
-73.35717
  0
MTEXT
  5
B4
100
AcDbEntity
  8
0
 62
             1
100
AcDbMText
 10
-161.9991962588615
 20
-166.46304152043101
 30
0.0
 40
12.0
 41
0.0
 71
             7
 72
             1
  1
150
  7
CONVERTER_1
 11
0.0
 21
1.0
 31
0.0
  0
ENDBLK
  5
B5
100
AcDbEntity
  8
0
100
AcDbBlockEnd
  0
BLOCK
  5
B9
100
AcDbEntity
  8
0
100
AcDbBlockBegin
  2
*D4
 70
             1
 10
0.0
 20
0.0
 30
0.0
  3
*D4
  1

  0
LINE
  5
BA
100
AcDbEntity
  8
0
  6
CONTINUOUS
 62
             4
100
AcDbLine
 10
172.41727369441799
 20
-0.349935
 11
172.41727369441799
 21
-70.35179300000004
  0
LINE
  5
BB
100
AcDbEntity
  8
0
  6
CONTINUOUS
 62
             4
100
AcDbLine
 10
150.00176053552738
 20
-70.35179300000004
 11
174.41727369441799
 21
-70.35179300000004
  0
LINE
  5
BC
100
AcDbEntity
  8
0
  6
CONTINUOUS
 62
             4
100
AcDbLine
 10
73.65708100000006
 20
-0.349935
 11
174.41727369441799
 21
-0.349935
  0
SOLID
  5
BD
100
AcDbEntity
  8
0
 62
             4
100
AcDbTrace
 10
173.99710366546674
 20
-12.349935
 11
170.83744372336923
 21
-12.349935
 12
172.41727369441799
 22
-0.349935
 13
172.41727369441799
 23
-0.349935
  0
SOLID
  5
BE
100
AcDbEntity
  8
0
 62
             4
100
AcDbTrace
 10
170.83744372336923
 20
-58.35179300000004
 11
173.99710366546674
 21
-58.35179300000004
 12
172.41727369441799
 22
-70.35179300000004
 13
172.41727369441799
 23
-70.35179300000004
  0
MTEXT
  5
BF
100
AcDbEntity
  8
0
 62
             1
100
AcDbMText
 10
170.41727369441799
 20
-54.02077286666371
 30
0.0
 40
12.0
 41
0.0
 71
             7
 72
             1
  1
\C1;20-\C1;70
  7
CONVERTER_1
 11
0.0
 21
1.0
 31
0.0
  0
ENDBLK
  5
C0
100
AcDbEntity
  8
0
100
AcDbBlockEnd
  0
BLOCK
  5
C4
100
AcDbEntity
  8
0
100
AcDbBlockBegin
  2
*D5
 70
             1
 10
0.0
 20
0.0
 30
0.0
  3
*D5
  1

  0
LINE
  5
C5
100
AcDbEntity
  8
0
  6
CONTINUOUS
 62
             4
100
AcDbLine
 10
250.00046157222525
 20
61.13775265110375
 11
-249.99954596407173
 21
61.13642826736997
  0
LINE
  5
C6
100
AcDbEntity
  8
0
  6
CONTINUOUS
 62
             4
100
AcDbLine
 10
-249.99920827742383
 20
-66.35179300000002
 11
-249.99955126160654
 21
63.13642826736295
  0
LINE
  5
C7
100
AcDbEntity
  8
0
  6
CONTINUOUS
 62
             4
100
AcDbLine
 10
250.00079926238115
 20
-66.35179300000002
 11
250.00045627469038
 21
63.13775265109673
  0
SOLID
  5
C8
100
AcDbEntity
  8
0
 62
             4
100
AcDbTrace
 10
238.00046575686952
 20
59.55789089485141
 11
238.00045738766516
 21
62.71755083693783
 12
250.00046157222525
 22
61.13775265110375
 13
250.00046157222525
 23
61.13775265110375
  0
SOLID
  5
C9
100
AcDbEntity
  8
0
 62
             4
100
AcDbTrace
 10
-237.999550148716
 20
62.71629002362231
 11
-237.99954177951165
 21
59.55663008153589
 12
-249.99954596407173
 22
61.13642826736997
 13
-249.99954596407173
 23
61.13642826736997
  0
MTEXT
  5
CA
100
AcDbEntity
  8
0
 62
             1
100
AcDbMText
 10
-53.16173780532871
 20
63.13695185599013
 30
0.0
 40
12.0
 41
0.0
 71
             7
 72
             1
  1
\C1;Ø\C1;500
  7
CONVERTER_1
 11
0.99999999999706
 21
0.00000242406841
 31
0.0
  0
ENDBLK
  5
CB
100
AcDbEntity
  8
0
100
AcDbBlockEnd
  0
BLOCK
  5
CF
100
AcDbEntity
  8
0
100
AcDbBlockBegin
  2
*D6
 70
             1
 10
0.0
 20
0.0
 30
0.0
  3
*D6
  1

  0
LINE
  5
D0
100
AcDbEntity
  8
0
  6
CONTINUOUS
 62
             4
100
AcDbLine
 10
-149.99948226559684
 20
37.62549951186412
 11
150.00147452668728
 21
37.62629414462673
  0
LINE
  5
D1
100
AcDbEntity
  8
0
  6
CONTINUOUS
 62
             4
100
AcDbLine
 10
150.00176053552738
 20
-70.35179300000003
 11
150.00146922915238
 21
39.62629414461972
  0
LINE
  5
D2
100
AcDbEntity
  8
0
  6
CONTINUOUS
 62
             4
100
AcDbLine
 10
-149.99919625886153
 20
-70.35179300000003
 11
-149.99948756313174
 21
39.62549951185711
  0
SOLID
  5
D3
100
AcDbEntity
  8
0
 62
             4
100
AcDbTrace
 10
-137.99948645024111
 20
39.20536126811646
 11
-137.99947808103676
 21
36.04570132603004
 12
-149.99948226559684
 22
37.62549951186412
 13
-149.99948226559684
 23
37.62549951186412
  0
SOLID
  5
D4
100
AcDbEntity
  8
0
 62
             4
100
AcDbTrace
 10
138.00147871133154
 20
36.0464323883744
 11
138.00147034212719
 21
39.20609233046081
 12
150.00147452668728
 22
37.62629414462673
 13
150.00147452668728
 23
37.62629414462673
  0
MTEXT
  5
D5
100
AcDbEntity
  8
0
 62
             1
100
AcDbMText
 10
-16.34492278118699
 20
39.62585574275323
 30
0.0
 40
12.0
 41
0.0
 71
             7
 72
             1
  1
\C1;Ø\C1;300
  7
CONVERTER_1
 11
0.99999999999706
 21
0.00000242406841
 31
0.0
  0
ENDBLK
  5
D6
100
AcDbEntity
  8
0
100
AcDbBlockEnd
  0
BLOCK
  5
DA
100
AcDbEntity
  8
0
100
AcDbBlockBegin
  2
*D7
 70
             1
 10
0.0
 20
0.0
 30
0.0
  3
*D7
  1

  0
LINE
  5
DB
100
AcDbEntity
  8
0
  6
CONTINUOUS
 62
             4
100
AcDbLine
 10
73.65704989439679
 20
12.14855879940974
 11
-73.71003310474156
 21
12.14816845828038
  0
LINE
  5
DC
100
AcDbEntity
  8
0
  6
CONTINUOUS
 62
             4
100
AcDbLine
 10
-73.71000000000004
 20
-0.35
 11
-73.71003840227641
 21
14.14816845827336
  0
LINE
  5
DD
100
AcDbEntity
  8
0
  6
CONTINUOUS
 62
             4
100
AcDbLine
 10
73.65708300000006
 20
-0.34993499999999
 11
73.65704459686194
 21
14.14855879940272
  0
SOLID
  5
DE
100
AcDbEntity
  8
0
 62
             4
100
AcDbTrace
 10
61.65705407904105
 20
10.5686970431574
 11
61.65704570983672
 21
13.72835698524381
 12
73.65704989439679
 22
12.14855879940974
 13
73.65704989439679
 23
12.14855879940974
  0
SOLID
  5
DF
100
AcDbEntity
  8
0
 62
             4
100
AcDbTrace
 10
-61.71003728938582
 20
13.72803021453272
 11
-61.71002892018149
 21
10.5683702724463
 12
-73.71003310474156
 22
12.14816845828038
 13
-73.71003310474156
 23
12.14816845828038
  0
MTEXT
  5
E0
100
AcDbEntity
  8
0
 62
             1
100
AcDbMText
 10
-34.26053219578524
 20
14.14827295084044
 30
0.0
 40
12.0
 41
0.0
 71
             7
 72
             1
  1
\C1;150\C1;x150
  7
CONVERTER_1
 11
0.99999999999706
 21
0.00000242406841
 31
0.0
  0
ENDBLK
  5
E1
100
AcDbEntity
  8
0
100
AcDbBlockEnd
  0
BLOCK
  5
E5
100
AcDbEntity
  8
0
100
AcDbBlockBegin
  2
*D8
 70
             1
 10
0.0
 20
0.0
 30
0.0
  3
*D8
  1

  0
LINE
  5
E6
100
AcDbEntity
  8
0
  6
CONTINUOUS
 62
             4
100
AcDbLine
 10
197.21355735016101
 20
-112.856641
 11
197.21355735016101
 21
-187.8562170000001
  0
LINE
  5
E7
100
AcDbEntity
  8
0
  6
CONTINUOUS
 62
             4
100
AcDbLine
 10
147.03803500000001
 20
-187.8562170000001
 11
199.21355735016101
 21
-187.8562170000001
  0
LINE
  5
E8
100
AcDbEntity
  8
0
  6
CONTINUOUS
 62
             4
100
AcDbLine
 10
147.22622100000001
 20
-112.856641
 11
199.21355735016101
 21
-112.856641
  0
SOLID
  5
E9
100
AcDbEntity
  8
0
 62
             4
100
AcDbTrace
 10
198.79338732120976
 20
-124.856641
 11
195.63372737911226
 21
-124.856641
 12
197.21355735016101
 22
-112.856641
 13
197.21355735016101
 23
-112.856641
  0
SOLID
  5
EA
100
AcDbEntity
  8
0
 62
             4
100
AcDbTrace
 10
195.63372737911226
 20
-175.8562170000001
 11
198.79338732120976
 21
-175.8562170000001
 12
197.21355735016101
 22
-187.8562170000001
 13
197.21355735016101
 23
-187.8562170000001
  0
MTEXT
  5
EB
100
AcDbEntity
  8
0
 62
             1
100
AcDbMText
 10
195.21355735016101
 20
-166.31910448924302
 30
0.0
 40
12.0
 41
0.0
 71
             7
 72
             1
  1
\C1;DN\C1;75
  7
CONVERTER_1
 11
0.0
 21
1.0
 31
0.0
  0
ENDBLK
  5
EC
100
AcDbEntity
  8
0
100
AcDbBlockEnd
  0
BLOCK
  5
F0
100
AcDbEntity
  8
0
100
AcDbBlockBegin
  2
*D9
 70
             1
 10
0.0
 20
0.0
 30
0.0
  3
*D9
  1

  0
LINE
  5
F1
100
AcDbEntity
  8
0
  6
CONTINUOUS
 62
             4
100
AcDbLine
 10
361.84732506181808
 20
-90.30621700000006
 11
361.84732506181808
 21
-200.30621700000009
  0
LINE
  5
F2
100
AcDbEntity
  8
0
  6
CONTINUOUS
 62
             4
100
AcDbLine
 10
333.42636900000008
 20
-200.30621700000009
 11
363.84732506181808
 21
-200.30621700000009
  0
LINE
  5
F3
100
AcDbEntity
  8
0
  6
CONTINUOUS
 62
             4
100
AcDbLine
 10
333.42636900000008
 20
-90.30621700000006
 11
363.84732506181808
 21
-90.30621700000006
  0
SOLID
  5
F4
100
AcDbEntity
  8
0
 62
             4
100
AcDbTrace
 10
363.42715503286684
 20
-102.30621700000006
 11
360.26749509076933
 21
-102.30621700000006
 12
361.84732506181808
 22
-90.30621700000006
 13
361.84732506181808
 23
-90.30621700000006
  0
SOLID
  5
F5
100
AcDbEntity
  8
0
 62
             4
100
AcDbTrace
 10
360.26749509076933
 20
-188.30621700000009
 11
363.42715503286684
 21
-188.30621700000009
 12
361.84732506181808
 22
-200.30621700000009
 13
361.84732506181808
 23
-200.30621700000009
  0
MTEXT
  5
F6
100
AcDbEntity
  8
0
 62
             1
100
AcDbMText
 10
359.84732506181808
 20
-159.770723646161
 30
0.0
 40
12.0
 41
0.0
 71
             7
 72
             1
  1
\C1;DN\C1;110
  7
CONVERTER_1
 11
0.0
 21
1.0
 31
0.0
  0
ENDBLK
  5
F7
100
AcDbEntity
  8
0
100
AcDbBlockEnd
  0
BLOCK
  5
FB
100
AcDbEntity
  8
0
100
AcDbBlockBegin
  2
*D10
 70
             1
 10
0.0
 20
0.0
 30
0.0
  3
*D10
  1

  0
LINE
  5
FC
100
AcDbEntity
  8
0
  6
CONTINUOUS
 62
             4
100
AcDbLine
 10
172.41727369441799
 20
-70.35179300000004
 11
172.41727369441799
 21
-150.35642900000005
  0
LINE
  5
FD
100
AcDbEntity
  8
0
  6
CONTINUOUS
 62
             4
100
AcDbLine
 10
72.00090919900629
 20
-150.35642900000005
 11
174.41727369441799
 21
-150.35642900000005
  0
LINE
  5
FE
100
AcDbEntity
  8
0
  6
CONTINUOUS
 62
             4
100
AcDbLine
 10
150.00176053552738
 20
-70.35179300000004
 11
174.41727369441799
 21
-70.35179300000004
  0
SOLID
  5
FF
100
AcDbEntity
  8
0
 62
             4
100
AcDbTrace
 10
173.99710366546674
 20
-82.35179300000004
 11
170.83744372336923
 21
-82.35179300000004
 12
172.41727369441799
 22
-70.35179300000004
 13
172.41727369441799
 23
-70.35179300000004
  0
SOLID
  5
100
100
AcDbEntity
  8
0
 62
             4
100
AcDbTrace
 10
170.83744372336923
 20
-138.35642900000005
 11
173.99710366546674
 21
-138.35642900000005
 12
172.41727369441799
 22
-150.35642900000005
 13
172.41727369441799
 23
-150.35642900000005
  0
MTEXT
  5
101
100
AcDbEntity
  8
0
 62
             1
100
AcDbMText
 10
170.41727369441799
 20
-106.01302533409201
 30
0.0
 40
12.0
 41
0.0
 71
             7
 72
             1
  1
80
  7
CONVERTER_1
 11
0.0
 21
1.0
 31
0.0
  0
ENDBLK
  5
102
100
AcDbEntity
  8
0
100
AcDbBlockEnd
  0
ENDSEC
  0
SECTION
  2
ENTITIES
  0
DIMENSION
  5
104
100
AcDbEntity
  8
1
100
AcDbDimension
  2
*D10
 10
172.41727369441799
 20
-70.35179300000004
 11
164.41727369441799
 21
-97.01302533409201
 31
0.0
 53
90.0
  1
<>
  3
ME10_DIM_7
100
AcDbAlignedDimension
 13
72.00090919900629
 23
-150.35642900000011
 14
150.00176053552741
 24
-70.35179300000004
 50
90.0
100
AcDbRotatedDimension
  0
DIMENSION
  5
F9
100
AcDbEntity
  8
1
100
AcDbDimension
  2
*D9
 10
361.84732506181808
 20
-90.30621700000006
 11
353.84732506181808
 21
-142.490723646161
 31
0.0
 53
90.0
  1
<>
  3
ME10_DIM_6
100
AcDbAlignedDimension
 13
333.42636900000008
 23
-200.30621700000009
 14
333.42636900000008
 24
-90.30621700000006
 50
90.0
100
AcDbRotatedDimension
  0
DIMENSION
  5
EE
100
AcDbEntity
  8
1
100
AcDbDimension
  2
*D8
 10
197.21355735016101
 20
-112.856641
 11
189.21355735016101
 21
-150.839104489243
 31
0.0
 53
90.0
  1
<>
  3
ME10_DIM_5
100
AcDbAlignedDimension
 13
147.03803500000001
 23
-187.8562170000001
 14
147.22622100000001
 24
-112.856641
 50
90.0
100
AcDbRotatedDimension
  0
DIMENSION
  5
E3
100
AcDbEntity
  8
1
100
AcDbDimension
  2
*D7
 10
73.65704989439679
 20
12.14855879940974
 11
-0.66054808850768
 21
20.14836194940496
 31
0.0
 53
0.00013888888889
  1
150
  3
ME10_DIM_4
100
AcDbAlignedDimension
 13
-73.71000000000004
 23
-0.35
 14
73.65708300000006
 24
-0.34993499999999
 50
0.00015176319452
100
AcDbRotatedDimension
  0
DIMENSION
  5
D8
100
AcDbEntity
  8
1
100
AcDbDimension
  2
*D6
 10
-149.99948226559684
 20
37.62549951186412
 11
0.69506132615428
 21
45.62589866669077
 31
0.0
 53
0.00013888888889
  1
<>
  3
ME10_DIM_3
100
AcDbAlignedDimension
 13
150.00176053552741
 23
-70.35179300000004
 14
-149.9991962588615
 24
-70.35179300000004
 50
0.00015176319452
100
AcDbRotatedDimension
  0
DIMENSION
  5
CD
100
AcDbEntity
  8
1
100
AcDbDimension
  2
*D5
 10
250.00046157222525
 20
61.13775265110375
 11
-36.12175369798744
 21
69.13699477992768
 31
0.0
 53
0.00013888888889
  1
<>
  3
ME10_DIM_2
100
AcDbAlignedDimension
 13
-249.9992082774238
 23
-66.35179300000004
 14
250.00079926238121
 24
-66.35179300000004
 50
0.00015176319452
100
AcDbRotatedDimension
  0
DIMENSION
  5
C2
100
AcDbEntity
  8
1
100
AcDbDimension
  2
*D4
 10
172.41727369441799
 20
-0.349935
 11
164.41727369441799
 21
-32.3007728666637
 31
0.0
 53
90.0
  1
<>
  3
ME10_DIM_1
100
AcDbAlignedDimension
 13
150.00176053552741
 23
-70.35179300000004
 14
73.65708100000006
 24
-0.34993499999999
 50
90.0
100
AcDbRotatedDimension
  0
DIMENSION
  5
B7
100
AcDbEntity
  8
1
100
AcDbDimension
  2
*D3
 10
-159.9991962588615
 20
-223.36158
 11
-167.9991962588615
 21
-153.86304152043101
 31
0.0
 53
90.0
  1
<>
  3
ME10_DIM_0
100
AcDbAlignedDimension
 13
-149.9991962588615
 23
-73.35717
 14
-51.99960400000003
 24
-223.36158
 50
90.0
100
AcDbRotatedDimension
  0
INSERT
  5
31
100
AcDbEntity
  8
1
100
AcDbBlockReference
  2
0317_2E_AUFSATZRAHMEN
 10
706.73161564280531
 20
-77.24026476431601
  0
INSERT
  5
32
100
AcDbEntity
  8
1
100
AcDbBlockReference
  2
0317_4E_REDUKTION_DN11DN75
 10
660.53926293018139
 20
-628.95665176431601
  0
INSERT
  5
33
100
AcDbEntity
  8
1
100
AcDbBlockReference
  2
HL72_1KH_K_RPER
 10
606.27718264280531
 20
-211.58064476431611
  0
ENDSEC
  0
SECTION
  2
OBJECTS
  0
DICTIONARY
  5
19
100
AcDbDictionary
  3
ACAD_GROUP
350
1A
  3
ACAD_MLINESTYLE
350
1B
  0
DICTIONARY
  5
1A
102
{ACAD_REACTORS
330
19
102
}
100
AcDbDictionary
  0
DICTIONARY
  5
1B
102
{ACAD_REACTORS
330
19
102
}
100
AcDbDictionary
  3
STANDARD
350
1C
  0
MLINESTYLE
  5
1C
102
{ACAD_REACTORS
330
1B
102
}
100
AcDbMlineStyle
  2
STANDARD
 70
             0
  3

 62
             0
 51
90.0
 52
90.0
 71
             2
 49
0.5
 62
           256
  6
BYLAYER
 49
-0.5
 62
           256
  6
BYLAYER
  0
ENDSEC
  0
EOF
