  0
SECTION
  2
HEADER
  9
$ACADVER
  1
AC1014
  9
$ACADMAINTVER
 70
             0
  9
$DWGCODEPAGE
  3
ANSI_1252
  9
$INSBASE
 10
0.0
 20
0.0
 30
0.0
  9
$EXTMIN
 10
-250.00000800000001
 20
-163.32504677816061
 30
0.0
  9
$EXTMAX
 10
340.84698555968203
 20
70.5249051263701
 30
0.0
  9
$LIMMIN
 10
0.0
 20
0.0
  9
$LIMMAX
 10
0.0
 20
0.0
  9
$ORTHOMODE
 70
             0
  9
$REGENMODE
 70
             1
  9
$FILLMODE
 70
             1
  9
$QTEXTMODE
 70
             0
  9
$MIRRTEXT
 70
             1
  9
$DRAGMODE
 70
             2
  9
$LTSCALE
 40
1.0
  9
$OSMODE
 70
             0
  9
$ATTMODE
 70
             1
  9
$TEXTSIZE
 40
0.2
  9
$TRACEWID
 40
0.05
  9
$TEXTSTYLE
  7
STANDARD
  9
$CLAYER
  8
0
  9
$CELTYPE
  6
CONTINUOUS
  9
$CECOLOR
 62
           256
  9
$CELTSCALE
 40
1.0
  9
$DELOBJ
 70
             1
  9
$DISPSILH
 70
             0
  9
$DIMSCALE
 40
1.0
  9
$DIMASZ
 40
0.18
  9
$DIMEXO
 40
0.0625
  9
$DIMDLI
 40
0.38
  9
$DIMRND
 40
0.0
  9
$DIMDLE
 40
0.0
  9
$DIMEXE
 40
0.18
  9
$DIMTP
 40
0.0
  9
$DIMTM
 40
0.0
  9
$DIMTXT
 40
0.18
  9
$DIMCEN
 40
0.09
  9
$DIMTSZ
 40
0.0
  9
$DIMTOL
 70
             0
  9
$DIMLIM
 70
             0
  9
$DIMTIH
 70
             1
  9
$DIMTOH
 70
             1
  9
$DIMSE1
 70
             0
  9
$DIMSE2
 70
             0
  9
$DIMTAD
 70
             0
  9
$DIMZIN
 70
             0
  9
$DIMBLK
  1

  9
$DIMASO
 70
             1
  9
$DIMSHO
 70
             1
  9
$DIMPOST
  1

  9
$DIMAPOST
  1

  9
$DIMALT
 70
             0
  9
$DIMALTD
 70
             2
  9
$DIMALTF
 40
25.4
  9
$DIMLFAC
 40
1.0
  9
$DIMTOFL
 70
             0
  9
$DIMTVP
 40
0.0
  9
$DIMTIX
 70
             0
  9
$DIMSOXD
 70
             0
  9
$DIMSAH
 70
             0
  9
$DIMBLK1
  1

  9
$DIMBLK2
  1

  9
$DIMSTYLE
  2
STANDARD
  9
$DIMCLRD
 70
             0
  9
$DIMCLRE
 70
             0
  9
$DIMCLRT
 70
             0
  9
$DIMTFAC
 40
1.0
  9
$DIMGAP
 40
0.09
  9
$DIMJUST
 70
             0
  9
$DIMSD1
 70
             0
  9
$DIMSD2
 70
             0
  9
$DIMTOLJ
 70
             1
  9
$DIMTZIN
 70
             0
  9
$DIMALTZ
 70
             0
  9
$DIMALTTZ
 70
             0
  9
$DIMFIT
 70
             3
  9
$DIMUPT
 70
             0
  9
$DIMUNIT
 70
             2
  9
$DIMDEC
 70
             4
  9
$DIMTDEC
 70
             4
  9
$DIMALTU
 70
             2
  9
$DIMALTTD
 70
             2
  9
$DIMTXSTY
  7
STANDARD
  9
$DIMAUNIT
 70
             0
  9
$LUNITS
 70
             2
  9
$LUPREC
 70
             4
  9
$SKETCHINC
 40
0.1
  9
$FILLETRAD
 40
0.0
  9
$AUNITS
 70
             0
  9
$AUPREC
 70
             0
  9
$MENU
  1
acad
  9
$ELEVATION
 40
0.0
  9
$PELEVATION
 40
0.0
  9
$THICKNESS
 40
0.0
  9
$LIMCHECK
 70
             0
  9
$BLIPMODE
 70
             1
  9
$CHAMFERA
 40
0.0
  9
$CHAMFERB
 40
0.0
  9
$CHAMFERC
 40
0.0
  9
$CHAMFERD
 40
0.0
  9
$SKPOLY
 70
             0
  9
$TDCREATE
 40
0.000000000
  9
$TDUPDATE
 40
0.000000000
  9
$TDINDWG
 40
0.0000000000
  9
$TDUSRTIMER
 40
0.0000000000
  9
$USRTIMER
 70
             1
  9
$ANGBASE
 50
0.0
  9
$ANGDIR
 70
             0
  9
$PDMODE
 70
             0
  9
$PDSIZE
 40
0.0
  9
$PLINEWID
 40
0.0
  9
$COORDS
 70
             0
  9
$SPLFRAME
 70
             0
  9
$SPLINETYPE
 70
             6
  9
$SPLINESEGS
 70
             8
  9
$ATTDIA
 70
             0
  9
$ATTREQ
 70
             1
  9
$HANDLING
 70
             1
  9
$HANDSEED
  5
E1
  9
$SURFTAB1
 70
             6
  9
$SURFTAB2
 70
             6
  9
$SURFTYPE
 70
             6
  9
$SURFU
 70
             6
  9
$SURFV
 70
             6
  9
$UCSNAME
  2

  9
$UCSORG
 10
0.0
 20
0.0
 30
0.0
  9
$UCSXDIR
 10
1.0
 20
0.0
 30
0.0
  9
$UCSYDIR
 10
0.0
 20
1.0
 30
0.0
  9
$PUCSNAME
  2

  9
$PUCSORG
 10
0.0
 20
0.0
 30
0.0
  9
$PUCSXDIR
 10
1.0
 20
0.0
 30
0.0
  9
$PUCSYDIR
 10
0.0
 20
1.0
 30
0.0
  9
$USERI1
 70
             0
  9
$USERI2
 70
             0
  9
$USERI3
 70
             0
  9
$USERI4
 70
             0
  9
$USERI5
 70
             0
  9
$USERR1
 40
12.01
  9
$USERR2
 40
0.0
  9
$USERR3
 40
0.0
  9
$USERR4
 40
0.0
  9
$USERR5
 40
0.0
  9
$WORLDVIEW
 70
             1
  9
$SHADEDGE
 70
             3
  9
$SHADEDIF
 70
            70
  9
$TILEMODE
 70
             1
  9
$MAXACTVP
 70
            16
  9
$PINSBASE
 10
0.0
 20
0.0
 30
0.0
  9
$PLIMCHECK
 70
             0
  9
$PEXTMIN
 10
1.00000000000000E+20
 20
1.00000000000000E+20
 30
1.00000000000000E+20
  9
$PEXTMAX
 10
-1.00000000000000E+20
 20
-1.00000000000000E+20
 30
-1.00000000000000E+20
  9
$PLIMMIN
 10
0.0
 20
0.0
  9
$PLIMMAX
 10
12.0
 20
9.0
  9
$UNITMODE
 70
             0
  9
$VISRETAIN
 70
             0
  9
$PLINEGEN
 70
             1
  9
$PSLTSCALE
 70
             0
  9
$TREEDEPTH
 70
          3020
  9
$PICKSTYLE
 70
             1
  9
$CMLSTYLE
  2
STANDARD
  9
$CMLJUST
 70
             0
  9
$CMLSCALE
 40
1.0
  9
$PROXYGRAPHICS
 70
             0
  9
$MEASUREMENT
 70
             1
  0
ENDSEC
  0
SECTION
  2
CLASSES
  0
CLASS
  1
LWPOLYLINE
  2
AcDbPolyline
  3
"AutoCAD"
 90
        0
280
             0
281
             1
  0
CLASS
  1
IMAGE
  2
AcDbRasterImage
  3
ISM
 90
      127
280
             0
281
             1
  0
CLASS
  1
OLE2FRAME
  2
AcDbOle2Frame
  3
""
 90
        0
280
             0
281
             1
  0
CLASS
  1
HATCH
  2
AcDbHatch
  3
"ACAD_SEDONA"
 90
        0
280
             0
281
             1
  0
CLASS
  1
DICTIONARYVAR
  2
AcDbDictionaryVar
  3
"AutoCAD"
 90
        0
280
             0
281
             0
  0
CLASS
  1
RASTERVARIABLES
  2
AcDbRasterVariables
  3
ISM
 90
        0
280
             0
281
             0
  0
CLASS
  1
IMAGEDEF
  2
AcDbRasterImageDef
  3
ISM
 90
        0
280
             0
281
             0
  0
CLASS
  1
IMAGEDEF_REACTOR
  2
AcDbRasterImageDefReactor
  3
ISM
 90
        1
280
             0
281
             0
  0
CLASS
  1
IDBUFFER
  2
AcDbIdBuffer
  3
"Acad"
 90
        0
280
             0
281
             0
  0
CLASS
  1
SPATIAL_FILTER
  2
AcDbSpatialFilter
  3
"Acad"
 90
        0
280
             0
281
             0
  0
CLASS
  1
XRECORD
  2
AcDbXrecord
  3
"<Built In>"
 90
        0
280
             0
281
             0
  0
CLASS
  1
SORTENTSTABLE
  2
AcDbSortentsTable
  3
"AutoCAD"
 90
        0
280
             0
281
             0
  0
CLASS
  1
LAYER_INDEX
  2
AcDbLayerIndex
  3
"Acad"
 90
        0
280
             0
281
             0
  0
CLASS
  1
SPATIAL_INDEX
  2
AcDbSpatialIndex
  3
"Acad"
 90
        0
280
             0
281
             0
  0
CLASS
  1
OBJECT_PTR
  2
CAseDLPNTableRecord
  3
"ASE-LPNTableRecord"
 90
        1
280
             0
281
             0
  0
CLASS
  1
LAYOUT
  2
AcDbLayout
  3
"AutoCAD 2000"
 90
        0
280
             0
281
             0
  0
CLASS
  1
PLOTSETTINGS
  2
AcDbPlotSettings
  3
"AutoCAD 2000"
 90
        0
280
             0
281
             0
  0
CLASS
  1
ACDBDICTIONARYWDFLT
  2
AcDbDictionaryWithDefault
  3
"AutoCAD 2000"
 90
        0
280
             0
281
             0
  0
CLASS
  1
ACDBPLACEHOLDER
  2
AcDbPlaceHolder
  3
"AutoCAD 2000"
 90
        0
280
             0
281
             0
  0
ENDSEC
  0
SECTION
  2
TABLES
  0
TABLE
  2
VPORT
  5
7
100
AcDbSymbolTable
 70
             1
  0
VPORT
  5
15
100
AcDbSymbolTableRecord
100
AcDbViewportTableRecord
  2
*ACTIVE
 70
             0
 10
0.0
 20
0.0
 11
1.0
 21
1.0
 12
45.42348877984101
 22
-46.40007082589526
 13
0.0
 23
0.0
 14
1.0
 24
1.0
 15
0.0
 25
0.0
 16
0.0
 26
0.0
 36
1.0
 17
0.0
 27
0.0
 37
0.0
 40
405.52841006436131
 41
1.60267857142857
 42
50.0
 43
0.0
 44
0.0
 50
0.0
 51
0.0
 71
             0
 72
           100
 73
             1
 74
             1
 75
             0
 76
             0
 77
             0
 78
             0
  0
ENDTAB
  0
TABLE
  2
LTYPE
  5
4
100
AcDbSymbolTable
 70
            10
  0
LTYPE
  5
11
100
AcDbSymbolTableRecord
100
AcDbLinetypeTableRecord
  2
BYBLOCK
 70
            64
  3

 72
            65
 73
             0
 40
0.0
  0
LTYPE
  5
12
100
AcDbSymbolTableRecord
100
AcDbLinetypeTableRecord
  2
BYLAYER
 70
            64
  3

 72
            65
 73
             0
 40
0.0
  0
LTYPE
  5
13
100
AcDbSymbolTableRecord
100
AcDbLinetypeTableRecord
  2
CONTINUOUS
 70
            64
  3
Solid line
 72
            65
 73
             0
 40
0.0
  0
LTYPE
  5
1D
100
AcDbSymbolTableRecord
100
AcDbLinetypeTableRecord
  2
DASHED
 70
            64
  3
Dashed
 72
            65
 73
             2
 40
15.0
 49
7.0
 74
             0
 49
-8.0
 74
             0
  0
LTYPE
  5
1E
100
AcDbSymbolTableRecord
100
AcDbLinetypeTableRecord
  2
DOTTED
 70
            64
  3
Dotted
 72
            65
 73
             2
 40
1.0
 49
0.0
 74
             0
 49
-1.0
 74
             0
  0
LTYPE
  5
1F
100
AcDbSymbolTableRecord
100
AcDbLinetypeTableRecord
  2
DOT_CENTER
 70
            64
  3
Dot_Center
 72
            65
 73
             4
 40
14.0
 49
12.0
 74
             0
 49
-1.0
 74
             0
 49
0.0
 74
             0
 49
-1.0
 74
             0
  0
LTYPE
  5
20
100
AcDbSymbolTableRecord
100
AcDbLinetypeTableRecord
  2
LONG_DASHED
 70
            64
  3
Long_Dashed
 72
            65
 73
             2
 40
15.0
 49
10.0
 74
             0
 49
-5.0
 74
             0
  0
LTYPE
  5
21
100
AcDbSymbolTableRecord
100
AcDbLinetypeTableRecord
  2
DASH_CENTER
 70
            64
  3
Dash_Center
 72
            65
 73
             4
 40
14.0
 49
11.0
 74
             0
 49
-1.0
 74
             0
 49
1.0
 74
             0
 49
-1.0
 74
             0
  0
LTYPE
  5
22
100
AcDbSymbolTableRecord
100
AcDbLinetypeTableRecord
  2
PHANTOM
 70
            64
  3
Phantom
 72
            65
 73
             6
 40
13.0
 49
10.0
 74
             0
 49
-1.0
 74
             0
 49
0.0
 74
             0
 49
-1.0
 74
             0
 49
0.0
 74
             0
 49
-1.0
 74
             0
  0
LTYPE
  5
23
100
AcDbSymbolTableRecord
100
AcDbLinetypeTableRecord
  2
CENTER_DASH_DASH
 70
            64
  3
Center_Dash_Dash
 72
            65
 73
             6
 40
14.0
 49
9.0
 74
             0
 49
-1.0
 74
             0
 49
1.0
 74
             0
 49
-1.0
 74
             0
 49
1.0
 74
             0
 49
-1.0
 74
             0
  0
ENDTAB
  0
TABLE
  2
LAYER
  5
2
100
AcDbSymbolTable
 70
             6
  0
LAYER
  5
14
100
AcDbSymbolTableRecord
100
AcDbLayerTableRecord
  2
0
 70
             0
 62
             7
  6
CONTINUOUS
  0
LAYER
  5
24
100
AcDbSymbolTableRecord
100
AcDbLayerTableRecord
  2
1
 70
             0
 62
             7
  6
CONTINUOUS
  0
LAYER
  5
25
100
AcDbSymbolTableRecord
100
AcDbLayerTableRecord
  2
LC-001-020-----0
 70
             0
 62
             7
  6
CONTINUOUS
  0
LAYER
  5
26
100
AcDbSymbolTableRecord
100
AcDbLayerTableRecord
  2
LC-002-002-----0
 70
             0
 62
             7
  6
CONTINUOUS
  0
LAYER
  5
27
100
AcDbSymbolTableRecord
100
AcDbLayerTableRecord
  2
LC-003-002-----0
 70
             0
 62
             7
  6
CONTINUOUS
  0
LAYER
  5
28
100
AcDbSymbolTableRecord
100
AcDbLayerTableRecord
  2
LC-009-002-RND-0
 70
             0
 62
             7
  6
CONTINUOUS
  0
ENDTAB
  0
TABLE
  2
STYLE
  5
3
100
AcDbSymbolTable
 70
             2
  0
STYLE
  5
17
100
AcDbSymbolTableRecord
100
AcDbTextStyleTableRecord
  2
STANDARD
 70
             0
 40
0.0
 41
1.0
 50
0.0
 71
             0
 42
0.0
  3
txt
  4

  0
STYLE
  5
99
100
AcDbSymbolTableRecord
100
AcDbTextStyleTableRecord
  2
CONVERTER_1
 70
             0
 40
0.0
 41
0.9
 50
0.0
 71
             0
 42
0.0
  3
txt.shx
  4

  0
ENDTAB
  0
TABLE
  2
VIEW
  5
5
100
AcDbSymbolTable
 70
             0
  0
ENDTAB
  0
TABLE
  2
UCS
  5
6
100
AcDbSymbolTable
 70
             0
  0
ENDTAB
  0
TABLE
  2
APPID
  5
8
100
AcDbSymbolTable
 70
             1
  0
APPID
  5
16
100
AcDbSymbolTableRecord
100
AcDbRegAppTableRecord
  2
ACAD
 70
             0
  0
ENDTAB
  0
TABLE
  2
DIMSTYLE
  5
9
100
AcDbSymbolTable
 70
             8
  0
DIMSTYLE
105
18
100
AcDbSymbolTableRecord
100
AcDbDimStyleTableRecord
  2
STANDARD
 70
             0
  3

  4

  5

  6

  7

 40
1.0
 41
0.18
 42
0.0625
 43
0.38
 44
0.18
 45
0.0
 46
0.0
 47
0.0
 48
0.0
 71
             0
 72
             0
 73
             1
 74
             1
 75
             0
 76
             0
 77
             0
 78
             0
140
0.18
141
0.09
142
0.0
143
25.4
144
1.0
145
0.0
146
1.0
147
0.09
170
             0
171
             2
172
             0
173
             0
174
             0
175
             0
176
             0
177
             0
178
             0
270
             2
271
             4
272
             4
273
             2
274
             2
275
             0
280
             0
281
             0
282
             0
283
             1
284
             0
285
             0
286
             0
287
             3
288
             0
340
17
  0
DIMSTYLE
105
9C
100
AcDbSymbolTableRecord
100
AcDbDimStyleTableRecord
  2
ME10_DIM_0
 70
             0
  3
Ø<>
  4

  5

  6

  7

 40
1.0
 41
12.0
 42
0.0
 43
0.38
 44
2.0
 45
0.0
 46
0.0
 47
0.0
 48
0.0
 71
             0
 72
             0
 73
             0
 74
             0
 75
             0
 76
             0
 77
             1
 78
             8
140
12.0
141
0.09
142
0.0
143
25.4
144
1.0
145
0.0
146
1.0
147
0.625
170
             0
171
             2
172
             1
173
             1
174
             0
175
             0
176
             4
177
             4
178
             1
270
             2
271
             2
272
             4
273
             2
274
             2
275
             0
280
             0
281
             0
282
             0
283
             1
284
             0
285
             0
286
             0
287
             3
288
             0
340
99
  0
DIMSTYLE
105
A7
100
AcDbSymbolTableRecord
100
AcDbDimStyleTableRecord
  2
ME10_DIM_1
 70
             0
  3
Ø<>
  4

  5

  6

  7

 40
1.0
 41
12.0
 42
0.0
 43
0.38
 44
2.0
 45
0.0
 46
0.0
 47
0.0
 48
0.0
 71
             0
 72
             0
 73
             0
 74
             0
 75
             0
 76
             0
 77
             1
 78
             8
140
12.0
141
0.09
142
0.0
143
25.4
144
1.0
145
0.0
146
1.0
147
0.625
170
             0
171
             2
172
             1
173
             1
174
             0
175
             0
176
             4
177
             4
178
             1
270
             2
271
             2
272
             4
273
             2
274
             2
275
             0
280
             0
281
             0
282
             0
283
             1
284
             0
285
             0
286
             0
287
             3
288
             0
340
99
  0
DIMSTYLE
105
B2
100
AcDbSymbolTableRecord
100
AcDbDimStyleTableRecord
  2
ME10_DIM_2
 70
             0
  3

  4

  5

  6

  7

 40
1.0
 41
12.0
 42
0.0
 43
0.38
 44
2.0
 45
0.0
 46
0.0
 47
0.0
 48
0.0
 71
             0
 72
             0
 73
             0
 74
             0
 75
             0
 76
             0
 77
             1
 78
             8
140
12.0
141
0.09
142
0.0
143
25.4
144
1.0
145
0.0
146
1.0
147
0.625
170
             0
171
             2
172
             1
173
             1
174
             0
175
             0
176
             4
177
             4
178
             1
270
             2
271
             2
272
             4
273
             2
274
             2
275
             0
280
             0
281
             0
282
             0
283
             1
284
             0
285
             0
286
             0
287
             3
288
             0
340
99
  0
DIMSTYLE
105
BD
100
AcDbSymbolTableRecord
100
AcDbDimStyleTableRecord
  2
ME10_DIM_3
 70
             0
  3
Ø<>
  4

  5

  6

  7

 40
1.0
 41
12.0
 42
0.0
 43
0.38
 44
2.0
 45
0.0
 46
0.0
 47
0.0
 48
0.0
 71
             0
 72
             0
 73
             0
 74
             0
 75
             0
 76
             0
 77
             1
 78
             8
140
12.0
141
0.09
142
0.0
143
25.4
144
1.0
145
0.0
146
1.0
147
0.625
170
             0
171
             2
172
             1
173
             1
174
             0
175
             0
176
             4
177
             4
178
             1
270
             2
271
             2
272
             4
273
             2
274
             2
275
             0
280
             0
281
             0
282
             0
283
             1
284
             0
285
             0
286
             0
287
             3
288
             0
340
99
  0
DIMSTYLE
105
C8
100
AcDbSymbolTableRecord
100
AcDbDimStyleTableRecord
  2
ME10_DIM_4
 70
             0
  3
DN<>
  4

  5

  6

  7

 40
1.0
 41
12.0
 42
0.0
 43
0.38
 44
2.0
 45
0.0
 46
0.0
 47
0.0
 48
0.0
 71
             0
 72
             0
 73
             0
 74
             0
 75
             0
 76
             0
 77
             1
 78
             8
140
12.0
141
0.09
142
0.0
143
25.4
144
1.0
145
0.0
146
1.0
147
0.625
170
             0
171
             2
172
             1
173
             1
174
             0
175
             0
176
             4
177
             4
178
             1
270
             2
271
             2
272
             4
273
             2
274
             2
275
             0
280
             0
281
             0
282
             0
283
             1
284
             0
285
             0
286
             0
287
             3
288
             0
340
99
  0
DIMSTYLE
105
D3
100
AcDbSymbolTableRecord
100
AcDbDimStyleTableRecord
  2
ME10_DIM_5
 70
             0
  3
DN<>
  4

  5

  6

  7

 40
1.0
 41
12.0
 42
0.0
 43
0.38
 44
2.0
 45
0.0
 46
0.0
 47
0.0
 48
0.0
 71
             0
 72
             0
 73
             0
 74
             0
 75
             0
 76
             0
 77
             1
 78
             8
140
12.0
141
0.09
142
0.0
143
25.4
144
1.0
145
0.0
146
1.0
147
0.625
170
             0
171
             2
172
             1
173
             1
174
             0
175
             0
176
             4
177
             4
178
             1
270
             2
271
             2
272
             4
273
             2
274
             2
275
             0
280
             0
281
             0
282
             0
283
             1
284
             0
285
             0
286
             0
287
             3
288
             0
340
99
  0
DIMSTYLE
105
DE
100
AcDbSymbolTableRecord
100
AcDbDimStyleTableRecord
  2
ME10_DIM_6
 70
             0
  3

  4

  5

  6

  7

 40
1.0
 41
12.0
 42
0.0
 43
0.38
 44
2.0
 45
0.0
 46
0.0
 47
0.0
 48
0.0
 71
             0
 72
             0
 73
             0
 74
             0
 75
             0
 76
             0
 77
             1
 78
             8
140
12.0
141
0.09
142
0.0
143
25.4
144
1.0
145
0.0
146
1.0
147
0.625
170
             0
171
             2
172
             1
173
             1
174
             0
175
             0
176
             4
177
             4
178
             1
270
             2
271
             2
272
             4
273
             2
274
             2
275
             0
280
             0
281
             0
282
             0
283
             1
284
             0
285
             0
286
             0
287
             3
288
             0
340
99
  0
ENDTAB
  0
TABLE
  2
BLOCK_RECORD
  5
1
100
AcDbSymbolTable
 70
             9
  0
BLOCK_RECORD
  5
A
100
AcDbSymbolTableRecord
100
AcDbBlockTableRecord
  2
*MODEL_SPACE
  0
BLOCK_RECORD
  5
B
100
AcDbSymbolTableRecord
100
AcDbBlockTableRecord
  2
*PAPER_SPACE
  0
BLOCK_RECORD
  5
29
100
AcDbSymbolTableRecord
100
AcDbBlockTableRecord
  2
0317_4E_REDUKTION_DN11DN75
  0
BLOCK_RECORD
  5
2B
100
AcDbSymbolTableRecord
100
AcDbBlockTableRecord
  2
HL72_1KH_K_RPER
  0
BLOCK_RECORD
  5
92
100
AcDbSymbolTableRecord
100
AcDbBlockTableRecord
  2
*D2
  0
BLOCK_RECORD
  5
9E
100
AcDbSymbolTableRecord
100
AcDbBlockTableRecord
  2
*D3
  0
BLOCK_RECORD
  5
A9
100
AcDbSymbolTableRecord
100
AcDbBlockTableRecord
  2
*D4
  0
BLOCK_RECORD
  5
B4
100
AcDbSymbolTableRecord
100
AcDbBlockTableRecord
  2
*D5
  0
BLOCK_RECORD
  5
BF
100
AcDbSymbolTableRecord
100
AcDbBlockTableRecord
  2
*D6
  0
BLOCK_RECORD
  5
CA
100
AcDbSymbolTableRecord
100
AcDbBlockTableRecord
  2
*D7
  0
BLOCK_RECORD
  5
D5
100
AcDbSymbolTableRecord
100
AcDbBlockTableRecord
  2
*D8
  0
ENDTAB
  0
ENDSEC
  0
SECTION
  2
BLOCKS
  0
BLOCK
  5
D
100
AcDbEntity
  8
0
100
AcDbBlockBegin
  2
*MODEL_SPACE
 70
             0
 10
0.0
 20
0.0
 30
0.0
  3
*MODEL_SPACE
  1

  0
ENDBLK
  5
E
100
AcDbEntity
  8
0
100
AcDbBlockEnd
  0
BLOCK
  5
F
100
AcDbEntity
 67
             1
  8
0
100
AcDbBlockBegin
  2
*PAPER_SPACE
 70
             0
 10
0.0
 20
0.0
 30
0.0
  3
*PAPER_SPACE
  1

  0
ENDBLK
  5
10
100
AcDbEntity
 67
             1
  8
0
100
AcDbBlockEnd
  0
BLOCK
  5
2A
100
AcDbEntity
  8
0
100
AcDbBlockBegin
  2
0317_4E_REDUKTION_DN11DN75
 70
             0
 10
637.53926293018139
 20
-628.95665176431601
 30
0.0
  3
0317_4E_REDUKTION_DN11DN75
  1

  0
ARC
  5
4B
100
AcDbEntity
  8
LC-009-002-RND-0
  6
CONTINUOUS
 62
             7
100
AcDbCircle
 10
231.4970974978639
 20
-123.9544240000001
 40
5.00000000000022
100
AcDbArc
 50
-135.00000000000162
 51
-90.0
  0
ARC
  5
4A
100
AcDbEntity
  8
LC-009-002-RND-0
  6
CONTINUOUS
 62
             7
100
AcDbCircle
 10
231.4970974978639
 20
-45.95442400000006
 40
5.0
100
AcDbArc
 50
90.0
 51
134.99999999999909
  0
ARC
  5
49
100
AcDbEntity
  8
LC-009-002-RND-0
  6
CONTINUOUS
 62
             7
100
AcDbCircle
 10
242.42602949786411
 20
-25.95442400000002
 40
2.0
100
AcDbArc
 50
90.0
 51
180.0
  0
ARC
  5
48
100
AcDbEntity
  8
LC-009-002-RND-0
  6
CONTINUOUS
 62
             7
100
AcDbCircle
 10
242.42602949786411
 20
-131.9544240000001
 40
2.0
100
AcDbArc
 50
180.0
 51
-90.0
  0
LINE
  5
47
100
AcDbEntity
  8
1
  6
PHANTOM
 62
             2
100
AcDbLine
 10
219.0764800858509
 20
-78.95442400000005
 11
318.77721647229521
 21
-78.95442400000005
  0
LINE
  5
46
100
AcDbEntity
  8
LC-003-002-----0
  6
CONTINUOUS
 62
             7
100
AcDbLine
 10
231.4970974978639
 20
-128.9544240000001
 11
240.42602949786411
 21
-128.9544240000001
  0
LINE
  5
45
100
AcDbEntity
  8
LC-003-002-----0
  6
CONTINUOUS
 62
             7
100
AcDbLine
 10
225.42602949786411
 20
-124.9544240000001
 11
227.96156349786401
 21
-127.4899579999999
  0
LINE
  5
44
100
AcDbEntity
  8
LC-003-002-----0
  6
CONTINUOUS
 62
             7
100
AcDbLine
 10
221.92602949786411
 20
-124.9544240000001
 11
225.42602949786411
 21
-124.9544240000001
  0
LINE
  5
43
100
AcDbEntity
  8
LC-003-002-----0
  6
CONTINUOUS
 62
             7
100
AcDbLine
 10
225.42602949786411
 20
-44.95442400000006
 11
227.96156349786401
 21
-42.41888999999996
  0
LINE
  5
42
100
AcDbEntity
  8
LC-003-002-----0
  6
CONTINUOUS
 62
             7
100
AcDbLine
 10
231.4970974978639
 20
-40.95442400000006
 11
240.42602949786411
 21
-40.95442400000006
  0
LINE
  5
41
100
AcDbEntity
  8
LC-003-002-----0
  6
CONTINUOUS
 62
             7
100
AcDbLine
 10
242.42602949786411
 20
-133.9544240000001
 11
310.42602949786402
 21
-133.9544240000001
  0
LINE
  5
40
100
AcDbEntity
  8
LC-003-002-----0
  6
CONTINUOUS
 62
             7
100
AcDbLine
 10
240.42602949786411
 20
-25.95442400000002
 11
240.42602949786411
 21
-40.95442400000006
  0
LINE
  5
3F
100
AcDbEntity
  8
LC-003-002-----0
  6
CONTINUOUS
 62
             7
100
AcDbLine
 10
310.42602949786402
 20
-23.95442400000002
 11
316.42602949786402
 21
-25.01238599999999
  0
LINE
  5
3E
100
AcDbEntity
  8
LC-003-002-----0
  6
CONTINUOUS
 62
             7
100
AcDbLine
 10
316.42602949786402
 20
-25.01238599999999
 11
316.42602949786402
 21
-74.95442400000005
  0
LINE
  5
3D
100
AcDbEntity
  8
LC-003-002-----0
  6
CONTINUOUS
 62
             7
100
AcDbLine
 10
242.42602949786411
 20
-23.95442400000002
 11
310.42602949786402
 21
-23.95442400000002
  0
LINE
  5
3C
100
AcDbEntity
  8
LC-003-002-----0
  6
CONTINUOUS
 62
             7
100
AcDbLine
 10
310.42602949786402
 20
-133.9544240000001
 11
316.42602949786402
 21
-132.89646200000001
  0
LINE
  5
3B
100
AcDbEntity
  8
LC-003-002-----0
  6
CONTINUOUS
 62
             7
100
AcDbLine
 10
221.92602949786411
 20
-44.95442400000006
 11
225.42602949786411
 21
-44.95442400000006
  0
LINE
  5
3A
100
AcDbEntity
  8
LC-003-002-----0
  6
CONTINUOUS
 62
             7
100
AcDbLine
 10
316.42602949786402
 20
-132.89646200000001
 11
316.42602949786402
 21
-74.95442400000005
  0
LINE
  5
39
100
AcDbEntity
  8
LC-003-002-----0
  6
CONTINUOUS
 62
             7
100
AcDbLine
 10
240.42602949786411
 20
-131.9544240000001
 11
240.42602949786411
 21
-128.9544240000001
  0
LINE
  5
38
100
AcDbEntity
  8
LC-003-002-----0
  6
CONTINUOUS
 62
             7
100
AcDbLine
 10
221.92602949786411
 20
-44.95442400000006
 11
221.92602949786411
 21
-124.9544240000001
  0
LINE
  5
37
100
AcDbEntity
  8
1
  6
CONTINUOUS
 62
             7
100
AcDbLine
 10
310.42602949786402
 20
-133.9544240000001
 11
310.42602949786402
 21
-23.95442400000002
  0
LINE
  5
36
100
AcDbEntity
  8
1
  6
CONTINUOUS
 62
             7
100
AcDbLine
 10
240.42602949786411
 20
-40.95442400000006
 11
240.42602949786411
 21
-128.9544240000001
  0
LINE
  5
35
100
AcDbEntity
  8
1
  6
CONTINUOUS
 62
             7
100
AcDbLine
 10
242.42602949786411
 20
-23.95442400000002
 11
242.42602949786411
 21
-133.9544240000001
  0
LINE
  5
34
100
AcDbEntity
  8
1
  6
CONTINUOUS
 62
             7
100
AcDbLine
 10
231.4970974978639
 20
-128.9544240000001
 11
231.4970974978639
 21
-40.95442400000006
  0
LINE
  5
33
100
AcDbEntity
  8
1
  6
CONTINUOUS
 62
             7
100
AcDbLine
 10
225.42602949786411
 20
-44.95442400000006
 11
225.42602949786411
 21
-124.9544240000001
  0
POINT
  5
32
100
AcDbEntity
  8
0
 62
             7
100
AcDbPoint
 10
310.42602949786402
 20
-23.95442400000002
  0
POINT
  5
31
100
AcDbEntity
  8
0
 62
             7
100
AcDbPoint
 10
310.42602949786402
 20
-133.9544240000001
  0
ENDBLK
  5
4C
100
AcDbEntity
  8
0
100
AcDbBlockEnd
  0
BLOCK
  5
2C
100
AcDbEntity
  8
0
100
AcDbBlockBegin
  2
HL72_1KH_K_RPER
 70
             0
 10
606.27718264280531
 20
-211.58064476431611
 30
0.0
  3
HL72_1KH_K_RPER
  1

  0
ARC
  5
8F
100
AcDbEntity
  8
LC-003-002-----0
  6
CONTINUOUS
 62
             7
100
AcDbCircle
 10
-91.20328450213606
 20
-23.72067199999992
 40
1.99870399999974
100
AcDbArc
 50
0.00026700000376
 51
85.82908600001336
  0
ARC
  5
8E
100
AcDbEntity
  8
LC-003-002-----0
  6
CONTINUOUS
 62
             7
100
AcDbCircle
 10
-90.20396050213606
 20
-17.77979699999992
 40
3.99740799999962
100
AcDbArc
 50
-179.99974799999441
 51
-102.29040700000498
  0
ARC
  5
8D
100
AcDbEntity
  8
LC-003-002-----0
  6
CONTINUOUS
 62
             7
100
AcDbCircle
 10
-95.20073850213601
 20
-13.92411499999997
 40
0.99935199999959
100
AcDbArc
 50
0.00025200001995
 51
86.00000299997842
  0
ARC
  5
8C
100
AcDbEntity
  8
LC-009-002-RND-0
  6
CONTINUOUS
 62
             7
100
AcDbCircle
 10
-80.91644650213607
 20
-39.50332999999996
 40
2.9990279999999
100
AcDbArc
 50
-157.64751199999591
 51
-90.0
  0
ARC
  5
8B
100
AcDbEntity
  8
LC-003-002-----0
  6
CONTINUOUS
 62
             7
100
AcDbCircle
 10
91.20328449786393
 20
-23.72067199999992
 40
1.99870400000019
100
AcDbArc
 50
94.17091399998665
 51
179.99973299999624
  0
ARC
  5
8A
100
AcDbEntity
  8
LC-003-002-----0
  6
CONTINUOUS
 62
             7
100
AcDbCircle
 10
95.200738497864
 20
-13.92411499999997
 40
0.99935199999967
100
AcDbArc
 50
93.99999700002159
 51
179.99974799998006
  0
ARC
  5
89
100
AcDbEntity
  8
LC-003-002-----0
  6
CONTINUOUS
 62
             7
100
AcDbCircle
 10
90.20396049786393
 20
-17.77979699999992
 40
3.9974079999998
100
AcDbArc
 50
-77.70959299999504
 51
-0.00025200000559
  0
ARC
  5
88
100
AcDbEntity
  8
LC-009-002-RND-0
  6
CONTINUOUS
 62
             7
100
AcDbCircle
 10
80.91644649786394
 20
-39.50332999999996
 40
2.999028
100
AcDbArc
 50
-90.0
 51
-22.35248800000329
  0
ARC
  5
87
100
AcDbEntity
  8
LC-001-020-----0
  6
CONTINUOUS
 62
             7
100
AcDbCircle
 10
52.00001579334789
 20
-137.00992299999999
 40
19.99999999999952
100
AcDbArc
 50
-90.00007600000122
 51
-0.00053199999883
  0
ARC
  5
86
100
AcDbEntity
  8
LC-001-020-----0
  6
CONTINUOUS
 62
             7
100
AcDbCircle
 10
-51.9999175021361
 20
-137.00978799999999
 40
20.00000000000043
100
AcDbArc
 50
179.99990499999939
 51
-90.00007600000083
  0
ARC
  5
85
100
AcDbEntity
  8
1
  6
CONTINUOUS
 62
             7
100
AcDbCircle
 10
125.0801264918055
 20
-83.99996228223469
 40
64.99024135342887
100
AcDbArc
 50
144.75977464900166
 51
-144.75969322230392
  0
LINE
  5
84
100
AcDbEntity
  8
LC-002-002-----0
  6
CONTINUOUS
 62
             7
100
AcDbLine
 10
250.0
 20
-4.0
 11
250.00000800000009
 21
0.0
  0
LINE
  5
83
100
AcDbEntity
  8
LC-002-002-----0
  6
CONTINUOUS
 62
             7
100
AcDbLine
 10
250.0
 20
-4.0
 11
-250.0
 21
-4.0
  0
LINE
  5
82
100
AcDbEntity
  8
LC-002-002-----0
  6
CONTINUOUS
 62
             7
100
AcDbLine
 10
250.00000800000009
 20
0.0
 11
-250.00000800000001
 21
0.0
  0
LINE
  5
81
100
AcDbEntity
  8
LC-002-002-----0
  6
CONTINUOUS
 62
             7
100
AcDbLine
 10
-250.00000800000001
 20
0.0
 11
-250.0
 21
-4.0
  0
LINE
  5
80
100
AcDbEntity
  8
1
  6
CONTINUOUS
 62
             7
100
AcDbLine
 10
-81.8473761089756
 20
-4.0
 11
150.000956940511
 21
-4.0
  0
LINE
  5
7F
100
AcDbEntity
  8
1
  6
CONTINUOUS
 62
             7
100
AcDbLine
 10
-150.0
 20
-4.0
 11
-81.8473761089756
 21
-4.0
  0
LINE
  5
7E
100
AcDbEntity
  8
1
  6
PHANTOM
 62
             2
100
AcDbLine
 10
52.5077005385173
 20
-84.0
 11
153.647551373455
 21
-84.0
  0
LINE
  5
7D
100
AcDbEntity
  8
LC-003-002-----0
  6
CONTINUOUS
 62
             7
100
AcDbLine
 10
71.99999650000001
 20
-46.50021199999992
 11
147.03769549786401
 21
-46.50021199999992
  0
LINE
  5
7C
100
AcDbEntity
  8
LC-003-002-----0
  6
CONTINUOUS
 62
             7
100
AcDbLine
 10
71.99999650000001
 20
-46.50021199999992
 11
72.00000349999999
 21
-42.50290299999996
  0
LINE
  5
7B
100
AcDbEntity
  8
LC-001-020-----0
  6
CONTINUOUS
 62
             7
100
AcDbLine
 10
71.99994579334782
 20
-137.010109
 11
72.00004979334779
 21
-121.49978800000009
  0
LINE
  5
7A
100
AcDbEntity
  8
LC-003-002-----0
  6
CONTINUOUS
 62
             7
100
AcDbLine
 10
147.03769549786401
 20
-121.49978800000009
 11
150.22588149786401
 21
-120.6455160000001
  0
LINE
  5
79
100
AcDbEntity
  8
LC-003-002-----0
  6
CONTINUOUS
 62
             7
100
AcDbLine
 10
-89.20458050213608
 20
-23.72066300000006
 11
-89.20454150213607
 21
-28.80455899999993
  0
LINE
  5
78
100
AcDbEntity
  8
LC-003-002-----0
  6
CONTINUOUS
 62
             7
100
AcDbLine
 10
-94.20138650213607
 20
-13.92411099999998
 11
-94.201369502136
 21
-17.77981499999999
  0
LINE
  5
77
100
AcDbEntity
  8
LC-003-002-----0
  6
CONTINUOUS
 62
             7
100
AcDbLine
 10
-110.9412165021361
 20
-11.821642
 11
-95.13102750213602
 21
-12.92719699999998
  0
LINE
  5
76
100
AcDbEntity
  8
LC-003-002-----0
  6
CONTINUOUS
 62
             7
100
AcDbLine
 10
-117.96598050213611
 20
-9.29189799999995
 11
-110.9387855021361
 21
-11.78687099999996
  0
LINE
  5
75
100
AcDbEntity
  8
LC-003-002-----0
  6
CONTINUOUS
 62
             7
100
AcDbLine
 10
-150.0
 20
-7.00537699999995
 11
-117.96598050213611
 21
-9.29189799999995
  0
LINE
  5
74
100
AcDbEntity
  8
LC-003-002-----0
  6
CONTINUOUS
 62
             7
100
AcDbLine
 10
-150.0
 20
-7.00537699999995
 11
-150.0
 21
-4.0
  0
LINE
  5
73
100
AcDbEntity
  8
LC-003-002-----0
  6
CONTINUOUS
 62
             7
100
AcDbLine
 10
-89.20454150213607
 20
-28.80455899999993
 11
-83.69013250213607
 21
-40.64387099999996
  0
LINE
  5
72
100
AcDbEntity
  8
LC-003-002-----0
  6
CONTINUOUS
 62
             7
100
AcDbLine
 10
-80.91644650213607
 20
-42.50260800000005
 11
-71.99980450213604
 21
-42.50260800000005
  0
LINE
  5
71
100
AcDbEntity
  8
LC-003-002-----0
  6
CONTINUOUS
 62
             7
100
AcDbLine
 10
150.0
 20
-7.00537699999995
 11
150.0
 21
-4.0
  0
LINE
  5
70
100
AcDbEntity
  8
LC-003-002-----0
  6
CONTINUOUS
 62
             7
100
AcDbLine
 10
117.9659804978639
 20
-9.29189799999995
 11
110.93878449786411
 21
-11.78687099999996
  0
LINE
  5
6F
100
AcDbEntity
  8
LC-003-002-----0
  6
CONTINUOUS
 62
             7
100
AcDbLine
 10
89.20458049786396
 20
-23.72066300000006
 11
89.20454149786394
 21
-28.80455899999993
  0
LINE
  5
6E
100
AcDbEntity
  8
LC-003-002-----0
  6
CONTINUOUS
 62
             7
100
AcDbLine
 10
150.0
 20
-7.00537699999995
 11
117.9659804978639
 21
-9.29189799999995
  0
LINE
  5
6D
100
AcDbEntity
  8
LC-003-002-----0
  6
CONTINUOUS
 62
             7
100
AcDbLine
 10
94.20138549786395
 20
-13.92411099999998
 11
94.20136949786399
 21
-17.77981499999999
  0
LINE
  5
6C
100
AcDbEntity
  8
LC-003-002-----0
  6
CONTINUOUS
 62
             7
100
AcDbLine
 10
110.9412164978641
 20
-11.821642
 11
95.1310264978639
 21
-12.92719699999998
  0
LINE
  5
6B
100
AcDbEntity
  8
LC-003-002-----0
  6
CONTINUOUS
 62
             7
100
AcDbLine
 10
89.20456849786399
 20
-26.30427499999996
 11
89.20454449786394
 21
-28.07707899999991
  0
LINE
  5
6A
100
AcDbEntity
  8
LC-003-002-----0
  6
CONTINUOUS
 62
             7
100
AcDbLine
 10
80.91644649786394
 20
-42.50260800000005
 11
72.00000349999998
 21
-42.50260800000005
  0
LINE
  5
69
100
AcDbEntity
  8
LC-003-002-----0
  6
CONTINUOUS
 62
             7
100
AcDbLine
 10
89.20454149786394
 20
-28.80455899999993
 11
83.69013249786394
 21
-40.64387099999996
  0
LINE
  5
68
100
AcDbEntity
  8
LC-003-002-----0
  6
CONTINUOUS
 62
             7
100
AcDbLine
 10
147.22588149786401
 20
-46.50021199999992
 11
150.22588149786401
 21
-47.30405999999993
  0
LINE
  5
67
100
AcDbEntity
  8
LC-003-002-----0
  6
CONTINUOUS
 62
             7
100
AcDbLine
 10
150.22588149786401
 20
-47.30405999999993
 11
150.22588149786401
 21
-120.6455160000001
  0
LINE
  5
66
100
AcDbEntity
  8
LC-003-002-----0
  6
CONTINUOUS
 62
             7
100
AcDbLine
 10
72.00004979334779
 20
-121.49978800000009
 11
147.03769549786401
 21
-121.49978800000009
  0
LINE
  5
65
100
AcDbEntity
  8
LC-001-020-----0
  6
CONTINUOUS
 62
             7
100
AcDbLine
 10
-51.99994350213609
 20
-157.00978699999999
 11
51.99998979334784
 21
-157.00992299999999
  0
LINE
  5
64
100
AcDbEntity
  8
LC-001-020-----0
  6
CONTINUOUS
 62
             7
100
AcDbLine
 10
-71.99980450213604
 20
-42.50260899999985
 11
-71.99993150213606
 21
-137.00978799999999
  0
LINE
  5
63
100
AcDbEntity
  8
1
  6
CONTINUOUS
 62
             7
100
AcDbLine
 10
-89.20458050215802
 20
-23.72066268598098
 11
89.20458049786396
 21
-23.72066268598098
  0
LINE
  5
62
100
AcDbEntity
  8
1
  6
CONTINUOUS
 62
             7
100
AcDbLine
 10
91.05791494932794
 20
-21.72726151192296
 11
-91.05791495360006
 21
-21.72726151192296
  0
LINE
  5
61
100
AcDbEntity
  8
1
  6
CONTINUOUS
 62
             7
100
AcDbLine
 10
-89.20454150213607
 20
-28.80455899999993
 11
89.20454449786394
 21
-28.80455899999993
  0
LINE
  5
60
100
AcDbEntity
  8
1
  6
CONTINUOUS
 62
             7
100
AcDbLine
 10
83.69013249786394
 20
-40.64387099999996
 11
-83.69013250213607
 21
-40.64387099999996
  0
LINE
  5
5F
100
AcDbEntity
  8
1
  6
CONTINUOUS
 62
             7
100
AcDbLine
 10
-71.99980450213604
 20
-42.50260899999985
 11
72.00000350000001
 21
-42.50260899999985
  0
LINE
  5
5E
100
AcDbEntity
  8
1
  6
CONTINUOUS
 62
             7
100
AcDbLine
 10
-94.20136850209701
 20
-17.77981458151896
 11
94.20138549786395
 21
-17.77981458151896
  0
LINE
  5
5D
100
AcDbEntity
  8
1
  6
CONTINUOUS
 62
             7
100
AcDbLine
 10
94.20138549786395
 20
-13.92411099999998
 11
-94.20138650213607
 21
-13.92411099999998
  0
LINE
  5
5C
100
AcDbEntity
  8
1
  6
CONTINUOUS
 62
             7
100
AcDbLine
 10
-95.13102750213602
 20
-12.92719699999998
 11
95.13102727851299
 21
-12.92719699999998
  0
LINE
  5
5B
100
AcDbEntity
  8
1
  6
CONTINUOUS
 62
             7
100
AcDbLine
 10
110.9412164978641
 20
-11.821642
 11
-110.9412165021361
 21
-11.821642
  0
LINE
  5
5A
100
AcDbEntity
  8
1
  6
CONTINUOUS
 62
             7
100
AcDbLine
 10
-117.96598050213611
 20
-9.29189799999995
 11
117.9659804978639
 21
-9.29189799999995
  0
LINE
  5
59
100
AcDbEntity
  8
1
  6
CONTINUOUS
 62
             7
100
AcDbLine
 10
-150.0
 20
-7.00537699999995
 11
150.0
 21
-7.00537699999995
  0
LINE
  5
58
100
AcDbEntity
  8
1
  6
CONTINUOUS
 62
             7
100
AcDbLine
 10
-71.99991750210904
 20
-137.00975483874399
 11
72.00001579264098
 21
-137.00975483874399
  0
LINE
  5
57
100
AcDbEntity
  8
LC-003-002-----0
  6
CONTINUOUS
 62
             7
100
AcDbLine
 10
72.5001283594909
 20
3.0
 11
72.5
 21
6.50185700000006
  0
LINE
  5
56
100
AcDbEntity
  8
LC-003-002-----0
  6
CONTINUOUS
 62
             7
100
AcDbLine
 10
-72.5
 20
3.0
 11
-72.50012328308503
 21
6.50179300000004
  0
LINE
  5
55
100
AcDbEntity
  8
1
  6
PHANTOM
 62
             2
100
AcDbLine
 10
0.0
 20
5.50192073022584
 11
-0.00000000000001
 21
-163.32504677816061
  0
LINE
  5
54
100
AcDbEntity
  8
1
  6
CONTINUOUS
 62
             7
100
AcDbLine
 10
147.03769549786401
 20
-121.49978800000009
 11
147.03769549786401
 21
-46.50021199999992
  0
LINE
  5
53
100
AcDbEntity
  8
LC-003-002-----0
  6
CONTINUOUS
 62
             7
100
AcDbLine
 10
147.03769549786401
 20
-46.50021199999992
 11
147.22588149786401
 21
-46.50021199999992
  0
POINT
  5
52
100
AcDbEntity
  8
0
 62
             7
100
AcDbPoint
 10
147.03769549786401
 20
-121.49978800000009
  0
POINT
  5
51
100
AcDbEntity
  8
0
 62
             7
100
AcDbPoint
 10
150.0
 20
-7.00537699999995
  0
POINT
  5
50
100
AcDbEntity
  8
0
 62
             7
100
AcDbPoint
 10
150.0
 20
-4.0
  0
POINT
  5
4F
100
AcDbEntity
  8
0
 62
             7
100
AcDbPoint
 10
-150.0
 20
-4.0
  0
POINT
  5
4E
100
AcDbEntity
  8
0
 62
             7
100
AcDbPoint
 10
-51.99994350213609
 20
-157.00978799999999
  0
POINT
  5
4D
100
AcDbEntity
  8
0
 62
             7
100
AcDbPoint
 10
-150.0
 20
-7.00537699999995
  0
ENDBLK
  5
90
100
AcDbEntity
  8
0
100
AcDbBlockEnd
  0
BLOCK
  5
93
100
AcDbEntity
  8
0
100
AcDbBlockBegin
  2
*D2
 70
             1
 10
0.0
 20
0.0
 30
0.0
  3
*D2
  1

  0
LINE
  5
94
100
AcDbEntity
  8
0
  6
CONTINUOUS
 62
             4
100
AcDbLine
 10
250.00000800000012
 20
56.5249051263701
 11
-250.00000800000001
 21
56.5249051263701
  0
LINE
  5
95
100
AcDbEntity
  8
0
  6
CONTINUOUS
 62
             4
100
AcDbLine
 10
-250.00000800000001
 20
0.0
 11
-250.00000800000001
 21
58.5249051263701
  0
LINE
  5
96
100
AcDbEntity
  8
0
  6
CONTINUOUS
 62
             4
100
AcDbLine
 10
250.00000800000012
 20
0.0
 11
250.00000800000012
 21
58.5249051263701
  0
SOLID
  5
97
100
AcDbEntity
  8
0
 62
             4
100
AcDbTrace
 10
238.00000800000012
 20
54.94507515532136
 11
238.00000800000012
 21
58.10473509741885
 12
250.00000800000012
 22
56.5249051263701
 13
250.00000800000012
 23
56.5249051263701
  0
SOLID
  5
98
100
AcDbEntity
  8
0
 62
             4
100
AcDbTrace
 10
-238.00000800000001
 20
58.10473509741885
 11
-238.00000800000001
 21
54.94507515532135
 12
-250.00000800000001
 22
56.5249051263701
 13
-250.00000800000001
 23
56.5249051263701
  0
MTEXT
  5
9A
100
AcDbEntity
  8
0
 62
             1
100
AcDbMText
 10
-43.1311705811505
 20
58.52488127353699
 30
0.0
 40
12.0
 41
0.0
 71
             7
 72
             1
  1
\C1;Ø\C1;500
  7
CONVERTER_1
 11
0.99999999999706
 21
0.00000242406841
 31
0.0
  0
ENDBLK
  5
9B
100
AcDbEntity
  8
0
100
AcDbBlockEnd
  0
BLOCK
  5
9F
100
AcDbEntity
  8
0
100
AcDbBlockBegin
  2
*D3
 70
             1
 10
0.0
 20
0.0
 30
0.0
  3
*D3
  1

  0
LINE
  5
A0
100
AcDbEntity
  8
0
  6
CONTINUOUS
 62
             4
100
AcDbLine
 10
150.0
 20
35.3573416134797
 11
-150.0
 21
35.3573416134797
  0
LINE
  5
A1
100
AcDbEntity
  8
0
  6
CONTINUOUS
 62
             4
100
AcDbLine
 10
-150.0
 20
-4.0
 11
-150.0
 21
37.3573416134797
  0
LINE
  5
A2
100
AcDbEntity
  8
0
  6
CONTINUOUS
 62
             4
100
AcDbLine
 10
150.0
 20
-4.0
 11
150.0
 21
37.3573416134797
  0
SOLID
  5
A3
100
AcDbEntity
  8
0
 62
             4
100
AcDbTrace
 10
138.0
 20
33.77751164243095
 11
138.0
 21
36.93717158452845
 12
150.0
 22
35.3573416134797
 13
150.0
 23
35.3573416134797
  0
SOLID
  5
A4
100
AcDbEntity
  8
0
 62
             4
100
AcDbTrace
 10
-138.0
 20
36.93717158452845
 11
-138.0
 21
33.77751164243095
 12
-150.0
 22
35.3573416134797
 13
-150.0
 23
35.3573416134797
  0
MTEXT
  5
A5
100
AcDbEntity
  8
0
 62
             1
100
AcDbMText
 10
8.88055690766581
 20
37.35731776064659
 30
0.0
 40
12.0
 41
0.0
 71
             7
 72
             1
  1
\C1;Ø\C1;300
  7
CONVERTER_1
 11
0.99999999999706
 21
0.00000242406841
 31
0.0
  0
ENDBLK
  5
A6
100
AcDbEntity
  8
0
100
AcDbBlockEnd
  0
BLOCK
  5
AA
100
AcDbEntity
  8
0
100
AcDbBlockBegin
  2
*D4
 70
             1
 10
0.0
 20
0.0
 30
0.0
  3
*D4
  1

  0
LINE
  5
AB
100
AcDbEntity
  8
0
  6
CONTINUOUS
 62
             4
100
AcDbLine
 10
176.65041373741201
 20
-84.0
 11
176.65041373741201
 21
-4.0
  0
LINE
  5
AC
100
AcDbEntity
  8
0
  6
CONTINUOUS
 62
             4
100
AcDbLine
 10
150.0
 20
-4.0
 11
178.65041373741201
 21
-4.0
  0
LINE
  5
AD
100
AcDbEntity
  8
0
  6
CONTINUOUS
 62
             4
100
AcDbLine
 10
153.64755137345503
 20
-84.0
 11
178.65041373741201
 21
-84.0
  0
SOLID
  5
AE
100
AcDbEntity
  8
0
 62
             4
100
AcDbTrace
 10
175.07058376636326
 20
-72.0
 11
178.23024370846076
 21
-72.0
 12
176.65041373741201
 22
-84.0
 13
176.65041373741201
 23
-84.0
  0
SOLID
  5
AF
100
AcDbEntity
  8
0
 62
             4
100
AcDbTrace
 10
178.23024370846076
 20
-16.0
 11
175.07058376636326
 21
-16.0
 12
176.65041373741201
 22
-4.0
 13
176.65041373741201
 23
-4.0
  0
MTEXT
  5
B0
100
AcDbEntity
  8
0
 62
             1
100
AcDbMText
 10
174.65041373741201
 20
-35.7980117435283
 30
0.0
 40
12.0
 41
0.0
 71
             7
 72
             1
  1
80
  7
CONVERTER_1
 11
0.0
 21
1.0
 31
0.0
  0
ENDBLK
  5
B1
100
AcDbEntity
  8
0
100
AcDbBlockEnd
  0
BLOCK
  5
B5
100
AcDbEntity
  8
0
100
AcDbBlockBegin
  2
*D5
 70
             1
 10
0.0
 20
0.0
 30
0.0
  3
*D5
  1

  0
LINE
  5
B6
100
AcDbEntity
  8
0
  6
CONTINUOUS
 62
             4
100
AcDbLine
 10
72.5
 20
16.6089282163483
 11
-72.50012328308503
 21
16.6089282163483
  0
LINE
  5
B7
100
AcDbEntity
  8
0
  6
CONTINUOUS
 62
             4
100
AcDbLine
 10
-72.50012328308503
 20
6.50179300000004
 11
-72.50012328308503
 21
18.6089282163483
  0
LINE
  5
B8
100
AcDbEntity
  8
0
  6
CONTINUOUS
 62
             4
100
AcDbLine
 10
72.5
 20
6.50185700000006
 11
72.5
 21
18.6089282163483
  0
SOLID
  5
B9
100
AcDbEntity
  8
0
 62
             4
100
AcDbTrace
 10
60.5
 20
15.02909824529955
 11
60.5
 21
18.18875818739705
 12
72.5
 22
16.6089282163483
 13
72.5
 23
16.6089282163483
  0
SOLID
  5
BA
100
AcDbEntity
  8
0
 62
             4
100
AcDbTrace
 10
-60.50012328308503
 20
18.18875818739705
 11
-60.50012328308503
 21
15.02909824529955
 12
-72.50012328308503
 22
16.6089282163483
 13
-72.50012328308503
 23
16.6089282163483
  0
MTEXT
  5
BB
100
AcDbEntity
  8
0
 62
             1
100
AcDbMText
 10
-43.75032069690939
 20
18.60890436351519
 30
0.0
 40
12.0
 41
0.0
 71
             7
 72
             1
  1
\C1;Ø\C1;145
  7
CONVERTER_1
 11
0.99999999999706
 21
0.00000242406841
 31
0.0
  0
ENDBLK
  5
BC
100
AcDbEntity
  8
0
100
AcDbBlockEnd
  0
BLOCK
  5
C0
100
AcDbEntity
  8
0
100
AcDbBlockBegin
  2
*D6
 70
             1
 10
0.0
 20
0.0
 30
0.0
  3
*D6
  1

  0
LINE
  5
C1
100
AcDbEntity
  8
0
  6
CONTINUOUS
 62
             4
100
AcDbLine
 10
199.02755230818201
 20
-46.50021199999991
 11
199.02755230818201
 21
-121.49978800000007
  0
LINE
  5
C2
100
AcDbEntity
  8
0
  6
CONTINUOUS
 62
             4
100
AcDbLine
 10
147.03769549786401
 20
-121.49978800000007
 11
201.02755230818201
 21
-121.49978800000007
  0
LINE
  5
C3
100
AcDbEntity
  8
0
  6
CONTINUOUS
 62
             4
100
AcDbLine
 10
147.22588149786401
 20
-46.50021199999991
 11
201.02755230818201
 21
-46.50021199999991
  0
SOLID
  5
C4
100
AcDbEntity
  8
0
 62
             4
100
AcDbTrace
 10
200.60738227923076
 20
-58.50021199999991
 11
197.44772233713326
 21
-58.50021199999991
 12
199.02755230818201
 22
-46.50021199999991
 13
199.02755230818201
 23
-46.50021199999991
  0
SOLID
  5
C5
100
AcDbEntity
  8
0
 62
             4
100
AcDbTrace
 10
197.44772233713326
 20
-109.49978800000007
 11
200.60738227923076
 21
-109.49978800000007
 12
199.02755230818201
 22
-121.49978800000007
 13
199.02755230818201
 23
-121.49978800000007
  0
MTEXT
  5
C6
100
AcDbEntity
  8
0
 62
             1
100
AcDbMText
 10
197.02755230818201
 20
-102.15197710856108
 30
0.0
 40
12.0
 41
0.0
 71
             7
 72
             1
  1
\C1;DN\C1;75
  7
CONVERTER_1
 11
0.0
 21
1.0
 31
0.0
  0
ENDBLK
  5
C7
100
AcDbEntity
  8
0
100
AcDbBlockEnd
  0
BLOCK
  5
CB
100
AcDbEntity
  8
0
100
AcDbBlockBegin
  2
*D7
 70
             1
 10
0.0
 20
0.0
 30
0.0
  3
*D7
  1

  0
LINE
  5
CC
100
AcDbEntity
  8
0
  6
CONTINUOUS
 62
             4
100
AcDbLine
 10
338.84698555968203
 20
-23.95442400000002
 11
338.84698555968203
 21
-133.9544240000001
  0
LINE
  5
CD
100
AcDbEntity
  8
0
  6
CONTINUOUS
 62
             4
100
AcDbLine
 10
310.42602949786402
 20
-133.9544240000001
 11
340.84698555968203
 21
-133.9544240000001
  0
LINE
  5
CE
100
AcDbEntity
  8
0
  6
CONTINUOUS
 62
             4
100
AcDbLine
 10
310.42602949786402
 20
-23.95442400000002
 11
340.84698555968203
 21
-23.95442400000002
  0
SOLID
  5
CF
100
AcDbEntity
  8
0
 62
             4
100
AcDbTrace
 10
340.42681553073078
 20
-35.95442400000002
 11
337.26715558863327
 21
-35.95442400000002
 12
338.84698555968203
 22
-23.95442400000002
 13
338.84698555968203
 23
-23.95442400000002
  0
SOLID
  5
D0
100
AcDbEntity
  8
0
 62
             4
100
AcDbTrace
 10
337.26715558863327
 20
-121.9544240000001
 11
340.42681553073078
 21
-121.9544240000001
 12
338.84698555968203
 22
-133.9544240000001
 13
338.84698555968203
 23
-133.9544240000001
  0
MTEXT
  5
D1
100
AcDbEntity
  8
0
 62
             1
100
AcDbMText
 10
336.84698555968203
 20
-93.41893064616096
 30
0.0
 40
12.0
 41
0.0
 71
             7
 72
             1
  1
\C1;DN\C1;110
  7
CONVERTER_1
 11
0.0
 21
1.0
 31
0.0
  0
ENDBLK
  5
D2
100
AcDbEntity
  8
0
100
AcDbBlockEnd
  0
BLOCK
  5
D6
100
AcDbEntity
  8
0
100
AcDbBlockBegin
  2
*D8
 70
             1
 10
0.0
 20
0.0
 30
0.0
  3
*D8
  1

  0
LINE
  5
D7
100
AcDbEntity
  8
0
  6
CONTINUOUS
 62
             4
100
AcDbLine
 10
-186.88956482768009
 20
-7.00537699999995
 11
-186.88956482768009
 21
-157.00978799998188
  0
LINE
  5
D8
100
AcDbEntity
  8
0
  6
CONTINUOUS
 62
             4
100
AcDbLine
 10
-51.99994403114098
 20
-157.00978799998188
 11
-188.88956482768009
 21
-157.00978799998188
  0
LINE
  5
D9
100
AcDbEntity
  8
0
  6
CONTINUOUS
 62
             4
100
AcDbLine
 10
-150.0
 20
-7.00537699999995
 11
-188.88956482768009
 21
-7.00537699999995
  0
SOLID
  5
DA
100
AcDbEntity
  8
0
 62
             4
100
AcDbTrace
 10
-185.30973485663134
 20
-19.00537699999995
 11
-188.46939479872884
 21
-19.00537699999995
 12
-186.88956482768009
 22
-7.00537699999995
 13
-186.88956482768009
 23
-7.00537699999995
  0
SOLID
  5
DB
100
AcDbEntity
  8
0
 62
             4
100
AcDbTrace
 10
-188.46939479872884
 20
-145.00978799998188
 11
-185.30973485663134
 21
-145.00978799998188
 12
-186.88956482768009
 22
-157.00978799998188
 13
-186.88956482768009
 23
-157.00978799998188
  0
MTEXT
  5
DC
100
AcDbEntity
  8
0
 62
             1
100
AcDbMText
 10
-188.88956482768009
 20
-95.70700849467376
 30
0.0
 40
12.0
 41
0.0
 71
             7
 72
             1
  1
150
  7
CONVERTER_1
 11
0.0
 21
1.0
 31
0.0
  0
ENDBLK
  5
DD
100
AcDbEntity
  8
0
100
AcDbBlockEnd
  0
ENDSEC
  0
SECTION
  2
ENTITIES
  0
DIMENSION
  5
DF
100
AcDbEntity
  8
1
100
AcDbDimension
  2
*D8
 10
-186.88956482768009
 20
-7.00537699999995
 11
-194.88956482768009
 21
-83.10700849467376
 31
0.0
 53
90.0
  1
150
  3
ME10_DIM_6
100
AcDbAlignedDimension
 13
-51.99994403114102
 23
-157.00978799998191
 14
-150.0
 24
-7.00537699999995
 50
90.0
100
AcDbRotatedDimension
  0
DIMENSION
  5
D4
100
AcDbEntity
  8
1
100
AcDbDimension
  2
*D7
 10
338.84698555968203
 20
-23.95442400000002
 11
330.84698555968203
 21
-76.13893064616096
 31
0.0
 53
90.0
  1
<>
  3
ME10_DIM_5
100
AcDbAlignedDimension
 13
310.42602949786402
 23
-133.9544240000001
 14
310.42602949786402
 24
-23.95442400000002
 50
90.0
100
AcDbRotatedDimension
  0
DIMENSION
  5
C9
100
AcDbEntity
  8
1
100
AcDbDimension
  2
*D6
 10
199.02755230818201
 20
-46.50021199999991
 11
191.02755230818201
 21
-86.67197710856109
 31
0.0
 53
90.0
  1
<>
  3
ME10_DIM_4
100
AcDbAlignedDimension
 13
147.03769549786401
 23
-121.49978800000009
 14
147.22588149786401
 24
-46.50021199999992
 50
90.0
100
AcDbRotatedDimension
  0
DIMENSION
  5
BE
100
AcDbEntity
  8
1
100
AcDbDimension
  2
*D5
 10
72.5
 20
16.6089282163483
 11
-28.5103206969383
 21
24.6089282163483
 31
0.0
 53
180.0
  1
<>
  3
ME10_DIM_3
100
AcDbAlignedDimension
 13
-72.50012328308503
 23
6.50179300000004
 14
72.5
 24
6.50185700000006
 50
180.0
100
AcDbRotatedDimension
  0
DIMENSION
  5
B3
100
AcDbEntity
  8
1
100
AcDbDimension
  2
*D4
 10
176.65041373741201
 20
-84.0
 11
168.65041373741201
 21
-26.7980117435283
 31
0.0
 53
90.0
  1
<>
  3
ME10_DIM_2
100
AcDbAlignedDimension
 13
150.0
 23
-4.0
 14
153.647551373455
 24
-84.0
 50
90.0
100
AcDbRotatedDimension
  0
DIMENSION
  5
A8
100
AcDbEntity
  8
1
100
AcDbDimension
  2
*D3
 10
150.0
 20
35.3573416134797
 11
25.9205569076369
 21
43.3573416134797
 31
0.0
 53
180.0
  1
<>
  3
ME10_DIM_1
100
AcDbAlignedDimension
 13
-150.0
 23
-4.0
 14
150.0
 24
-4.0
 50
180.0
100
AcDbRotatedDimension
  0
DIMENSION
  5
9D
100
AcDbEntity
  8
1
100
AcDbDimension
  2
*D2
 10
250.00000800000012
 20
56.5249051263701
 11
-26.09117058117941
 21
64.5249051263701
 31
0.0
 53
180.0
  1
<>
  3
ME10_DIM_0
100
AcDbAlignedDimension
 13
-250.00000800000001
 23
0.0
 14
250.00000800000009
 24
0.0
 50
180.0
100
AcDbRotatedDimension
  0
INSERT
  5
2F
100
AcDbEntity
  8
1
100
AcDbBlockReference
  2
0317_4E_REDUKTION_DN11DN75
 10
637.53926293018139
 20
-628.95665176431601
  0
INSERT
  5
30
100
AcDbEntity
  8
1
100
AcDbBlockReference
  2
HL72_1KH_K_RPER
 10
606.27718264280531
 20
-211.58064476431611
  0
ENDSEC
  0
SECTION
  2
OBJECTS
  0
DICTIONARY
  5
19
100
AcDbDictionary
  3
ACAD_GROUP
350
1A
  3
ACAD_MLINESTYLE
350
1B
  0
DICTIONARY
  5
1A
102
{ACAD_REACTORS
330
19
102
}
100
AcDbDictionary
  0
DICTIONARY
  5
1B
102
{ACAD_REACTORS
330
19
102
}
100
AcDbDictionary
  3
STANDARD
350
1C
  0
MLINESTYLE
  5
1C
102
{ACAD_REACTORS
330
1B
102
}
100
AcDbMlineStyle
  2
STANDARD
 70
             0
  3

 62
             0
 51
90.0
 52
90.0
 71
             2
 49
0.5
 62
           256
  6
BYLAYER
 49
-0.5
 62
           256
  6
BYLAYER
  0
ENDSEC
  0
EOF
