  0
SECTION
  2
HEADER
  9
$ACADVER
  1
AC1015
  9
$ACADMAINTVER
 70
     6
  9
$DWGCODEPAGE
  3
ANSI_1252
  9
$INSBASE
 10
0.0
 20
0.0
 30
0.0
  9
$EXTMIN
 10
-195.278116382733
 20
-247.2218078698082
 30
0.0
  9
$EXTMAX
 10
320.4862908870005
 20
27.00005788642575
 30
0.0
  9
$LIMMIN
 10
0.0
 20
0.0
  9
$LIMMAX
 10
12.0
 20
9.0
  9
$ORTHOMODE
 70
     0
  9
$REGENMODE
 70
     1
  9
$FILLMODE
 70
     1
  9
$QTEXTMODE
 70
     0
  9
$MIRRTEXT
 70
     1
  9
$LTSCALE
 40
1.0
  9
$ATTMODE
 70
     1
  9
$TEXTSIZE
 40
0.2
  9
$TRACEWID
 40
0.05
  9
$TEXTSTYLE
  7
Standard
  9
$CLAYER
  8
0
  9
$CELTYPE
  6
ByLayer
  9
$CECOLOR
 62
   256
  9
$CELTSCALE
 40
1.0
  9
$DISPSILH
 70
     0
  9
$DIMSCALE
 40
1.0
  9
$DIMASZ
 40
0.18
  9
$DIMEXO
 40
0.0625
  9
$DIMDLI
 40
0.38
  9
$DIMRND
 40
0.0
  9
$DIMDLE
 40
0.0
  9
$DIMEXE
 40
0.18
  9
$DIMTP
 40
0.0
  9
$DIMTM
 40
0.0
  9
$DIMTXT
 40
0.18
  9
$DIMCEN
 40
0.09
  9
$DIMTSZ
 40
0.0
  9
$DIMTOL
 70
     0
  9
$DIMLIM
 70
     0
  9
$DIMTIH
 70
     1
  9
$DIMTOH
 70
     1
  9
$DIMSE1
 70
     0
  9
$DIMSE2
 70
     0
  9
$DIMTAD
 70
     0
  9
$DIMZIN
 70
     0
  9
$DIMBLK
  1

  9
$DIMASO
 70
     1
  9
$DIMSHO
 70
     1
  9
$DIMPOST
  1

  9
$DIMAPOST
  1

  9
$DIMALT
 70
     0
  9
$DIMALTD
 70
     2
  9
$DIMALTF
 40
25.4
  9
$DIMLFAC
 40
1.0
  9
$DIMTOFL
 70
     0
  9
$DIMTVP
 40
0.0
  9
$DIMTIX
 70
     0
  9
$DIMSOXD
 70
     0
  9
$DIMSAH
 70
     0
  9
$DIMBLK1
  1

  9
$DIMBLK2
  1

  9
$DIMSTYLE
  2
Standard
  9
$DIMCLRD
 70
     0
  9
$DIMCLRE
 70
     0
  9
$DIMCLRT
 70
     0
  9
$DIMTFAC
 40
1.0
  9
$DIMGAP
 40
0.09
  9
$DIMJUST
 70
     0
  9
$DIMSD1
 70
     0
  9
$DIMSD2
 70
     0
  9
$DIMTOLJ
 70
     1
  9
$DIMTZIN
 70
     0
  9
$DIMALTZ
 70
     0
  9
$DIMALTTZ
 70
     0
  9
$DIMUPT
 70
     0
  9
$DIMDEC
 70
     4
  9
$DIMTDEC
 70
     4
  9
$DIMALTU
 70
     2
  9
$DIMALTTD
 70
     2
  9
$DIMTXSTY
  7
Standard
  9
$DIMAUNIT
 70
     0
  9
$DIMADEC
 70
     0
  9
$DIMALTRND
 40
0.0
  9
$DIMAZIN
 70
     0
  9
$DIMDSEP
 70
    46
  9
$DIMATFIT
 70
     3
  9
$DIMFRAC
 70
     0
  9
$DIMLDRBLK
  1

  9
$DIMLUNIT
 70
     2
  9
$DIMLWD
 70
    -2
  9
$DIMLWE
 70
    -2
  9
$DIMTMOVE
 70
     0
  9
$LUNITS
 70
     2
  9
$LUPREC
 70
     4
  9
$SKETCHINC
 40
0.1
  9
$FILLETRAD
 40
0.5
  9
$AUNITS
 70
     0
  9
$AUPREC
 70
     0
  9
$MENU
  1
.
  9
$ELEVATION
 40
0.0
  9
$PELEVATION
 40
0.0
  9
$THICKNESS
 40
0.0
  9
$LIMCHECK
 70
     0
  9
$CHAMFERA
 40
0.5
  9
$CHAMFERB
 40
0.5
  9
$CHAMFERC
 40
1.0
  9
$CHAMFERD
 40
0.0
  9
$SKPOLY
 70
     0
  9
$TDCREATE
 40
2454391.527409421
  9
$TDUCREATE
 40
2454391.444076088
  9
$TDUPDATE
 40
2454391.527409433
  9
$TDUUPDATE
 40
2454391.444076099
  9
$TDINDWG
 40
0.0000000116
  9
$TDUSRTIMER
 40
0.0000000116
  9
$USRTIMER
 70
     1
  9
$ANGBASE
 50
0.0
  9
$ANGDIR
 70
     0
  9
$PDMODE
 70
     0
  9
$PDSIZE
 40
0.0
  9
$PLINEWID
 40
0.0
  9
$SPLFRAME
 70
     0
  9
$SPLINETYPE
 70
     6
  9
$SPLINESEGS
 70
     8
  9
$HANDSEED
  5
C8
  9
$SURFTAB1
 70
     6
  9
$SURFTAB2
 70
     6
  9
$SURFTYPE
 70
     6
  9
$SURFU
 70
     6
  9
$SURFV
 70
     6
  9
$UCSBASE
  2

  9
$UCSNAME
  2

  9
$UCSORG
 10
0.0
 20
0.0
 30
0.0
  9
$UCSXDIR
 10
1.0
 20
0.0
 30
0.0
  9
$UCSYDIR
 10
0.0
 20
1.0
 30
0.0
  9
$UCSORTHOREF
  2

  9
$UCSORTHOVIEW
 70
     0
  9
$UCSORGTOP
 10
0.0
 20
0.0
 30
0.0
  9
$UCSORGBOTTOM
 10
0.0
 20
0.0
 30
0.0
  9
$UCSORGLEFT
 10
0.0
 20
0.0
 30
0.0
  9
$UCSORGRIGHT
 10
0.0
 20
0.0
 30
0.0
  9
$UCSORGFRONT
 10
0.0
 20
0.0
 30
0.0
  9
$UCSORGBACK
 10
0.0
 20
0.0
 30
0.0
  9
$PUCSBASE
  2

  9
$PUCSNAME
  2

  9
$PUCSORG
 10
0.0
 20
0.0
 30
0.0
  9
$PUCSXDIR
 10
1.0
 20
0.0
 30
0.0
  9
$PUCSYDIR
 10
0.0
 20
1.0
 30
0.0
  9
$PUCSORTHOREF
  2

  9
$PUCSORTHOVIEW
 70
     0
  9
$PUCSORGTOP
 10
0.0
 20
0.0
 30
0.0
  9
$PUCSORGBOTTOM
 10
0.0
 20
0.0
 30
0.0
  9
$PUCSORGLEFT
 10
0.0
 20
0.0
 30
0.0
  9
$PUCSORGRIGHT
 10
0.0
 20
0.0
 30
0.0
  9
$PUCSORGFRONT
 10
0.0
 20
0.0
 30
0.0
  9
$PUCSORGBACK
 10
0.0
 20
0.0
 30
0.0
  9
$USERI1
 70
     0
  9
$USERI2
 70
     0
  9
$USERI3
 70
     0
  9
$USERI4
 70
     0
  9
$USERI5
 70
     0
  9
$USERR1
 40
14.0
  9
$USERR2
 40
0.0
  9
$USERR3
 40
0.0
  9
$USERR4
 40
0.0
  9
$USERR5
 40
0.0
  9
$WORLDVIEW
 70
     1
  9
$SHADEDGE
 70
     3
  9
$SHADEDIF
 70
    70
  9
$TILEMODE
 70
     1
  9
$MAXACTVP
 70
    64
  9
$PINSBASE
 10
0.0
 20
0.0
 30
0.0
  9
$PLIMCHECK
 70
     0
  9
$PEXTMIN
 10
1.00000000000000E+20
 20
1.00000000000000E+20
 30
1.00000000000000E+20
  9
$PEXTMAX
 10
-1.00000000000000E+20
 20
-1.00000000000000E+20
 30
-1.00000000000000E+20
  9
$PLIMMIN
 10
0.0
 20
0.0
  9
$PLIMMAX
 10
12.0
 20
9.0
  9
$UNITMODE
 70
     0
  9
$VISRETAIN
 70
     1
  9
$PLINEGEN
 70
     0
  9
$PSLTSCALE
 70
     1
  9
$TREEDEPTH
 70
  3020
  9
$CMLSTYLE
  2
Standard
  9
$CMLJUST
 70
     0
  9
$CMLSCALE
 40
1.0
  9
$PROXYGRAPHICS
 70
     1
  9
$MEASUREMENT
 70
     1
  9
$CELWEIGHT
370
    -1
  9
$ENDCAPS
280
     0
  9
$JOINSTYLE
280
     0
  9
$LWDISPLAY
290
     0
  9
$INSUNITS
 70
     1
  9
$HYPERLINKBASE
  1

  9
$STYLESHEET
  1

  9
$XEDIT
290
     1
  9
$CEPSNTYPE
380
     0
  9
$PSTYLEMODE
290
     1
  9
$FINGERPRINTGUID
  2
{F48C85E7-8E51-4284-A392-52C616B4D318}
  9
$VERSIONGUID
  2
{FAEB1C32-E019-11D5-929B-00C0DF256EC4}
  9
$EXTNAMES
290
     1
  9
$PSVPSCALE
 40
0.0
  9
$OLESTARTUP
290
     0
  0
ENDSEC
  0
SECTION
  2
CLASSES
  0
CLASS
  1
ACDBDICTIONARYWDFLT
  2
AcDbDictionaryWithDefault
  3
ObjectDBX Classes
 90
        0
280
     0
281
     0
  0
CLASS
  1
ACDBPLACEHOLDER
  2
AcDbPlaceHolder
  3
ObjectDBX Classes
 90
        0
280
     0
281
     0
  0
CLASS
  1
LAYOUT
  2
AcDbLayout
  3
ObjectDBX Classes
 90
        0
280
     0
281
     0
  0
ENDSEC
  0
SECTION
  2
TABLES
  0
TABLE
  2
VPORT
  5
8
330
0
100
AcDbSymbolTable
 70
     1
  0
VPORT
  5
29
330
8
100
AcDbSymbolTableRecord
100
AcDbViewportTableRecord
  2
*Active
 70
     0
 10
0.0
 20
0.0
 11
1.0
 21
1.0
 12
62.60408725213375
 22
-110.1108749916912
 13
0.0
 23
0.0
 14
0.5
 24
0.5
 15
0.5
 25
0.5
 16
0.0
 26
0.0
 36
1.0
 17
0.0
 27
0.0
 37
0.0
 40
353.9954037639621
 41
1.60267857142857
 42
50.0
 43
0.0
 44
0.0
 50
0.0
 51
0.0
 71
     0
 72
   100
 73
     1
 74
     3
 75
     0
 76
     0
 77
     0
 78
     0
281
     0
 65
     1
110
0.0
120
0.0
130
0.0
111
1.0
121
0.0
131
0.0
112
0.0
122
1.0
132
0.0
 79
     0
146
0.0
  0
ENDTAB
  0
TABLE
  2
LTYPE
  5
5
330
0
100
AcDbSymbolTable
 70
     9
  0
LTYPE
  5
14
330
5
100
AcDbSymbolTableRecord
100
AcDbLinetypeTableRecord
  2
ByBlock
 70
     0
  3

 72
    65
 73
     0
 40
0.0
  0
LTYPE
  5
15
330
5
100
AcDbSymbolTableRecord
100
AcDbLinetypeTableRecord
  2
ByLayer
 70
     0
  3

 72
    65
 73
     0
 40
0.0
  0
LTYPE
  5
16
330
5
100
AcDbSymbolTableRecord
100
AcDbLinetypeTableRecord
  2
Continuous
 70
     0
  3
Solid line
 72
    65
 73
     0
 40
0.0
  0
LTYPE
  5
2A
330
5
100
AcDbSymbolTableRecord
100
AcDbLinetypeTableRecord
  2
DASHED
 70
     0
  3
Dashed
 72
    65
 73
     2
 40
15.0
 49
7.0
 74
     0
 49
-8.0
 74
     0
  0
LTYPE
  5
2B
330
5
100
AcDbSymbolTableRecord
100
AcDbLinetypeTableRecord
  2
DOTTED
 70
     0
  3
Dotted
 72
    65
 73
     2
 40
1.0
 49
0.0
 74
     0
 49
-1.0
 74
     0
  0
LTYPE
  5
2C
330
5
100
AcDbSymbolTableRecord
100
AcDbLinetypeTableRecord
  2
DOT_CENTER
 70
     0
  3
Dot_Center
 72
    65
 73
     4
 40
14.0
 49
12.0
 74
     0
 49
-1.0
 74
     0
 49
0.0
 74
     0
 49
-1.0
 74
     0
  0
LTYPE
  5
2D
330
5
100
AcDbSymbolTableRecord
100
AcDbLinetypeTableRecord
  2
LONG_DASHED
 70
     0
  3
Long_Dashed
 72
    65
 73
     2
 40
15.0
 49
10.0
 74
     0
 49
-5.0
 74
     0
  0
LTYPE
  5
2E
330
5
100
AcDbSymbolTableRecord
100
AcDbLinetypeTableRecord
  2
DASH_CENTER
 70
     0
  3
Dash_Center
 72
    65
 73
     4
 40
14.0
 49
11.0
 74
     0
 49
-1.0
 74
     0
 49
1.0
 74
     0
 49
-1.0
 74
     0
  0
LTYPE
  5
2F
330
5
100
AcDbSymbolTableRecord
100
AcDbLinetypeTableRecord
  2
PHANTOM
 70
     0
  3
Phantom
 72
    65
 73
     6
 40
13.0
 49
10.0
 74
     0
 49
-1.0
 74
     0
 49
0.0
 74
     0
 49
-1.0
 74
     0
 49
0.0
 74
     0
 49
-1.0
 74
     0
  0
LTYPE
  5
30
330
5
100
AcDbSymbolTableRecord
100
AcDbLinetypeTableRecord
  2
CENTER_DASH_DASH
 70
     0
  3
Center_Dash_Dash
 72
    65
 73
     6
 40
14.0
 49
9.0
 74
     0
 49
-1.0
 74
     0
 49
1.0
 74
     0
 49
-1.0
 74
     0
 49
1.0
 74
     0
 49
-1.0
 74
     0
  0
LTYPE
  5
31
330
5
100
AcDbSymbolTableRecord
100
AcDbLinetypeTableRecord
  2
DASHDOT_13
 70
     0
  3
DASHDOT_13
 72
    65
 73
     4
 40
16.0
 49
10.0
 74
     0
 49
-3.0
 74
     0
 49
0.0
 74
     0
 49
-3.0
 74
     0
  0
ENDTAB
  0
TABLE
  2
LAYER
  5
2
330
0
100
AcDbSymbolTable
 70
     4
  0
LAYER
  5
10
330
2
100
AcDbSymbolTableRecord
100
AcDbLayerTableRecord
  2
0
 70
     0
 62
     7
  6
Continuous
370
    -3
390
F
  0
LAYER
  5
32
330
2
100
AcDbSymbolTableRecord
100
AcDbLayerTableRecord
  2
1
 70
     0
 62
     7
  6
Continuous
370
    -3
390
F
  0
LAYER
  5
33
330
2
100
AcDbSymbolTableRecord
100
AcDbLayerTableRecord
  2
LC-001-002-----0
 70
     0
 62
     7
  6
Continuous
370
    -3
390
F
  0
LAYER
  5
34
330
2
100
AcDbSymbolTableRecord
100
AcDbLayerTableRecord
  2
LC-009-021-----0
 70
     0
 62
     7
  6
Continuous
370
    -3
390
F
  0
ENDTAB
  0
TABLE
  2
STYLE
  5
3
330
0
100
AcDbSymbolTable
 70
     2
  0
STYLE
  5
11
330
3
100
AcDbSymbolTableRecord
100
AcDbTextStyleTableRecord
  2
Standard
 70
     0
 40
0.0
 41
1.0
 50
0.0
 71
     0
 42
0.2
  3
txt
  4

  0
STYLE
  5
8B
330
3
100
AcDbSymbolTableRecord
100
AcDbTextStyleTableRecord
  2
CONVERTER_1
 70
     0
 40
0.0
 41
0.9
 50
0.0
 71
     0
 42
0.2
  3
txt.shx
  4

  0
ENDTAB
  0
TABLE
  2
VIEW
  5
6
330
0
100
AcDbSymbolTable
 70
     0
  0
ENDTAB
  0
TABLE
  2
UCS
  5
7
330
0
100
AcDbSymbolTable
 70
     0
  0
ENDTAB
  0
TABLE
  2
APPID
  5
9
330
0
100
AcDbSymbolTable
 70
     1
  0
APPID
  5
12
330
9
100
AcDbSymbolTableRecord
100
AcDbRegAppTableRecord
  2
ACAD
 70
     0
  0
ENDTAB
  0
TABLE
  2
DIMSTYLE
  5
A
330
0
100
AcDbSymbolTable
 70
     7
100
AcDbDimStyleTable
  0
DIMSTYLE
105
27
330
A
100
AcDbSymbolTableRecord
100
AcDbDimStyleTableRecord
  2
Standard
 70
     0
340
11
  0
DIMSTYLE
105
8F
102
{ACAD_REACTORS
330
90
102
}
330
A
100
AcDbSymbolTableRecord
100
AcDbDimStyleTableRecord
  2
ME10_DIM_0
 70
     0
 41
12.0
 42
0.0
 44
2.0
 73
     0
 74
     0
 77
     1
 78
     8
140
12.0
147
2.0
172
     1
173
     1
176
     4
177
     4
178
     1
271
     2
340
8B
  0
DIMSTYLE
105
9A
102
{ACAD_REACTORS
330
9B
102
}
330
A
100
AcDbSymbolTableRecord
100
AcDbDimStyleTableRecord
  2
ME10_DIM_1
 70
     0
  3
DN<>
 41
12.0
 42
0.0
 44
2.0
 73
     0
 74
     0
 77
     1
 78
     8
140
12.0
147
2.0
172
     1
173
     1
176
     4
177
     4
178
     1
271
     2
340
8B
  0
DIMSTYLE
105
A5
102
{ACAD_REACTORS
330
A6
102
}
330
A
100
AcDbSymbolTableRecord
100
AcDbDimStyleTableRecord
  2
ME10_DIM_2
 70
     0
 41
12.0
 42
0.0
 44
2.0
 73
     0
 74
     0
 77
     1
 78
     8
140
12.0
147
2.0
172
     1
173
     1
176
     4
177
     4
178
     1
271
     2
340
8B
  0
DIMSTYLE
105
B0
102
{ACAD_REACTORS
330
B1
102
}
330
A
100
AcDbSymbolTableRecord
100
AcDbDimStyleTableRecord
  2
ME10_DIM_3
 70
     0
 41
12.0
 42
0.0
 44
2.0
 73
     0
 74
     0
 77
     1
 78
     8
140
12.0
147
2.0
172
     1
173
     1
176
     4
177
     4
178
     1
271
     2
340
8B
  0
DIMSTYLE
105
BB
102
{ACAD_REACTORS
330
BC
102
}
330
A
100
AcDbSymbolTableRecord
100
AcDbDimStyleTableRecord
  2
ME10_DIM_4
 70
     0
 41
12.0
 42
0.0
 44
2.0
 73
     0
 74
     0
 77
     1
 78
     8
140
12.0
147
2.0
172
     1
173
     1
176
     4
177
     4
178
     1
271
     2
340
8B
  0
DIMSTYLE
105
C6
102
{ACAD_REACTORS
330
C7
102
}
330
A
100
AcDbSymbolTableRecord
100
AcDbDimStyleTableRecord
  2
ME10_DIM_5
 70
     0
  3
x185
 41
12.0
 42
0.0
 44
2.0
 73
     0
 74
     0
 77
     1
 78
     8
140
12.0
147
2.0
172
     1
173
     1
176
     4
177
     4
178
     1
271
     2
340
8B
  0
ENDTAB
  0
TABLE
  2
BLOCK_RECORD
  5
1
330
0
100
AcDbSymbolTable
 70
     8
  0
BLOCK_RECORD
  5
1F
330
1
100
AcDbSymbolTableRecord
100
AcDbBlockTableRecord
  2
*Model_Space
340
22
  0
BLOCK_RECORD
  5
1B
330
1
100
AcDbSymbolTableRecord
100
AcDbBlockTableRecord
  2
*Paper_Space
340
1E
  0
BLOCK_RECORD
  5
23
330
1
100
AcDbSymbolTableRecord
100
AcDbBlockTableRecord
  2
*Paper_Space0
340
26
  0
BLOCK_RECORD
  5
35
330
1
100
AcDbSymbolTableRecord
100
AcDbBlockTableRecord
  2
HL77_Kellerablauf__1
340
0
102
{BLKREFS
331
38
102
}
  0
BLOCK_RECORD
  5
85
330
1
100
AcDbSymbolTableRecord
100
AcDbBlockTableRecord
  2
*D02
340
0
  0
BLOCK_RECORD
  5
91
330
1
100
AcDbSymbolTableRecord
100
AcDbBlockTableRecord
  2
*D13
340
0
  0
BLOCK_RECORD
  5
9C
330
1
100
AcDbSymbolTableRecord
100
AcDbBlockTableRecord
  2
*D24
340
0
  0
BLOCK_RECORD
  5
A7
330
1
100
AcDbSymbolTableRecord
100
AcDbBlockTableRecord
  2
*D35
340
0
  0
BLOCK_RECORD
  5
B2
330
1
100
AcDbSymbolTableRecord
100
AcDbBlockTableRecord
  2
*D46
340
0
  0
BLOCK_RECORD
  5
BD
330
1
100
AcDbSymbolTableRecord
100
AcDbBlockTableRecord
  2
*D57
340
0
  0
ENDTAB
  0
ENDSEC
  0
SECTION
  2
BLOCKS
  0
BLOCK
  5
20
330
1F
100
AcDbEntity
  8
0
100
AcDbBlockBegin
  2
*Model_Space
 70
     0
 71
     0
 10
0.0
 20
0.0
 30
0.0
  3
*Model_Space
  1

  0
ENDBLK
  5
21
330
1F
100
AcDbEntity
  8
0
100
AcDbBlockEnd
  0
BLOCK
  5
1C
330
1B
100
AcDbEntity
 67
     1
  8
0
100
AcDbBlockBegin
  2
*Paper_Space
 70
     0
 71
     0
 10
0.0
 20
0.0
 30
0.0
  3
*Paper_Space
  1

  0
ENDBLK
  5
1D
330
1B
100
AcDbEntity
 67
     1
  8
0
100
AcDbBlockEnd
  0
BLOCK
  5
24
330
23
100
AcDbEntity
  8
0
100
AcDbBlockBegin
  2
*Paper_Space0
 70
     0
 71
     0
 10
0.0
 20
0.0
 30
0.0
  3
*Paper_Space0
  1

  0
ENDBLK
  5
25
330
23
100
AcDbEntity
  8
0
100
AcDbBlockEnd
  0
BLOCK
  5
36
330
35
100
AcDbEntity
  8
0
100
AcDbBlockBegin
  2
HL77_Kellerablauf__1
 70
     0
 71
     0
 10
50.4681485
 20
-109.5000289999282
 30
0.0
  3
HL77_Kellerablauf__1
  1

  0
POINT
  5
39
330
35
100
AcDbEntity
  8
0
 62
     7
100
AcDbPoint
 10
-126.75
 20
-0.00005799992829
 30
0.0
  0
POINT
  5
3A
330
35
100
AcDbEntity
  8
0
 62
     7
100
AcDbPoint
 10
200.557548
 20
-109.9983629999282
 30
0.0
  0
POINT
  5
3B
330
35
100
AcDbEntity
  8
0
 62
     7
100
AcDbPoint
 10
134.500316
 20
0.00005400007171
 30
0.0
  0
POINT
  5
3C
330
35
100
AcDbEntity
  8
0
 62
     7
100
AcDbPoint
 10
-113.5
 20
-221.0000579999282
 30
0.0
  0
POINT
  5
3D
330
35
100
AcDbEntity
  8
0
 62
     7
100
AcDbPoint
 10
-134.5
 20
-0.00005799992829
 30
0.0
  0
POINT
  5
3E
330
35
100
AcDbEntity
  8
0
 62
     7
100
AcDbPoint
 10
243.436297
 20
-57.1648599999283
 30
0.0
  0
POINT
  5
3F
330
35
100
AcDbEntity
  8
0
 62
     7
100
AcDbPoint
 10
134.500316
 20
0.00005400007171
 30
0.0
  0
LINE
  5
40
330
35
100
AcDbEntity
  8
LC-001-002-----0
  6
DASHDOT_13
 62
     2
100
AcDbLine
 10
162.243491
 20
-107.9904089999283
 30
0.0
 11
221.604326
 21
-111.1013779999283
 31
0.0
  0
LINE
  5
41
330
35
100
AcDbEntity
  8
LC-001-002-----0
  6
DASHDOT_13
 62
     2
100
AcDbLine
 10
221.604326
 20
-111.1013779999283
 30
0.0
 11
240.557548
 21
-112.0946749999283
 31
0.0
  0
LINE
  5
42
330
35
100
AcDbEntity
  8
1
  6
Continuous
 62
     7
100
AcDbLine
 10
174.945874
 20
-53.57542899992825
 30
0.0
 11
169.536569
 21
-163.442897598155
 31
0.0
  0
LINE
  5
43
330
35
100
AcDbEntity
  8
LC-001-002-----0
  6
Continuous
 62
     7
100
AcDbLine
 10
169.536569
 20
-163.442897598155
 30
0.0
 11
164.2904639950384
 21
-163.1679608853707
 31
0.0
  0
LINE
  5
44
330
35
100
AcDbEntity
  8
1
  6
Continuous
 62
     7
100
AcDbLine
 10
169.536569
 20
-63.0663149999283
 30
0.0
 11
169.536569
 21
-163.442897598155
 31
0.0
  0
LINE
  5
45
330
35
100
AcDbEntity
  8
LC-001-002-----0
  6
Continuous
 62
     7
100
AcDbLine
 10
164.2904639950384
 20
-163.1679608853707
 30
0.0
 11
116.37964
 21
-160.6570609999283
 31
0.0
  0
LINE
  5
46
330
35
100
AcDbEntity
  8
1
  6
Continuous
 62
     7
100
AcDbLine
 10
139.441637787685
 20
-29.53819284310725
 30
0.0
 11
134.548838388761
 21
-29.53819284310725
 31
0.0
  0
LINE
  5
47
330
35
100
AcDbEntity
  8
1
  6
Continuous
 62
     7
100
AcDbLine
 10
-139.449492395936
 20
-29.50004500201328
 30
0.0
 11
-134.550509
 21
-29.50004500201328
 31
0.0
  0
LINE
  5
48
330
35
100
AcDbEntity
  8
LC-001-002-----0
  6
Continuous
 62
     7
100
AcDbLine
 10
-131.5099290666682
 20
-31.50005799992726
 30
0.0
 11
-123.287234
 21
-37.00005799992829
 31
0.0
  0
LINE
  5
49
330
35
100
AcDbEntity
  8
1
  6
Continuous
 62
     7
100
AcDbLine
 10
-136.999997469273
 20
-31.50005799992726
 30
0.0
 11
-131.5099290666682
 21
-31.50005799992726
 31
0.0
  0
LINE
  5
4A
330
35
100
AcDbEntity
  8
LC-001-002-----0
  6
Continuous
 62
     7
100
AcDbLine
 10
-142.5
 20
-21.50005799992829
 30
0.0
 11
-142.5
 21
-29.50005799992829
 31
0.0
  0
LINE
  5
4B
330
35
100
AcDbEntity
  8
LC-001-002-----0
  6
Continuous
 62
     7
100
AcDbLine
 10
131.5102162721417
 20
-31.4998289998843
 30
0.0
 11
122.707973
 21
-37.38746899992827
 31
0.0
  0
LINE
  5
4C
330
35
100
AcDbEntity
  8
1
  6
Continuous
 62
     7
100
AcDbLine
 10
137.000278077435
 20
-31.4998289998843
 30
0.0
 11
131.5102162721417
 21
-31.4998289998843
 31
0.0
  0
LINE
  5
4D
330
35
100
AcDbEntity
  8
1
  6
Continuous
 62
     7
100
AcDbLine
 10
-123.287234
 20
-37.00005799992829
 30
0.0
 11
122.707973
 21
-37.00005799992829
 31
0.0
  0
LINE
  5
4E
330
35
100
AcDbEntity
  8
1
  6
Continuous
 62
     7
100
AcDbLine
 10
134.500293
 20
-29.4998279999283
 30
0.0
 11
-134.550508729779
 21
-29.4998279999283
 31
0.0
  0
LINE
  5
4F
330
35
100
AcDbEntity
  8
1
  6
Continuous
 62
     7
100
AcDbLine
 10
-134.5
 20
-21.50005799992829
 30
0.0
 11
134.5003013171504
 21
-21.50005799992829
 31
0.0
  0
LINE
  5
50
330
35
100
AcDbEntity
  8
1
  6
DOT_CENTER
 62
     2
100
AcDbLine
 10
189.229412747549
 20
-109.9983629999282
 30
0.0
 11
216.229412747549
 21
-109.9983629999282
 31
0.0
  0
LINE
  5
51
330
35
100
AcDbEntity
  8
LC-001-002-----0
  6
DASHDOT_13
 62
     2
100
AcDbLine
 10
0.00000000000001
 20
-221.0000579999282
 30
0.0
 11
0.00000000000001
 21
2.00000000007174
 31
0.0
  0
LINE
  5
52
330
35
100
AcDbEntity
  8
LC-001-002-----0
  6
Continuous
 62
     7
100
AcDbLine
 10
122.707973
 20
-37.38746899992827
 30
0.0
 11
115.5337410823527
 21
-179.4354177120142
 31
0.0
  0
LINE
  5
53
330
35
100
AcDbEntity
  8
LC-001-002-----0
  6
Continuous
 62
     7
100
AcDbLine
 10
134.500293
 20
-29.4998279999283
 30
0.0
 11
131.5102162721417
 21
-31.4998289998843
 31
0.0
  0
LINE
  5
54
330
35
100
AcDbEntity
  8
LC-001-002-----0
  6
Continuous
 62
     7
100
AcDbLine
 10
169.536569
 20
-62.94461999992825
 30
0.0
 11
174.945874
 21
-53.57542899992825
 31
0.0
  0
LINE
  5
55
330
35
100
AcDbEntity
  8
LC-001-002-----0
  6
DASHDOT_13
 62
     2
100
AcDbLine
 10
200.557548
 20
-112.0946749999283
 30
0.0
 11
200.557548
 21
-97.09467499992826
 31
0.0
  0
LINE
  5
56
330
35
100
AcDbEntity
  8
LC-001-002-----0
  6
Continuous
 62
     7
100
AcDbLine
 10
174.945874
 20
-53.57542899992825
 30
0.0
 11
243.436297
 21
-57.1648599999283
 31
0.0
  0
LINE
  5
57
330
35
100
AcDbEntity
  8
LC-001-002-----0
  6
Continuous
 62
     7
100
AcDbLine
 10
169.536569
 20
-63.0663149999283
 30
0.0
 11
169.536569
 21
-62.94461999992825
 31
0.0
  0
LINE
  5
58
330
35
100
AcDbEntity
  8
LC-009-021-----0
  6
Continuous
 62
     7
100
AcDbLine
 10
116.54738
 20
-160.6658519999282
 30
0.0
 11
116.166303
 21
-168.2110769999283
 31
0.0
  0
LINE
  5
59
330
35
100
AcDbEntity
  8
LC-001-002-----0
  6
Continuous
 62
     7
100
AcDbLine
 10
-117.683452
 20
-142.3511589999283
 30
0.0
 11
-113.5
 21
-221.0000579999282
 31
0.0
  0
LINE
  5
5A
330
35
100
AcDbEntity
  8
LC-001-002-----0
  6
Continuous
 62
     7
100
AcDbLine
 10
-139.449492
 20
-29.50005799992829
 30
0.0
 11
-142.5
 21
-29.50005799992829
 31
0.0
  0
LINE
  5
5B
330
35
100
AcDbEntity
  8
LC-001-002-----0
  6
Continuous
 62
     7
100
AcDbLine
 10
-142.5
 20
-21.50005799992829
 30
0.0
 11
-134.5
 21
-21.50005799992829
 31
0.0
  0
LINE
  5
5C
330
35
100
AcDbEntity
  8
LC-001-002-----0
  6
Continuous
 62
     7
100
AcDbLine
 10
237.679342
 20
-167.0141089999282
 30
0.0
 11
169.536569
 21
-163.442897598155
 31
0.0
  0
LINE
  5
5D
330
35
100
AcDbEntity
  8
LC-001-002-----0
  6
Continuous
 62
     7
100
AcDbLine
 10
243.436297
 20
-57.1648599999283
 30
0.0
 11
237.679342
 21
-167.0141089999282
 31
0.0
  0
LINE
  5
5E
330
35
100
AcDbEntity
  8
LC-001-002-----0
  6
Continuous
 62
     7
100
AcDbLine
 10
121.436297
 20
-63.0663149999283
 30
0.0
 11
169.536569
 21
-63.0663149999283
 31
0.0
  0
LINE
  5
5F
330
35
100
AcDbEntity
  8
LC-001-002-----0
  6
Continuous
 62
     7
100
AcDbLine
 10
142.500293
 20
-29.49983299992829
 30
0.0
 11
142.500293
 21
-24.49983299992829
 31
0.0
  0
LINE
  5
60
330
35
100
AcDbEntity
  8
LC-001-002-----0
  6
Continuous
 62
     7
100
AcDbLine
 10
139.500293
 20
-21.49983299992829
 30
0.0
 11
137.500295
 21
-21.49983299992829
 31
0.0
  0
LINE
  5
61
330
35
100
AcDbEntity
  8
LC-001-002-----0
  6
Continuous
 62
     7
100
AcDbLine
 10
137.500295
 20
-21.49983299992829
 30
0.0
 11
134.5003013171504
 21
-21.49983299992829
 31
0.0
  0
LINE
  5
62
330
35
100
AcDbEntity
  8
LC-001-002-----0
  6
Continuous
 62
     7
100
AcDbLine
 10
137.000291
 20
-31.4998289999283
 30
0.0
 11
137.000293
 21
-31.4998289999283
 31
0.0
  0
LINE
  5
63
330
35
100
AcDbEntity
  8
LC-001-002-----0
  6
Continuous
 62
     7
100
AcDbLine
 10
137.000291
 20
-31.4998289999283
 30
0.0
 11
137.000291
 21
-31.4998289999283
 31
0.0
  0
LINE
  5
64
330
35
100
AcDbEntity
  8
LC-001-002-----0
  6
Continuous
 62
     7
100
AcDbLine
 10
142.500293
 20
-29.49983299992829
 30
0.0
 11
139.500293
 21
-29.49983099992829
 31
0.0
  0
LINE
  5
65
330
35
100
AcDbEntity
  8
LC-001-002-----0
  6
Continuous
 62
     7
100
AcDbLine
 10
-123.287234
 20
-37.00005799992829
 30
0.0
 11
-117.683452
 21
-142.3511589999283
 31
0.0
  0
LINE
  5
66
330
35
100
AcDbEntity
  8
LC-001-002-----0
  6
Continuous
 62
     7
100
AcDbLine
 10
-137.0
 20
-31.50005799992829
 30
0.0
 11
-137.0
 21
-31.50005799992829
 31
0.0
  0
LINE
  5
67
330
35
100
AcDbEntity
  8
LC-001-002-----0
  6
Continuous
 62
     7
100
AcDbLine
 10
-134.5
 20
-29.50005799992829
 30
0.0
 11
-131.5099290666682
 21
-31.50005799992726
 31
0.0
  0
LINE
  5
68
330
35
100
AcDbEntity
  8
LC-001-002-----0
  6
Continuous
 62
     7
100
AcDbLine
 10
-134.5
 20
-29.50005799992829
 30
0.0
 11
-134.550509
 21
-29.50005799992829
 31
0.0
  0
LINE
  5
69
330
35
100
AcDbEntity
  8
LC-001-002-----0
  6
Continuous
 62
     7
100
AcDbLine
 10
115.5337410823527
 20
-179.4354177120142
 30
0.0
 11
113.248921
 21
-215.9744849999282
 31
0.0
  0
LINE
  5
6A
330
35
100
AcDbEntity
  8
LC-001-002-----0
  6
Continuous
 62
     7
100
AcDbLine
 10
95.27141500000001
 20
-220.9999189999282
 30
0.0
 11
0.00016599999999
 21
-220.9998569999283
 31
0.0
  0
LINE
  5
6B
330
35
100
AcDbEntity
  8
LC-001-002-----0
  6
Continuous
 62
     7
100
AcDbLine
 10
108.500168
 20
-215.9999279999282
 30
0.0
 11
113.255901
 21
-215.9999279999282
 31
0.0
  0
LINE
  5
6C
330
35
100
AcDbEntity
  8
LC-001-002-----0
  6
Continuous
 62
     7
100
AcDbLine
 10
-127.75
 20
-0.00005799992829
 30
0.0
 11
127.750316
 21
0.0000580000717
 31
0.0
  0
LINE
  5
6D
330
35
100
AcDbEntity
  8
LC-001-002-----0
  6
Continuous
 62
     7
100
AcDbLine
 10
134.500316
 20
0.00005400007171
 30
0.0
 11
134.5003013171504
 21
-21.49983299992829
 31
0.0
  0
LINE
  5
6E
330
35
100
AcDbEntity
  8
LC-001-002-----0
  6
Continuous
 62
     7
100
AcDbLine
 10
127.750316
 20
0.0000580000717
 30
0.0
 11
134.500316
 21
0.00005400007171
 31
0.0
  0
LINE
  5
6F
330
35
100
AcDbEntity
  8
LC-001-002-----0
  6
Continuous
 62
     7
100
AcDbLine
 10
-113.5
 20
-221.0000579999282
 30
0.0
 11
0.00000000000001
 21
-221.0000579999282
 31
0.0
  0
LINE
  5
70
330
35
100
AcDbEntity
  8
LC-001-002-----0
  6
Continuous
 62
     7
100
AcDbLine
 10
-134.5
 20
-0.00005799992829
 30
0.0
 11
-134.5
 21
-21.50005799992829
 31
0.0
  0
LINE
  5
71
330
35
100
AcDbEntity
  8
LC-001-002-----0
  6
Continuous
 62
     7
100
AcDbLine
 10
-127.75
 20
-0.00005799992829
 30
0.0
 11
-134.5
 21
-0.00005799992829
 31
0.0
  0
LINE
  5
72
330
35
100
AcDbEntity
  8
LC-001-002-----0
  6
Continuous
 62
     7
100
AcDbLine
 10
95.27141500000001
 20
-220.9999189999282
 30
0.0
 11
0.00016599999999
 21
-220.9998569999283
 31
0.0
  0
LINE
  5
73
330
35
100
AcDbEntity
  8
LC-001-002-----0
  6
Continuous
 62
     7
100
AcDbLine
 10
108.500168
 20
-215.9999279999282
 30
0.0
 11
113.255901
 21
-215.9999279999282
 31
0.0
  0
LINE
  5
74
330
35
100
AcDbEntity
  8
LC-001-002-----0
  6
Continuous
 62
     7
100
AcDbLine
 10
-127.75
 20
-0.00005799992829
 30
0.0
 11
127.750316
 21
0.0000580000717
 31
0.0
  0
LINE
  5
75
330
35
100
AcDbEntity
  8
LC-001-002-----0
  6
Continuous
 62
     7
100
AcDbLine
 10
134.500316
 20
0.00005400007171
 30
0.0
 11
134.500302
 21
-20.49994599992829
 31
0.0
  0
LINE
  5
76
330
35
100
AcDbEntity
  8
LC-001-002-----0
  6
Continuous
 62
     7
100
AcDbLine
 10
127.750316
 20
0.0000580000717
 30
0.0
 11
134.500316
 21
0.00005400007171
 31
0.0
  0
LINE
  5
77
330
35
100
AcDbEntity
  8
LC-001-002-----0
  6
Continuous
 62
     7
100
AcDbLine
 10
-113.5
 20
-221.0000579999282
 30
0.0
 11
0.00000000000001
 21
-221.0000579999282
 31
0.0
  0
LINE
  5
78
330
35
100
AcDbEntity
  8
LC-001-002-----0
  6
Continuous
 62
     7
100
AcDbLine
 10
-134.5
 20
-0.00005799992829
 30
0.0
 11
-134.5
 21
-20.50005799992829
 31
0.0
  0
LINE
  5
79
330
35
100
AcDbEntity
  8
LC-001-002-----0
  6
Continuous
 62
     7
100
AcDbLine
 10
-127.75
 20
-0.00005799992829
 30
0.0
 11
-134.5
 21
-0.00005799992829
 31
0.0
  0
LINE
  5
7A
330
35
100
AcDbEntity
  8
1
  6
DOT_CENTER
 62
     2
100
AcDbLine
 10
-127.5
 20
2.9999421135748
 30
0.0
 11
-127.5
 21
0.9999421135746
 31
0.0
  0
LINE
  5
7B
330
35
100
AcDbEntity
  8
1
  6
DOT_CENTER
 62
     2
100
AcDbLine
 10
127.5
 20
1.00005788642554
 30
0.0
 11
127.5
 21
3.00005788642575
 31
0.0
  0
ARC
  5
7C
330
35
100
AcDbEntity
  8
LC-001-002-----0
  6
Continuous
 62
     7
100
AcDbCircle
 10
139.500293
 20
-24.49983299992829
 30
0.0
 40
3.0
100
AcDbArc
 50
0.0
 51
90.0
  0
ARC
  5
7D
330
35
100
AcDbEntity
  8
LC-001-002-----0
  6
Continuous
 62
     7
100
AcDbCircle
 10
137.000293
 20
-28.9998289999283
 30
0.0
 40
2.500000000000251
100
AcDbArc
 50
-89.9999420000098
 51
-12.43580000000651
  0
ARC
  5
7E
330
35
100
AcDbEntity
  8
LC-001-002-----0
  6
Continuous
 62
     7
100
AcDbCircle
 10
137.000293
 20
-28.9998289999283
 30
0.0
 40
2.50000000000028
100
AcDbArc
 50
-168.6904090000085
 51
-90.00034199999729
  0
ARC
  5
7F
330
35
100
AcDbEntity
  8
LC-001-002-----0
  6
Continuous
 62
     7
100
AcDbCircle
 10
-137.0
 20
-29.00005799992829
 30
0.0
 40
2.500000000000251
100
AcDbArc
 50
-89.9999420000098
 51
-11.53678399999952
  0
ARC
  5
80
330
35
100
AcDbEntity
  8
LC-001-002-----0
  6
Continuous
 62
     7
100
AcDbCircle
 10
-137.0
 20
-29.00005799992829
 30
0.0
 40
2.500000000000449
100
AcDbArc
 50
-168.4633450000047
 51
-90.00009400000621
  0
ARC
  5
81
330
35
100
AcDbEntity
  8
LC-001-002-----0
  6
Continuous
 62
     7
100
AcDbCircle
 10
95.27142099999999
 20
-210.9999189999282
 30
0.0
 40
10.00000000000018
100
AcDbArc
 50
-90.00003699999851
 51
-48.59035899999852
  0
ARC
  5
82
330
35
100
AcDbEntity
  8
LC-001-002-----0
  6
Continuous
 62
     7
100
AcDbCircle
 10
108.500168
 20
-225.9999279999282
 30
0.0
 40
10.00000000000049
100
AcDbArc
 50
89.99998199999803
 51
131.4095829999995
  0
ARC
  5
83
330
35
100
AcDbEntity
  8
LC-001-002-----0
  6
Continuous
 62
     7
100
AcDbCircle
 10
95.27142099999999
 20
-210.9999189999282
 30
0.0
 40
10.00000000000018
100
AcDbArc
 50
-90.00003699999851
 51
-48.59035899999852
  0
ARC
  5
84
330
35
100
AcDbEntity
  8
LC-001-002-----0
  6
Continuous
 62
     7
100
AcDbCircle
 10
108.500168
 20
-225.9999279999282
 30
0.0
 40
10.00000000000049
100
AcDbArc
 50
89.99998199999803
 51
131.4095829999995
  0
ENDBLK
  5
37
330
35
100
AcDbEntity
  8
0
100
AcDbBlockEnd
  0
BLOCK
  5
8D
330
85
100
AcDbEntity
  8
0
100
AcDbBlockBegin
  2
*D02
 70
     1
 71
     0
 10
0.0
 20
0.0
 30
0.0
  3
*D02
  1

  0
LINE
  5
86
330
85
100
AcDbEntity
  8
1
  6
Continuous
 62
     4
100
AcDbLine
 10
127.5
 20
13.00005788642575
 30
0.0
 11
243.436297
 21
13.00005788642575
 31
0.0
  0
LINE
  5
87
330
85
100
AcDbEntity
  8
1
  6
Continuous
 62
     4
100
AcDbLine
 10
127.5
 20
3.00005788642575
 30
0.0
 11
127.5
 21
15.00005788642575
 31
0.0
  0
LINE
  5
88
330
85
100
AcDbEntity
  8
1
  6
Continuous
 62
     4
100
AcDbLine
 10
243.436297
 20
-57.16485999992831
 30
0.0
 11
243.436297
 21
15.00005788642575
 31
0.0
  0
SOLID
  5
89
330
85
100
AcDbEntity
  8
1
 62
     4
100
AcDbTrace
 10
139.5
 20
14.5798878574745
 30
0.0
 11
139.5
 21
11.420227915377
 31
0.0
 12
127.5
 22
13.00005788642575
 32
0.0
 13
127.5
 23
13.00005788642575
 33
0.0
  0
SOLID
  5
8A
330
85
100
AcDbEntity
  8
1
 62
     4
100
AcDbTrace
 10
231.436297
 20
11.420227915377
 30
0.0
 11
231.436297
 21
14.5798878574745
 31
0.0
 12
243.436297
 22
13.00005788642575
 32
0.0
 13
243.436297
 23
13.00005788642575
 33
0.0
  0
MTEXT
  5
8C
330
85
100
AcDbEntity
  8
1
 62
     1
100
AcDbMText
 10
173.145998658273
 20
15.00005788642575
 30
0.0
 40
12.0
 41
0.0
 71
     7
 72
     1
  1
115
  7
CONVERTER_1
 11
0.9999999999970621
 21
2.424068405545307E-6
 31
0.0
 73
     1
 44
0.60024009603842
  0
ENDBLK
  5
8E
330
85
100
AcDbEntity
  8
0
100
AcDbBlockEnd
  0
BLOCK
  5
98
330
91
100
AcDbEntity
  8
0
100
AcDbBlockBegin
  2
*D13
 70
     1
 71
     0
 10
0.0
 20
0.0
 30
0.0
  3
*D13
  1

  0
LINE
  5
92
330
91
100
AcDbEntity
  8
1
  6
Continuous
 62
     4
100
AcDbLine
 10
312.7320724371776
 20
-170.9474588010889
 30
0.0
 11
318.4890318214827
 21
-61.0982100308609
 31
0.0
  0
LINE
  5
93
330
91
100
AcDbEntity
  8
1
  6
Continuous
 62
     4
100
AcDbLine
 10
237.679342
 20
-167.0141089999282
 30
0.0
 11
314.7293315026954
 21
-171.0521307897356
 31
0.0
  0
LINE
  5
94
330
91
100
AcDbEntity
  8
1
  6
Continuous
 62
     4
100
AcDbLine
 10
243.436297
 20
-57.1648599999283
 30
0.0
 11
320.4862908870005
 21
-61.20288201950756
 31
0.0
  0
SOLID
  5
95
330
91
100
AcDbEntity
  8
1
 62
     4
100
AcDbTrace
 10
319.43866475543
 20
-73.16444639636389
 30
0.0
 11
316.2833350237763
 21
-72.9990824515707
 31
0.0
 12
318.4890318214827
 22
-61.0982100308609
 32
0.0
 13
318.4890318214827
 23
-61.0982100308609
 33
0.0
  0
SOLID
  5
96
330
91
100
AcDbEntity
  8
1
 62
     4
100
AcDbTrace
 10
311.7824395032304
 20
-158.881222435586
 30
0.0
 11
314.9377692348841
 21
-159.0465863803791
 31
0.0
 12
312.7320724371776
 22
-170.9474588010889
 32
0.0
 13
312.7320724371776
 23
-170.9474588010889
 33
0.0
  0
MTEXT
  5
97
330
91
100
AcDbEntity
  8
1
 62
     1
100
AcDbMText
 10
312.7782256759149
 20
-131.8521857736013
 30
0.0
 40
12.0
 41
0.0
 71
     7
 72
     1
  1
\C1;DN\C1;110
  7
CONVERTER_1
 11
0.05233599432332686
 21
0.998629532758865
 31
0.0
 73
     1
 44
0.60024009603842
  0
ENDBLK
  5
99
330
91
100
AcDbEntity
  8
0
100
AcDbBlockEnd
  0
BLOCK
  5
A3
330
9C
100
AcDbEntity
  8
0
100
AcDbBlockBegin
  2
*D24
 70
     1
 71
     0
 10
0.0
 20
0.0
 30
0.0
  3
*D24
  1

  0
LINE
  5
9D
330
9C
100
AcDbEntity
  8
1
  6
Continuous
 62
     4
100
AcDbLine
 10
293.223380648568
 20
-109.9983629999282
 30
0.0
 11
293.223380648568
 21
0.00005400007171
 31
0.0
  0
LINE
  5
9E
330
9C
100
AcDbEntity
  8
1
  6
Continuous
 62
     4
100
AcDbLine
 10
216.229412747549
 20
-109.9983629999282
 30
0.0
 11
295.223380648568
 21
-109.9983629999282
 31
0.0
  0
LINE
  5
9F
330
9C
100
AcDbEntity
  8
1
  6
Continuous
 62
     4
100
AcDbLine
 10
134.500316
 20
0.00005400007171
 30
0.0
 11
295.223380648568
 21
0.00005400007171
 31
0.0
  0
SOLID
  5
A0
330
9C
100
AcDbEntity
  8
1
 62
     4
100
AcDbTrace
 10
291.6435506775193
 20
-97.99836299992822
 30
0.0
 11
294.8032106196168
 21
-97.99836299992822
 31
0.0
 12
293.223380648568
 22
-109.9983629999282
 32
0.0
 13
293.223380648568
 23
-109.9983629999282
 33
0.0
  0
SOLID
  5
A1
330
9C
100
AcDbEntity
  8
1
 62
     4
100
AcDbTrace
 10
294.8032106196168
 20
-11.99994599992829
 30
0.0
 11
291.6435506775193
 21
-11.99994599992829
 31
0.0
 12
293.223380648568
 22
0.00005400007171
 32
0.0
 13
293.223380648568
 23
0.00005400007171
 33
0.0
  0
MTEXT
  5
A2
330
9C
100
AcDbEntity
  8
1
 62
     1
100
AcDbMText
 10
291.223380648568
 20
-51.74250891178126
 30
0.0
 40
12.0
 41
0.0
 71
     7
 72
     1
  1
110
  7
CONVERTER_1
 11
0.0
 21
1.0
 31
0.0
 73
     1
 44
0.60024009603842
  0
ENDBLK
  5
A4
330
9C
100
AcDbEntity
  8
0
100
AcDbBlockEnd
  0
BLOCK
  5
AE
330
A7
100
AcDbEntity
  8
0
100
AcDbBlockBegin
  2
*D35
 70
     1
 71
     0
 10
0.0
 20
0.0
 30
0.0
  3
*D35
  1

  0
LINE
  5
A8
330
A7
100
AcDbEntity
  8
1
  6
Continuous
 62
     4
100
AcDbLine
 10
-181.278116382733
 20
-221.0000579999282
 30
0.0
 11
-181.278116382733
 21
-0.0000579999283
 31
0.0
  0
LINE
  5
A9
330
A7
100
AcDbEntity
  8
1
  6
Continuous
 62
     4
100
AcDbLine
 10
-113.5
 20
-221.0000579999282
 30
0.0
 11
-183.278116382733
 21
-221.0000579999282
 31
0.0
  0
LINE
  5
AA
330
A7
100
AcDbEntity
  8
1
  6
Continuous
 62
     4
100
AcDbLine
 10
-134.5
 20
-0.0000579999283
 30
0.0
 11
-183.278116382733
 21
-0.0000579999283
 31
0.0
  0
SOLID
  5
AB
330
A7
100
AcDbEntity
  8
1
 62
     4
100
AcDbTrace
 10
-179.6982864116843
 20
-12.0000579999283
 30
0.0
 11
-182.8579463537818
 21
-12.0000579999283
 31
0.0
 12
-181.278116382733
 22
-0.0000579999283
 32
0.0
 13
-181.278116382733
 23
-0.0000579999283
 33
0.0
  0
SOLID
  5
AC
330
A7
100
AcDbEntity
  8
1
 62
     4
100
AcDbTrace
 10
-182.8579463537818
 20
-209.0000579999282
 30
0.0
 11
-179.6982864116843
 21
-209.0000579999282
 31
0.0
 12
-181.278116382733
 22
-221.0000579999282
 32
0.0
 13
-181.278116382733
 23
-221.0000579999282
 33
0.0
  0
MTEXT
  5
AD
330
A7
100
AcDbEntity
  8
1
 62
     1
100
AcDbMText
 10
-183.278116382733
 20
-140.6966243540983
 30
0.0
 40
12.0
 41
0.0
 71
     7
 72
     1
  1
220
  7
CONVERTER_1
 11
0.0
 21
1.0
 31
0.0
 73
     1
 44
0.60024009603842
  0
ENDBLK
  5
AF
330
A7
100
AcDbEntity
  8
0
100
AcDbBlockEnd
  0
BLOCK
  5
B9
330
B2
100
AcDbEntity
  8
0
100
AcDbBlockBegin
  2
*D46
 70
     1
 71
     0
 10
0.0
 20
0.0
 30
0.0
  3
*D46
  1

  0
LINE
  5
B3
330
B2
100
AcDbEntity
  8
1
  6
Continuous
 62
     4
100
AcDbLine
 10
0.0
 20
-245.2218078698082
 30
0.0
 11
243.436297
 21
-245.2218078698082
 31
0.0
  0
LINE
  5
B4
330
B2
100
AcDbEntity
  8
1
  6
Continuous
 62
     4
100
AcDbLine
 10
0.0
 20
-221.0000579999282
 30
0.0
 11
0.0
 21
-247.2218078698082
 31
0.0
  0
LINE
  5
B5
330
B2
100
AcDbEntity
  8
1
  6
Continuous
 62
     4
100
AcDbLine
 10
243.436297
 20
-57.1648599999283
 30
0.0
 11
243.436297
 21
-247.2218078698082
 31
0.0
  0
SOLID
  5
B6
330
B2
100
AcDbEntity
  8
1
 62
     4
100
AcDbTrace
 10
12.0
 20
-243.6419778987595
 30
0.0
 11
12.0
 21
-246.801637840857
 31
0.0
 12
0.0
 22
-245.2218078698082
 32
0.0
 13
0.0
 23
-245.2218078698082
 33
0.0
  0
SOLID
  5
B7
330
B2
100
AcDbEntity
  8
1
 62
     4
100
AcDbTrace
 10
231.436297
 20
-246.801637840857
 30
0.0
 11
231.436297
 21
-243.6419778987595
 31
0.0
 12
243.436297
 22
-245.2218078698082
 32
0.0
 13
243.436297
 23
-245.2218078698082
 33
0.0
  0
MTEXT
  5
B8
330
B2
100
AcDbEntity
  8
1
 62
     1
100
AcDbMText
 10
96.01184849936999
 20
-243.2218078698082
 30
0.0
 40
12.0
 41
0.0
 71
     7
 72
     1
  1
245
  7
CONVERTER_1
 11
0.9999999999970621
 21
2.424068405545307E-6
 31
0.0
 73
     1
 44
0.60024009603842
  0
ENDBLK
  5
BA
330
B2
100
AcDbEntity
  8
0
100
AcDbBlockEnd
  0
BLOCK
  5
C4
330
BD
100
AcDbEntity
  8
0
100
AcDbBlockBegin
  2
*D57
 70
     1
 71
     0
 10
0.0
 20
0.0
 30
0.0
  3
*D57
  1

  0
LINE
  5
BE
330
BD
100
AcDbEntity
  8
1
  6
Continuous
 62
     4
100
AcDbLine
 10
-127.5
 20
13.00005788642575
 30
0.0
 11
127.5
 21
13.00005788642575
 31
0.0
  0
LINE
  5
BF
330
BD
100
AcDbEntity
  8
1
  6
Continuous
 62
     4
100
AcDbLine
 10
-127.5
 20
2.9999421135748
 30
0.0
 11
-127.5
 21
15.00005788642575
 31
0.0
  0
LINE
  5
C0
330
BD
100
AcDbEntity
  8
1
  6
Continuous
 62
     4
100
AcDbLine
 10
127.5
 20
3.00005788642575
 30
0.0
 11
127.5
 21
15.00005788642575
 31
0.0
  0
SOLID
  5
C1
330
BD
100
AcDbEntity
  8
1
 62
     4
100
AcDbTrace
 10
115.5
 20
11.420227915377
 30
0.0
 11
115.5
 21
14.5798878574745
 31
0.0
 12
127.5
 22
13.00005788642575
 32
0.0
 13
127.5
 23
13.00005788642575
 33
0.0
  0
SOLID
  5
C2
330
BD
100
AcDbEntity
  8
1
 62
     4
100
AcDbTrace
 10
-115.5
 20
14.5798878574745
 30
0.0
 11
-115.5
 21
11.420227915377
 31
0.0
 12
-127.5
 22
13.00005788642575
 32
0.0
 13
-127.5
 23
13.00005788642575
 33
0.0
  0
MTEXT
  5
C3
330
BD
100
AcDbEntity
  8
1
 62
     1
100
AcDbMText
 10
-59.3083832591153
 20
15.00005788642575
 30
0.0
 40
12.0
 41
0.0
 71
     7
 72
     1
  1
\C1;255\C1;x185
  7
CONVERTER_1
 11
0.9999999999970621
 21
2.424068405545307E-6
 31
0.0
 73
     1
 44
0.60024009603842
  0
ENDBLK
  5
C5
330
BD
100
AcDbEntity
  8
0
100
AcDbBlockEnd
  0
ENDSEC
  0
SECTION
  2
ENTITIES
  0
INSERT
  5
38
330
1F
100
AcDbEntity
  8
1
100
AcDbBlockReference
  2
HL77_Kellerablauf__1
 10
50.4681485
 20
-109.5000289999282
 30
0.0
  0
DIMENSION
  5
90
330
1F
100
AcDbEntity
  8
1
100
AcDbDimension
  2
*D02
 10
127.5
 20
13.00005788642575
 30
0.0
 11
183.945998658273
 21
21.00005788642575
 31
0.0
 70
    32
  1
115
 71
     5
 42
-1.0
 53
0.00013888888889
  3
ME10_DIM_0
100
AcDbAlignedDimension
 13
243.436297
 23
-57.1648599999283
 33
0.0
 14
127.5
 24
3.00005788642575
 34
0.0
100
AcDbRotatedDimension
  0
DIMENSION
  5
9B
330
1F
100
AcDbEntity
  8
1
100
AcDbDimension
  2
*D13
 10
318.4890318214827
 20
-61.0982100308609
 30
0.0
 11
307.6908144612688
 21
-114.2818514815881
 31
0.0
 70
    32
  1
<>
 71
     5
 42
-1.0
 53
86.99999781516051
  3
ME10_DIM_1
100
AcDbAlignedDimension
 13
237.679342
 23
-167.0141089999282
 33
0.0
 14
243.436297
 24
-57.1648599999283
 34
0.0
 50
86.99999781516051
100
AcDbRotatedDimension
  0
DIMENSION
  5
A6
330
1F
100
AcDbEntity
  8
1
100
AcDbDimension
  2
*D24
 10
293.223380648568
 20
-109.9983629999282
 30
0.0
 11
285.223380648568
 21
-40.94250891178125
 31
0.0
 70
    32
  1
<>
 71
     5
 42
-1.0
 53
90.00000000000003
  3
ME10_DIM_2
100
AcDbAlignedDimension
 13
134.500316
 23
0.00005400007171
 33
0.0
 14
216.229412747549
 24
-109.9983629999282
 34
0.0
 50
90.00000000000003
100
AcDbRotatedDimension
  0
DIMENSION
  5
B1
330
1F
100
AcDbEntity
  8
1
100
AcDbDimension
  2
*D35
 10
-181.278116382733
 20
-0.0000579999283
 30
0.0
 11
-189.278116382733
 21
-126.2966243540983
 31
0.0
 70
    32
  1
220
 71
     5
 42
-1.0
 53
90.00000000000003
  3
ME10_DIM_3
100
AcDbAlignedDimension
 13
-113.5
 23
-221.0000579999282
 33
0.0
 14
-134.5
 24
-0.00005799992829
 34
0.0
 50
90.00000000000003
100
AcDbRotatedDimension
  0
DIMENSION
  5
BC
330
1F
100
AcDbEntity
  8
1
100
AcDbDimension
  2
*D46
 10
0.0
 20
-245.2218078698082
 30
0.0
 11
110.41184849937
 21
-237.2218078698082
 31
0.0
 70
    32
  1
245
 71
     5
 42
-1.0
 53
0.00013888888889
  3
ME10_DIM_4
100
AcDbAlignedDimension
 13
243.436297
 23
-57.1648599999283
 33
0.0
 14
0.00000000000001
 24
-221.0000579999282
 34
0.0
100
AcDbRotatedDimension
  0
DIMENSION
  5
C7
330
1F
100
AcDbEntity
  8
1
100
AcDbDimension
  2
*D57
 10
127.5
 20
13.00005788642575
 30
0.0
 11
-23.9083832591153
 21
21.00005788642575
 31
0.0
 70
    32
  1
<>
 71
     5
 42
-1.0
 53
0.00013888888889
  3
ME10_DIM_5
100
AcDbAlignedDimension
 13
-127.5
 23
2.9999421135748
 33
0.0
 14
127.5
 24
3.00005788642575
 34
0.0
100
AcDbRotatedDimension
  0
ENDSEC
  0
SECTION
  2
OBJECTS
  0
DICTIONARY
  5
C
330
0
100
AcDbDictionary
281
     1
  3
ACAD_GROUP
350
D
  3
ACAD_LAYOUT
350
1A
  3
ACAD_MLINESTYLE
350
17
  3
ACAD_PLOTSETTINGS
350
19
  3
ACAD_PLOTSTYLENAME
350
E
  0
DICTIONARY
  5
D
102
{ACAD_REACTORS
330
C
102
}
330
C
100
AcDbDictionary
281
     1
  0
DICTIONARY
  5
1A
102
{ACAD_REACTORS
330
C
102
}
330
C
100
AcDbDictionary
281
     1
  3
Layout1
350
1E
  3
Layout2
350
26
  3
Model
350
22
  0
DICTIONARY
  5
17
102
{ACAD_REACTORS
330
C
102
}
330
C
100
AcDbDictionary
281
     1
  3
Standard
350
18
  0
DICTIONARY
  5
19
102
{ACAD_REACTORS
330
C
102
}
330
C
100
AcDbDictionary
281
     1
  0
ACDBDICTIONARYWDFLT
  5
E
102
{ACAD_REACTORS
330
C
102
}
330
C
100
AcDbDictionary
281
     1
  3
Normal
350
F
100
AcDbDictionaryWithDefault
340
F
  0
LAYOUT
  5
1E
102
{ACAD_REACTORS
330
1A
102
}
330
1A
100
AcDbPlotSettings
  1

  2

  4

  6

 40
0.0
 41
0.0
 42
0.0
 43
0.0
 44
0.0
 45
0.0
 46
0.0
 47
0.0
 48
0.0
 49
0.0
140
0.0
141
0.0
142
1.0
143
1.0
 70
   688
 72
     0
 73
     0
 74
     5
  7

 75
    16
147
1.0
148
0.0
149
0.0
100
AcDbLayout
  1
Layout1
 70
     1
 71
     1
 10
0.0
 20
0.0
 11
0.0
 21
0.0
 12
0.0
 22
0.0
 32
0.0
 14
0.0
 24
0.0
 34
0.0
 15
0.0
 25
0.0
 35
0.0
146
0.0
 13
0.0
 23
0.0
 33
0.0
 16
1.0
 26
0.0
 36
0.0
 17
0.0
 27
1.0
 37
0.0
 76
     0
330
1B
  0
LAYOUT
  5
26
102
{ACAD_REACTORS
330
1A
102
}
330
1A
100
AcDbPlotSettings
  1

  2

  4

  6

 40
0.0
 41
0.0
 42
0.0
 43
0.0
 44
0.0
 45
0.0
 46
0.0
 47
0.0
 48
0.0
 49
0.0
140
0.0
141
0.0
142
1.0
143
1.0
 70
   688
 72
     0
 73
     0
 74
     5
  7

 75
    16
147
1.0
148
0.0
149
0.0
100
AcDbLayout
  1
Layout2
 70
     1
 71
     2
 10
0.0
 20
0.0
 11
0.0
 21
0.0
 12
0.0
 22
0.0
 32
0.0
 14
0.0
 24
0.0
 34
0.0
 15
0.0
 25
0.0
 35
0.0
146
0.0
 13
0.0
 23
0.0
 33
0.0
 16
1.0
 26
0.0
 36
0.0
 17
0.0
 27
1.0
 37
0.0
 76
     0
330
23
  0
LAYOUT
  5
22
102
{ACAD_REACTORS
330
1A
102
}
330
1A
100
AcDbPlotSettings
  1

  2

  4

  6

 40
0.0
 41
0.0
 42
0.0
 43
0.0
 44
0.0
 45
0.0
 46
0.0
 47
0.0
 48
0.0
 49
0.0
140
0.0
141
0.0
142
1.0
143
1.0
 70
  1712
 72
     0
 73
     0
 74
     0
  7

 75
     0
147
1.0
148
0.0
149
0.0
100
AcDbLayout
  1
Model
 70
     1
 71
     0
 10
0.0
 20
0.0
 11
0.0
 21
0.0
 12
0.0
 22
0.0
 32
0.0
 14
-195.278116382733
 24
-247.2218078698082
 34
0.0
 15
320.4862908870005
 25
27.00005788642575
 35
0.0
146
0.0
 13
0.0
 23
0.0
 33
0.0
 16
1.0
 26
0.0
 36
0.0
 17
0.0
 27
1.0
 37
0.0
 76
     0
330
1F
  0
MLINESTYLE
  5
18
102
{ACAD_REACTORS
330
17
102
}
330
17
100
AcDbMlineStyle
  2
Standard
 70
     0
  3

 62
   256
 51
90.0
 52
90.0
 71
     2
 49
0.5
 62
   256
  6
BYLAYER
 49
-0.5
 62
   256
  6
BYLAYER
  0
ACDBPLACEHOLDER
  5
F
102
{ACAD_REACTORS
330
E
102
}
330
E
  0
ENDSEC
  0
EOF
