  0
SECTION
  2
HEADER
  9
$ACADVER
  1
AC1014
  9
$ACADMAINTVER
 70
             0
  9
$DWGCODEPAGE
  3
ANSI_1252
  9
$INSBASE
 10
0.0
 20
0.0
 30
0.0
  9
$EXTMIN
 10
-115.042835456329
 20
-250.0
 30
0.0
  9
$EXTMAX
 10
1.83191845922011
 20
250.0
 30
0.0
  9
$LIMMIN
 10
0.0
 20
0.0
  9
$LIMMAX
 10
0.0
 20
0.0
  9
$ORTHOMODE
 70
             0
  9
$REGENMODE
 70
             1
  9
$FILLMODE
 70
             1
  9
$QTEXTMODE
 70
             0
  9
$MIRRTEXT
 70
             1
  9
$DRAGMODE
 70
             2
  9
$LTSCALE
 40
1.0
  9
$OSMODE
 70
             0
  9
$ATTMODE
 70
             1
  9
$TEXTSIZE
 40
0.2
  9
$TRACEWID
 40
0.05
  9
$TEXTSTYLE
  7
STANDARD
  9
$CLAYER
  8
0
  9
$CELTYPE
  6
CONTINUOUS
  9
$CECOLOR
 62
           256
  9
$CELTSCALE
 40
1.0
  9
$DELOBJ
 70
             1
  9
$DISPSILH
 70
             0
  9
$DIMSCALE
 40
1.0
  9
$DIMASZ
 40
0.18
  9
$DIMEXO
 40
0.0625
  9
$DIMDLI
 40
0.38
  9
$DIMRND
 40
0.0
  9
$DIMDLE
 40
0.0
  9
$DIMEXE
 40
0.18
  9
$DIMTP
 40
0.0
  9
$DIMTM
 40
0.0
  9
$DIMTXT
 40
0.18
  9
$DIMCEN
 40
0.09
  9
$DIMTSZ
 40
0.0
  9
$DIMTOL
 70
             0
  9
$DIMLIM
 70
             0
  9
$DIMTIH
 70
             1
  9
$DIMTOH
 70
             1
  9
$DIMSE1
 70
             0
  9
$DIMSE2
 70
             0
  9
$DIMTAD
 70
             0
  9
$DIMZIN
 70
             0
  9
$DIMBLK
  1

  9
$DIMASO
 70
             1
  9
$DIMSHO
 70
             1
  9
$DIMPOST
  1

  9
$DIMAPOST
  1

  9
$DIMALT
 70
             0
  9
$DIMALTD
 70
             2
  9
$DIMALTF
 40
25.4
  9
$DIMLFAC
 40
1.0
  9
$DIMTOFL
 70
             0
  9
$DIMTVP
 40
0.0
  9
$DIMTIX
 70
             0
  9
$DIMSOXD
 70
             0
  9
$DIMSAH
 70
             0
  9
$DIMBLK1
  1

  9
$DIMBLK2
  1

  9
$DIMSTYLE
  2
STANDARD
  9
$DIMCLRD
 70
             0
  9
$DIMCLRE
 70
             0
  9
$DIMCLRT
 70
             0
  9
$DIMTFAC
 40
1.0
  9
$DIMGAP
 40
0.09
  9
$DIMJUST
 70
             0
  9
$DIMSD1
 70
             0
  9
$DIMSD2
 70
             0
  9
$DIMTOLJ
 70
             1
  9
$DIMTZIN
 70
             0
  9
$DIMALTZ
 70
             0
  9
$DIMALTTZ
 70
             0
  9
$DIMFIT
 70
             3
  9
$DIMUPT
 70
             0
  9
$DIMUNIT
 70
             2
  9
$DIMDEC
 70
             4
  9
$DIMTDEC
 70
             4
  9
$DIMALTU
 70
             2
  9
$DIMALTTD
 70
             2
  9
$DIMTXSTY
  7
STANDARD
  9
$DIMAUNIT
 70
             0
  9
$LUNITS
 70
             2
  9
$LUPREC
 70
             4
  9
$SKETCHINC
 40
0.1
  9
$FILLETRAD
 40
0.0
  9
$AUNITS
 70
             0
  9
$AUPREC
 70
             0
  9
$MENU
  1
acad
  9
$ELEVATION
 40
0.0
  9
$PELEVATION
 40
0.0
  9
$THICKNESS
 40
0.0
  9
$LIMCHECK
 70
             0
  9
$BLIPMODE
 70
             1
  9
$CHAMFERA
 40
0.0
  9
$CHAMFERB
 40
0.0
  9
$CHAMFERC
 40
0.0
  9
$CHAMFERD
 40
0.0
  9
$SKPOLY
 70
             0
  9
$TDCREATE
 40
0.000000000
  9
$TDUPDATE
 40
0.000000000
  9
$TDINDWG
 40
0.0000000000
  9
$TDUSRTIMER
 40
0.0000000000
  9
$USRTIMER
 70
             1
  9
$ANGBASE
 50
0.0
  9
$ANGDIR
 70
             0
  9
$PDMODE
 70
             0
  9
$PDSIZE
 40
0.0
  9
$PLINEWID
 40
0.0
  9
$COORDS
 70
             0
  9
$SPLFRAME
 70
             0
  9
$SPLINETYPE
 70
             6
  9
$SPLINESEGS
 70
             8
  9
$ATTDIA
 70
             0
  9
$ATTREQ
 70
             1
  9
$HANDLING
 70
             1
  9
$HANDSEED
  5
CC
  9
$SURFTAB1
 70
             6
  9
$SURFTAB2
 70
             6
  9
$SURFTYPE
 70
             6
  9
$SURFU
 70
             6
  9
$SURFV
 70
             6
  9
$UCSNAME
  2

  9
$UCSORG
 10
0.0
 20
0.0
 30
0.0
  9
$UCSXDIR
 10
1.0
 20
0.0
 30
0.0
  9
$UCSYDIR
 10
0.0
 20
1.0
 30
0.0
  9
$PUCSNAME
  2

  9
$PUCSORG
 10
0.0
 20
0.0
 30
0.0
  9
$PUCSXDIR
 10
1.0
 20
0.0
 30
0.0
  9
$PUCSYDIR
 10
0.0
 20
1.0
 30
0.0
  9
$USERI1
 70
             0
  9
$USERI2
 70
             0
  9
$USERI3
 70
             0
  9
$USERI4
 70
             0
  9
$USERI5
 70
             0
  9
$USERR1
 40
12.01
  9
$USERR2
 40
0.0
  9
$USERR3
 40
0.0
  9
$USERR4
 40
0.0
  9
$USERR5
 40
0.0
  9
$WORLDVIEW
 70
             1
  9
$SHADEDGE
 70
             3
  9
$SHADEDIF
 70
            70
  9
$TILEMODE
 70
             1
  9
$MAXACTVP
 70
            16
  9
$PINSBASE
 10
0.0
 20
0.0
 30
0.0
  9
$PLIMCHECK
 70
             0
  9
$PEXTMIN
 10
1.00000000000000E+20
 20
1.00000000000000E+20
 30
1.00000000000000E+20
  9
$PEXTMAX
 10
-1.00000000000000E+20
 20
-1.00000000000000E+20
 30
-1.00000000000000E+20
  9
$PLIMMIN
 10
0.0
 20
0.0
  9
$PLIMMAX
 10
12.0
 20
9.0
  9
$UNITMODE
 70
             0
  9
$VISRETAIN
 70
             0
  9
$PLINEGEN
 70
             1
  9
$PSLTSCALE
 70
             0
  9
$TREEDEPTH
 70
          3020
  9
$PICKSTYLE
 70
             1
  9
$CMLSTYLE
  2
STANDARD
  9
$CMLJUST
 70
             0
  9
$CMLSCALE
 40
1.0
  9
$PROXYGRAPHICS
 70
             0
  9
$MEASUREMENT
 70
             1
  0
ENDSEC
  0
SECTION
  2
CLASSES
  0
CLASS
  1
LWPOLYLINE
  2
AcDbPolyline
  3
"AutoCAD"
 90
        0
280
             0
281
             1
  0
CLASS
  1
IMAGE
  2
AcDbRasterImage
  3
ISM
 90
      127
280
             0
281
             1
  0
CLASS
  1
OLE2FRAME
  2
AcDbOle2Frame
  3
""
 90
        0
280
             0
281
             1
  0
CLASS
  1
HATCH
  2
AcDbHatch
  3
"ACAD_SEDONA"
 90
        0
280
             0
281
             1
  0
CLASS
  1
DICTIONARYVAR
  2
AcDbDictionaryVar
  3
"AutoCAD"
 90
        0
280
             0
281
             0
  0
CLASS
  1
RASTERVARIABLES
  2
AcDbRasterVariables
  3
ISM
 90
        0
280
             0
281
             0
  0
CLASS
  1
IMAGEDEF
  2
AcDbRasterImageDef
  3
ISM
 90
        0
280
             0
281
             0
  0
CLASS
  1
IMAGEDEF_REACTOR
  2
AcDbRasterImageDefReactor
  3
ISM
 90
        1
280
             0
281
             0
  0
CLASS
  1
IDBUFFER
  2
AcDbIdBuffer
  3
"Acad"
 90
        0
280
             0
281
             0
  0
CLASS
  1
SPATIAL_FILTER
  2
AcDbSpatialFilter
  3
"Acad"
 90
        0
280
             0
281
             0
  0
CLASS
  1
XRECORD
  2
AcDbXrecord
  3
"<Built In>"
 90
        0
280
             0
281
             0
  0
CLASS
  1
SORTENTSTABLE
  2
AcDbSortentsTable
  3
"AutoCAD"
 90
        0
280
             0
281
             0
  0
CLASS
  1
LAYER_INDEX
  2
AcDbLayerIndex
  3
"Acad"
 90
        0
280
             0
281
             0
  0
CLASS
  1
SPATIAL_INDEX
  2
AcDbSpatialIndex
  3
"Acad"
 90
        0
280
             0
281
             0
  0
CLASS
  1
OBJECT_PTR
  2
CAseDLPNTableRecord
  3
"ASE-LPNTableRecord"
 90
        1
280
             0
281
             0
  0
CLASS
  1
LAYOUT
  2
AcDbLayout
  3
"AutoCAD 2000"
 90
        0
280
             0
281
             0
  0
CLASS
  1
PLOTSETTINGS
  2
AcDbPlotSettings
  3
"AutoCAD 2000"
 90
        0
280
             0
281
             0
  0
CLASS
  1
ACDBDICTIONARYWDFLT
  2
AcDbDictionaryWithDefault
  3
"AutoCAD 2000"
 90
        0
280
             0
281
             0
  0
CLASS
  1
ACDBPLACEHOLDER
  2
AcDbPlaceHolder
  3
"AutoCAD 2000"
 90
        0
280
             0
281
             0
  0
ENDSEC
  0
SECTION
  2
TABLES
  0
TABLE
  2
VPORT
  5
7
100
AcDbSymbolTable
 70
             1
  0
VPORT
  5
15
100
AcDbSymbolTableRecord
100
AcDbViewportTableRecord
  2
*ACTIVE
 70
             0
 10
0.0
 20
0.0
 11
1.0
 21
1.0
 12
-56.60545849855445
 22
0.0
 13
0.0
 23
0.0
 14
1.0
 24
1.0
 15
0.0
 25
0.0
 16
0.0
 26
0.0
 36
1.0
 17
0.0
 27
0.0
 37
0.0
 40
550.0
 41
1.60267857142857
 42
50.0
 43
0.0
 44
0.0
 50
0.0
 51
0.0
 71
             0
 72
           100
 73
             1
 74
             1
 75
             0
 76
             0
 77
             0
 78
             0
  0
ENDTAB
  0
TABLE
  2
LTYPE
  5
4
100
AcDbSymbolTable
 70
            10
  0
LTYPE
  5
11
100
AcDbSymbolTableRecord
100
AcDbLinetypeTableRecord
  2
BYBLOCK
 70
            64
  3

 72
            65
 73
             0
 40
0.0
  0
LTYPE
  5
12
100
AcDbSymbolTableRecord
100
AcDbLinetypeTableRecord
  2
BYLAYER
 70
            64
  3

 72
            65
 73
             0
 40
0.0
  0
LTYPE
  5
13
100
AcDbSymbolTableRecord
100
AcDbLinetypeTableRecord
  2
CONTINUOUS
 70
            64
  3
Solid line
 72
            65
 73
             0
 40
0.0
  0
LTYPE
  5
1D
100
AcDbSymbolTableRecord
100
AcDbLinetypeTableRecord
  2
DASHED
 70
            64
  3
Dashed
 72
            65
 73
             2
 40
15.0
 49
7.0
 74
             0
 49
-8.0
 74
             0
  0
LTYPE
  5
1E
100
AcDbSymbolTableRecord
100
AcDbLinetypeTableRecord
  2
DOTTED
 70
            64
  3
Dotted
 72
            65
 73
             2
 40
1.0
 49
0.0
 74
             0
 49
-1.0
 74
             0
  0
LTYPE
  5
1F
100
AcDbSymbolTableRecord
100
AcDbLinetypeTableRecord
  2
DOT_CENTER
 70
            64
  3
Dot_Center
 72
            65
 73
             4
 40
14.0
 49
12.0
 74
             0
 49
-1.0
 74
             0
 49
0.0
 74
             0
 49
-1.0
 74
             0
  0
LTYPE
  5
20
100
AcDbSymbolTableRecord
100
AcDbLinetypeTableRecord
  2
LONG_DASHED
 70
            64
  3
Long_Dashed
 72
            65
 73
             2
 40
15.0
 49
10.0
 74
             0
 49
-5.0
 74
             0
  0
LTYPE
  5
21
100
AcDbSymbolTableRecord
100
AcDbLinetypeTableRecord
  2
DASH_CENTER
 70
            64
  3
Dash_Center
 72
            65
 73
             4
 40
14.0
 49
11.0
 74
             0
 49
-1.0
 74
             0
 49
1.0
 74
             0
 49
-1.0
 74
             0
  0
LTYPE
  5
22
100
AcDbSymbolTableRecord
100
AcDbLinetypeTableRecord
  2
PHANTOM
 70
            64
  3
Phantom
 72
            65
 73
             6
 40
13.0
 49
10.0
 74
             0
 49
-1.0
 74
             0
 49
0.0
 74
             0
 49
-1.0
 74
             0
 49
0.0
 74
             0
 49
-1.0
 74
             0
  0
LTYPE
  5
23
100
AcDbSymbolTableRecord
100
AcDbLinetypeTableRecord
  2
CENTER_DASH_DASH
 70
            64
  3
Center_Dash_Dash
 72
            65
 73
             6
 40
14.0
 49
9.0
 74
             0
 49
-1.0
 74
             0
 49
1.0
 74
             0
 49
-1.0
 74
             0
 49
1.0
 74
             0
 49
-1.0
 74
             0
  0
ENDTAB
  0
TABLE
  2
LAYER
  5
2
100
AcDbSymbolTable
 70
             2
  0
LAYER
  5
14
100
AcDbSymbolTableRecord
100
AcDbLayerTableRecord
  2
0
 70
             0
 62
             7
  6
CONTINUOUS
  0
LAYER
  5
24
100
AcDbSymbolTableRecord
100
AcDbLayerTableRecord
  2
1
 70
             0
 62
             7
  6
CONTINUOUS
  0
ENDTAB
  0
TABLE
  2
STYLE
  5
3
100
AcDbSymbolTable
 70
             2
  0
STYLE
  5
17
100
AcDbSymbolTableRecord
100
AcDbTextStyleTableRecord
  2
STANDARD
 70
             0
 40
0.0
 41
1.0
 50
0.0
 71
             0
 42
0.0
  3
txt
  4

  0
STYLE
  5
BB
100
AcDbSymbolTableRecord
100
AcDbTextStyleTableRecord
  2
CONVERTER_1
 70
             0
 40
0.0
 41
0.9
 50
0.0
 71
             0
 42
0.0
  3
txt.shx
  4

  0
ENDTAB
  0
TABLE
  2
VIEW
  5
5
100
AcDbSymbolTable
 70
             0
  0
ENDTAB
  0
TABLE
  2
UCS
  5
6
100
AcDbSymbolTable
 70
             0
  0
ENDTAB
  0
TABLE
  2
APPID
  5
8
100
AcDbSymbolTable
 70
             1
  0
APPID
  5
16
100
AcDbSymbolTableRecord
100
AcDbRegAppTableRecord
  2
ACAD
 70
             0
  0
ENDTAB
  0
TABLE
  2
DIMSTYLE
  5
9
100
AcDbSymbolTable
 70
             3
  0
DIMSTYLE
105
18
100
AcDbSymbolTableRecord
100
AcDbDimStyleTableRecord
  2
STANDARD
 70
             0
  3

  4

  5

  6

  7

 40
1.0
 41
0.18
 42
0.0625
 43
0.38
 44
0.18
 45
0.0
 46
0.0
 47
0.0
 48
0.0
 71
             0
 72
             0
 73
             1
 74
             1
 75
             0
 76
             0
 77
             0
 78
             0
140
0.18
141
0.09
142
0.0
143
25.4
144
1.0
145
0.0
146
1.0
147
0.09
170
             0
171
             2
172
             0
173
             0
174
             0
175
             0
176
             0
177
             0
178
             0
270
             2
271
             4
272
             4
273
             2
274
             2
275
             0
280
             0
281
             0
282
             0
283
             1
284
             0
285
             0
286
             0
287
             3
288
             0
340
17
  0
DIMSTYLE
105
BE
100
AcDbSymbolTableRecord
100
AcDbDimStyleTableRecord
  2
ME10_DIM_0
 70
             0
  3

  4

  5

  6

  7

 40
1.0
 41
5.0
 42
0.0
 43
0.38
 44
2.0
 45
0.0
 46
0.0
 47
0.0
 48
0.0
 71
             0
 72
             0
 73
             0
 74
             0
 75
             0
 76
             0
 77
             1
 78
             8
140
5.0
141
0.09
142
0.0
143
25.4
144
1.0
145
0.0
146
1.0
147
0.625
170
             0
171
             2
172
             1
173
             1
174
             0
175
             0
176
             4
177
             4
178
             1
270
             2
271
             2
272
             4
273
             2
274
             2
275
             0
280
             0
281
             0
282
             0
283
             1
284
             0
285
             0
286
             0
287
             3
288
             0
340
BB
  0
DIMSTYLE
105
C9
100
AcDbSymbolTableRecord
100
AcDbDimStyleTableRecord
  2
ME10_DIM_1
 70
             0
  3
DN<>
  4

  5

  6

  7

 40
1.0
 41
5.0
 42
0.0
 43
0.38
 44
2.0
 45
0.0
 46
0.0
 47
0.0
 48
0.0
 71
             0
 72
             0
 73
             0
 74
             0
 75
             0
 76
             0
 77
             1
 78
             8
140
5.0
141
0.09
142
0.0
143
25.4
144
1.0
145
0.0
146
1.0
147
0.625
170
             0
171
             2
172
             1
173
             1
174
             0
175
             0
176
             4
177
             4
178
             1
270
             2
271
             2
272
             4
273
             2
274
             2
275
             0
280
             0
281
             0
282
             0
283
             1
284
             0
285
             0
286
             0
287
             3
288
             0
340
BB
  0
ENDTAB
  0
TABLE
  2
BLOCK_RECORD
  5
1
100
AcDbSymbolTable
 70
             5
  0
BLOCK_RECORD
  5
A
100
AcDbSymbolTableRecord
100
AcDbBlockTableRecord
  2
*MODEL_SPACE
  0
BLOCK_RECORD
  5
B
100
AcDbSymbolTableRecord
100
AcDbBlockTableRecord
  2
*PAPER_SPACE
  0
BLOCK_RECORD
  5
25
100
AcDbSymbolTableRecord
100
AcDbBlockTableRecord
  2
MUTTERDN110-ARTIKEL
  0
BLOCK_RECORD
  5
27
100
AcDbSymbolTableRecord
100
AcDbBlockTableRecord
  2
BITUMENFOLIE-DN110
  0
BLOCK_RECORD
  5
29
100
AcDbSymbolTableRecord
100
AcDbBlockTableRecord
  2
DICHTUNG_DN110_ROHRDURRUNG
  0
BLOCK_RECORD
  5
B4
100
AcDbSymbolTableRecord
100
AcDbBlockTableRecord
  2
*D3
  0
BLOCK_RECORD
  5
C0
100
AcDbSymbolTableRecord
100
AcDbBlockTableRecord
  2
*D4
  0
ENDTAB
  0
ENDSEC
  0
SECTION
  2
BLOCKS
  0
BLOCK
  5
D
100
AcDbEntity
  8
0
100
AcDbBlockBegin
  2
*MODEL_SPACE
 70
             0
 10
0.0
 20
0.0
 30
0.0
  3
*MODEL_SPACE
  1

  0
ENDBLK
  5
E
100
AcDbEntity
  8
0
100
AcDbBlockEnd
  0
BLOCK
  5
F
100
AcDbEntity
 67
             1
  8
0
100
AcDbBlockBegin
  2
*PAPER_SPACE
 70
             0
 10
0.0
 20
0.0
 30
0.0
  3
*PAPER_SPACE
  1

  0
ENDBLK
  5
10
100
AcDbEntity
 67
             1
  8
0
100
AcDbBlockEnd
  0
BLOCK
  5
26
100
AcDbEntity
  8
0
100
AcDbBlockBegin
  2
MUTTERDN110-ARTIKEL
 70
             0
 10
-11510.10616020302
 20
-16409.319703945101
 30
0.0
  3
MUTTERDN110-ARTIKEL
  1

  0
SPLINE
  5
8F
100
AcDbEntity
  8
0
  6
CONTINUOUS
 62
             7
100
AcDbSpline
210
0.0
220
0.0
230
1.0
 70
             0
 71
             3
 72
            29
 73
            25
 74
            17
 42
0.00000000001
 43
0.00000000001
 44
0.00000000001
 40
0.0
 40
0.0
 40
0.0
 40
0.0
 40
0.1301314933409235
 40
0.1301314933409235
 40
0.1301314933409235
 40
0.2905145378394834
 40
0.2905145378394834
 40
0.2905145378394834
 40
0.4463966206855869
 40
0.4463966206855869
 40
0.4463966206855869
 40
0.5214336387919787
 40
0.5214336387919787
 40
0.5214336387919787
 40
0.595279800945985
 40
0.595279800945985
 40
0.595279800945985
 40
0.6967380517728129
 40
0.6967380517728129
 40
0.6967380517728129
 40
0.7755461319369413
 40
0.7755461319369413
 40
0.7755461319369413
 40
0.855497230548536
 40
0.855497230548536
 40
0.855497230548536
 40
0.855497230548536
 10
-11492.47389107768
 20
-17115.754245349541
 30
0.0
 10
-11492.517451400579
 20
-17115.76008182544
 30
0.0
 10
-11492.56089108338
 20
-17115.76324038245
 30
0.0
 10
-11492.60361892859
 20
-17115.76367576659
 30
0.0
 10
-11492.65886477696
 20
-17115.764238705498
 30
0.0
 10
-11492.71253290367
 20
-17115.760245207839
 30
0.0
 10
-11492.76340803667
 20
-17115.751787511079
 30
0.0
 10
-11492.829378112119
 20
-17115.740820367399
 30
0.0
 10
-11492.879173813461
 20
-17115.724260083949
 30
0.0
 10
-11492.913424246901
 20
-17115.71031098095
 30
0.0
 10
-11492.9401831539
 20
-17115.699412936399
 30
0.0
 10
-11492.96249578435
 20
-17115.688048746521
 30
0.0
 10
-11492.98081103786
 20
-17115.67740605379
 30
0.0
 10
-11493.002891653419
 20
-17115.664575371069
 30
0.0
 10
-11493.023129923249
 20
-17115.650487514798
 30
0.0
 10
-11493.0413662868
 20
-17115.63525677623
 30
0.0
 10
-11493.06865407292
 20
-17115.612466424649
 30
0.0
 10
-11493.09132652436
 20
-17115.58722824803
 30
0.0
 10
-11493.10898274098
 20
-17115.559996608859
 30
0.0
 10
-11493.125862419831
 20
-17115.53396264396
 30
0.0
 10
-11493.13598414021
 20
-17115.509460058751
 30
0.0
 10
-11493.14221932798
 20
-17115.48875814124
 30
0.0
 10
-11493.14859138152
 20
-17115.467601805369
 30
0.0
 10
-11493.15371706672
 20
-17115.44107677443
 30
0.0
 10
-11493.153556290141
 20
-17115.4098399877
 30
0.0
 11
-11492.47389107768
 21
-17115.754245349541
 31
0.0
 11
-11492.53906718227
 21
-17115.760985967474
 31
0.0
 11
-11492.60361892859
 21
-17115.76367576659
 31
0.0
 11
-11492.685152500893
 21
-17115.761114377208
 31
0.0
 11
-11492.76340803667
 21
-17115.751787511079
 31
0.0
 11
-11492.850311007538
 21
-17115.732167480757
 31
0.0
 11
-11492.913424246901
 21
-17115.71031098095
 31
0.0
 11
-11492.950284012439
 21
-17115.693762760438
 31
0.0
 11
-11492.98081103786
 21
-17115.67740605379
 31
0.0
 11
-11493.012530256832
 21
-17115.657231435955
 31
0.0
 11
-11493.0413662868
 21
-17115.63525677623
 31
0.0
 11
-11493.078786352453
 21
-17115.59929217539
 31
0.0
 11
-11493.10898274098
 21
-17115.559996608859
 31
0.0
 11
-11493.129592718637
 21
-17115.52237785728
 31
0.0
 11
-11493.14221932798
 21
-17115.48875814124
 31
0.0
 11
-11493.150337620355
 21
-17115.453079233539
 31
0.0
 11
-11493.153556290141
 21
-17115.4098399877
 31
0.0
  0
SPLINE
  5
8E
100
AcDbEntity
  8
0
  6
CONTINUOUS
 62
             7
100
AcDbSpline
210
0.0
220
0.0
230
1.0
 70
             0
 71
             3
 72
            20
 73
            16
 74
            11
 42
0.00000000001
 43
0.00000000001
 44
0.00000000001
 40
0.0
 40
0.0
 40
0.0
 40
0.0
 40
0.0102603272495579
 40
0.0102603272495579
 40
0.0102603272495579
 40
0.0892604600879309
 40
0.0892604600879309
 40
0.0892604600879309
 40
0.1719560019910081
 40
0.1719560019910081
 40
0.1719560019910081
 40
0.2629236066679019
 40
0.2629236066679019
 40
0.2629236066679019
 40
0.3565377899336479
 40
0.3565377899336479
 40
0.3565377899336479
 40
0.3565377899336479
 10
-11493.153556290141
 20
-17114.543814583849
 30
0.0
 10
-11493.15357400591
 20
-17114.540403325522
 30
0.0
 10
-11493.15352777579
 20
-17114.536983443679
 30
0.0
 10
-11493.153417571149
 20
-17114.53355564133
 30
0.0
 10
-11493.15246985729
 20
-17114.504077972379
 30
0.0
 10
-11493.14691003436
 20
-17114.47769099104
 30
0.0
 10
-11493.14026200992
 20
-17114.455832236239
 30
0.0
 10
-11493.132548310459
 20
-17114.430469533851
 30
0.0
 10
-11493.121524140221
 20
-17114.405139766001
 30
0.0
 10
-11493.107306788401
 20
-17114.380125056789
 30
0.0
 10
-11493.09522883283
 20
-17114.358874506739
 30
0.0
 10
-11493.078424278159
 20
-17114.333588052021
 30
0.0
 10
-11493.05486146687
 20
-17114.305920732109
 30
0.0
 10
-11493.038300359871
 20
-17114.28647477382
 30
0.0
 10
-11493.01670145571
 20
-17114.2638569929
 30
0.0
 10
-11492.988796216519
 20
-17114.239690346851
 30
0.0
 11
-11493.153556290141
 21
-17114.543814583849
 31
0.0
 11
-11493.153534900797
 21
-17114.538691316597
 31
0.0
 11
-11493.153417571149
 21
-17114.53355564133
 31
0.0
 11
-11493.148977407003
 21
-17114.491836845977
 31
0.0
 11
-11493.14026200992
 21
-17114.455832236239
 31
0.0
 11
-11493.126223268795
 21
-17114.417848149071
 31
0.0
 11
-11493.107306788401
 21
-17114.380125056789
 31
0.0
 11
-11493.08539094853
 21
-17114.345429183148
 31
0.0
 11
-11493.05486146687
 21
-17114.305920732109
 31
0.0
 11
-11493.026082891269
 21
-17114.27457579739
 31
0.0
 11
-11492.988796216519
 21
-17114.239690346851
 31
0.0
  0
SPLINE
  5
8D
100
AcDbEntity
  8
0
  6
CONTINUOUS
 62
             7
100
AcDbSpline
210
0.0
220
0.0
230
1.0
 70
             0
 71
             3
 72
             8
 73
             4
 74
             3
 42
0.00000000001
 43
0.00000000001
 44
0.00000000001
 40
0.0
 40
0.0
 40
0.0
 40
0.0
 40
1.0
 40
1.0
 40
1.0
 40
1.0
 10
-11493.153556290141
 20
-17115.4098399877
 30
0.0
 10
-11493.15206384076
 20
-17115.119876590379
 30
0.0
 10
-11493.15206384076
 20
-17114.831192983071
 30
0.0
 10
-11493.153556290141
 20
-17114.543814583849
 30
0.0
 11
-11493.153556290141
 21
-17115.4098399877
 31
0.0
 11
-11493.152436953105
 21
-17114.975857911486
 31
0.0
 11
-11493.153556290141
 21
-17114.543814583849
 31
0.0
  0
SPLINE
  5
8C
100
AcDbEntity
  8
0
  6
CONTINUOUS
 62
             7
100
AcDbSpline
210
0.0
220
0.0
230
1.0
 70
             0
 71
             3
 72
            11
 73
             7
 74
             5
 42
0.00000000001
 43
0.00000000001
 44
0.00000000001
 40
2.861748680251214
 40
2.861748680251214
 40
2.861748680251214
 40
2.861748680251214
 40
25.86883972629305
 40
25.86883972629305
 40
25.86883972629305
 40
51.737664189285752
 40
51.737664189285752
 40
51.737664189285752
 40
51.737664189285752
 10
-11444.131146827051
 20
-17109.2770719418
 30
0.0
 10
-11451.96699785999
 20
-17110.3269425861
 30
0.0
 10
-11459.53003636002
 20
-17111.340265621729
 30
0.0
 10
-11466.83418503696
 20
-17112.31890646628
 30
0.0
 10
-11475.75242981763
 20
-17113.513810758352
 30
0.0
 10
-11484.29108806066
 20
-17114.657863838649
 30
0.0
 10
-11492.47389107768
 20
-17115.754245349541
 30
0.0
 11
-11444.131146827051
 21
-17109.2770719418
 31
0.0
 11
-11455.682054315506
 21
-17110.824700378944
 31
0.0
 11
-11466.83418503696
 21
-17112.31890646628
 31
0.0
 11
-11479.92982871869
 21
-17114.07352195085
 31
0.0
 11
-11492.47389107768
 21
-17115.754245349541
 31
0.0
  0
SPLINE
  5
8B
100
AcDbEntity
  8
0
  6
CONTINUOUS
 62
             3
100
AcDbSpline
210
0.0
220
0.0
230
1.0
 70
             0
 71
             3
 72
            10
 73
             6
 74
             5
 42
0.00000000001
 43
0.00000000001
 44
0.00000000001
 40
0.0
 40
0.0
 40
0.0
 40
0.0
 40
1.0
 40
1.0
 40
2.0
 40
2.0
 40
2.0
 40
2.0
 10
-11473.00880766694
 20
-17204.73573170618
 30
0.0
 10
-11473.00880766694
 20
-17204.81062943532
 30
0.0
 10
-11473.003001533019
 20
-17204.873413703532
 30
0.0
 10
-11472.980911844241
 20
-17204.96248372148
 30
0.0
 10
-11472.96500552651
 20
-17204.987248376128
 30
0.0
 10
-11472.94579223244
 20
-17204.989822469441
 30
0.0
 11
-11473.00880766694
 21
-17204.73573170618
 31
0.0
 11
-11473.00452399443
 21
-17204.838226229407
 31
0.0
 11
-11472.991956688631
 21
-17204.917948712507
 31
0.0
 11
-11472.971937629165
 21
-17204.969620934346
 31
0.0
 11
-11472.94579223244
 21
-17204.989822469441
 31
0.0
  0
SPLINE
  5
8A
100
AcDbEntity
  8
0
  6
CONTINUOUS
 62
             3
100
AcDbSpline
210
0.0
220
0.0
230
1.0
 70
             0
 71
             3
 72
            12
 73
             8
 74
             7
 42
0.00000000001
 43
0.00000000001
 44
0.00000000001
 40
0.0
 40
0.0
 40
0.0
 40
0.0
 40
1.0
 40
1.0
 40
2.0
 40
2.0
 40
3.0
 40
3.0
 40
3.0
 40
3.0
 10
-11481.683890345281
 20
-17199.817249903321
 30
0.0
 10
-11481.75989935548
 20
-17199.839191814579
 30
0.0
 10
-11481.83457096247
 20
-17199.880755847571
 30
0.0
 10
-11481.96622242997
 20
-17199.994769362878
 30
0.0
 10
-11482.02088584018
 20
-17200.06521274037
 30
0.0
 10
-11482.09689485038
 20
-17200.21880611913
 30
0.0
 10
-11482.11690304717
 20
-17200.299253595022
 30
0.0
 10
-11482.11690304717
 20
-17200.375262605219
 30
0.0
 11
-11481.683890345281
 21
-17199.817249903321
 31
0.0
 11
-11481.795962249418
 21
-17199.864356936872
 31
0.0
 11
-11481.900396696219
 21
-17199.937762605223
 31
0.0
 11
-11481.990076481494
 21
-17200.03246479309
 31
0.0
 11
-11482.058890345281
 21
-17200.14200942975
 31
0.0
 11
-11482.102148385637
 21
-17200.25893139718
 31
0.0
 11
-11482.11690304717
 21
-17200.375262605219
 31
0.0
  0
SPLINE
  5
89
100
AcDbEntity
  8
0
  6
CONTINUOUS
 62
             3
100
AcDbSpline
210
0.0
220
0.0
230
1.0
 70
             0
 71
             3
 72
             8
 73
             4
 74
             3
 42
0.00000000001
 43
0.00000000001
 44
0.00000000001
 40
0.0
 40
0.0
 40
0.0
 40
0.0
 40
1.0
 40
1.0
 40
1.0
 40
1.0
 10
-11482.11690304717
 20
-17201.241288009009
 30
0.0
 10
-11482.11690304717
 20
-17201.345409801212
 30
0.0
 10
-11482.079380894091
 20
-17201.43522097453
 30
0.0
 10
-11482.01121718063
 20
-17201.494252482011
 30
0.0
 11
-11482.11690304717
 21
-17201.241288009009
 31
0.0
 11
-11482.089621506448
 21
-17201.384679102281
 31
0.0
 11
-11482.01121718063
 21
-17201.494252482011
 31
0.0
  0
SPLINE
  5
88
100
AcDbEntity
  8
0
  6
CONTINUOUS
 62
             3
100
AcDbSpline
210
0.0
220
0.0
230
1.0
 70
             0
 71
             3
 72
            12
 73
             8
 74
             7
 42
0.00000000001
 43
0.00000000001
 44
0.00000000001
 40
0.0
 40
0.0
 40
0.0
 40
0.0
 40
1.0
 40
1.0
 40
2.0
 40
2.0
 40
3.0
 40
3.0
 40
3.0
 40
3.0
 10
-11472.879398144391
 20
-17203.195212143921
 30
0.0
 10
-11472.902114082461
 20
-17203.23760066144
 30
0.0
 10
-11472.924430326229
 20
-17203.299251536009
 30
0.0
 10
-11472.96377548511
 20
-17203.4486796122
 30
0.0
 10
-11472.980112109381
 20
-17203.5338275783
 30
0.0
 10
-11473.002828047451
 20
-17203.707867563309
 30
0.0
 10
-11473.00880766694
 20
-17203.793697292189
 30
0.0
 10
-11473.00880766694
 20
-17203.86970630239
 30
0.0
 11
-11472.879398144391
 21
-17203.195212143921
 31
0.0
 11
-11472.912891784516
 21
-17203.272466788796
 31
0.0
 11
-11472.944102905669
 21
-17203.373965574105
 31
0.0
 11
-11472.970904470945
 21
-17203.492791839552
 31
0.0
 11
-11472.991470078416
 21
-17203.620847570804
 31
0.0
 11
-11473.004398111065
 21
-17203.749406054962
 31
0.0
 11
-11473.00880766694
 21
-17203.86970630239
 31
0.0
  0
SPLINE
  5
87
100
AcDbEntity
  8
0
  6
CONTINUOUS
 62
             3
100
AcDbSpline
210
0.0
220
0.0
230
1.0
 70
             0
 71
             3
 72
            10
 73
             6
 74
             5
 42
0.00000000001
 43
0.00000000001
 44
0.00000000001
 40
0.0
 40
0.0
 40
0.0
 40
0.0
 40
1.0
 40
1.0
 40
2.0
 40
2.0
 40
2.0
 40
2.0
 10
-11482.11690304717
 20
-17201.241288009009
 30
0.0
 10
-11481.13199144481
 20
-17202.094246477129
 30
0.0
 10
-11479.820709244779
 20
-17202.841861866698
 30
0.0
 10
-11476.695177606291
 20
-17204.04101425569
 30
0.0
 10
-11474.9115107736
 20
-17204.480817825741
 30
0.0
 10
-11473.00880766694
 20
-17204.73573170618
 30
0.0
 11
-11482.11690304717
 21
-17201.241288009009
 31
0.0
 11
-11480.404118567683
 21
-17202.43638138771
 31
0.0
 11
-11478.257943425535
 21
-17203.441438061192
 31
0.0
 11
-11475.760852029018
 21
-17204.21783325146
 31
0.0
 11
-11473.00880766694
 21
-17204.73573170618
 31
0.0
  0
SPLINE
  5
86
100
AcDbEntity
  8
0
  6
CONTINUOUS
 62
             3
100
AcDbSpline
210
0.0
220
0.0
230
1.0
 70
             0
 71
             3
 72
            10
 73
             6
 74
             5
 42
0.00000000001
 43
0.00000000001
 44
0.00000000001
 40
0.0
 40
0.0
 40
0.0
 40
0.0
 40
1.0
 40
1.0
 40
2.0
 40
2.0
 40
2.0
 40
2.0
 10
-11482.11690304717
 20
-17200.375262605219
 30
0.0
 10
-11481.13199144481
 20
-17201.22822107335
 30
0.0
 10
-11479.820709244779
 20
-17201.975836462909
 30
0.0
 10
-11476.695177606291
 20
-17203.174988851901
 30
0.0
 10
-11474.9115107736
 20
-17203.614792421959
 30
0.0
 10
-11473.00880766694
 20
-17203.86970630239
 30
0.0
 11
-11482.11690304717
 21
-17200.375262605219
 31
0.0
 11
-11480.404118567683
 21
-17201.570355983924
 31
0.0
 11
-11478.257943425535
 21
-17202.575412657403
 31
0.0
 11
-11475.760852029018
 21
-17203.351807847674
 31
0.0
 11
-11473.00880766694
 21
-17203.86970630239
 31
0.0
  0
SPLINE
  5
85
100
AcDbEntity
  8
0
  6
CONTINUOUS
 62
             3
100
AcDbSpline
210
0.0
220
0.0
230
1.0
 70
             0
 71
             3
 72
            10
 73
             6
 74
             5
 42
0.00000000001
 43
0.00000000001
 44
0.00000000001
 40
0.0
 40
0.0
 40
0.0
 40
0.0
 40
1.0
 40
1.0
 40
2.0
 40
2.0
 40
2.0
 40
2.0
 10
-11481.683890345281
 20
-17199.817249903321
 30
0.0
 10
-11480.731809129669
 20
-17200.641776422519
 30
0.0
 10
-11479.4642363363
 20
-17201.36447129909
 30
0.0
 10
-11476.44288908576
 20
-17202.523651941789
 30
0.0
 10
-11474.71867781416
 20
-17202.94879539284
 30
0.0
 10
-11472.879398144391
 20
-17203.195212143921
 30
0.0
 11
-11481.683890345281
 21
-17199.817249903321
 31
0.0
 11
-11480.028198681777
 21
-17200.972506836075
 31
0.0
 11
-11477.953562711031
 21
-17201.944061620437
 31
0.0
 11
-11475.539707694397
 21
-17202.694576971029
 31
0.0
 11
-11472.879398144391
 21
-17203.195212143921
 31
0.0
  0
SPLINE
  5
84
100
AcDbEntity
  8
0
  6
CONTINUOUS
 62
             7
100
AcDbSpline
210
0.0
220
0.0
230
1.0
 70
             0
 71
             3
 72
            11
 73
             7
 74
             5
 42
0.00000000001
 43
0.00000000001
 44
0.00000000001
 40
2.8612855504099288
 40
2.8612855504099288
 40
2.8612855504099288
 40
2.8612855504099288
 40
25.868839726292951
 40
25.868839726292951
 40
25.868839726292951
 40
51.73766418928561
 40
51.73766418928561
 40
51.73766418928561
 40
51.73766418928561
 10
-11444.131146827051
 20
-17196.95000856994
 30
0.0
 10
-11451.96826639794
 20
-17195.89996796316
 30
0.0
 10
-11459.53121786581
 20
-17194.886656586848
 30
0.0
 10
-11466.83418503696
 20
-17193.90817404546
 30
0.0
 10
-11475.7524369232
 20
-17192.71326880137
 30
0.0
 10
-11484.291094570681
 20
-17191.569215800839
 30
0.0
 10
-11492.47389107768
 20
-17190.472835162222
 30
0.0
 11
-11444.131146827051
 21
-17196.95000856994
 31
0.0
 11
-11455.682973081908
 21
-17195.40225703318
 31
0.0
 11
-11466.83418503696
 21
-17193.90817404546
 31
0.0
 11
-11479.929833824535
 21
-17192.153557876791
 31
0.0
 11
-11492.47389107768
 21
-17190.472835162222
 31
0.0
  0
SPLINE
  5
83
100
AcDbEntity
  8
0
  6
CONTINUOUS
 62
             7
100
AcDbSpline
210
0.0
220
0.0
230
1.0
 70
             0
 71
             3
 72
            11
 73
             7
 74
             5
 42
0.00000000001
 43
0.00000000001
 44
0.00000000001
 40
2.9364961669731229
 40
2.9364961669731229
 40
2.9364961669731229
 40
2.9364961669731229
 40
26.54431650189127
 40
26.54431650189127
 40
26.54431650189127
 40
53.088633008927971
 40
53.088633008927971
 40
53.088633008927971
 40
53.088633008927971
 10
-11444.131146827051
 20
-17242.51852769158
 30
0.0
 10
-11451.966937406311
 20
-17240.418802602519
 30
0.0
 10
-11459.529980063189
 20
-17238.392155417499
 30
0.0
 10
-11466.83418503696
 20
-17236.434858642639
 30
0.0
 10
-11475.75243464395
 20
-17234.045048765201
 30
0.0
 10
-11484.291092511779
 20
-17231.756942705109
 30
0.0
 10
-11492.47389107768
 20
-17229.564180876139
 30
0.0
 11
-11444.131146827051
 21
-17242.51852769158
 31
0.0
 11
-11455.682010534063
 21
-17239.423282549287
 31
0.0
 11
-11466.83418503696
 21
-17236.434858642639
 31
0.0
 11
-11479.929832197726
 21
-17232.925626741209
 31
0.0
 11
-11492.47389107768
 21
-17229.564180876139
 31
0.0
  0
SPLINE
  5
82
100
AcDbEntity
  8
0
  6
CONTINUOUS
 62
             3
100
AcDbSpline
210
0.0
220
0.0
230
1.0
 70
             0
 71
             3
 72
            10
 73
             6
 74
             5
 42
0.00000000001
 43
0.00000000001
 44
0.00000000001
 40
0.0
 40
0.0
 40
0.0
 40
0.0
 40
1.0
 40
1.0
 40
2.0
 40
2.0
 40
2.0
 40
2.0
 10
-11482.11690304717
 20
-17104.985792502739
 30
0.0
 10
-11481.13199144481
 20
-17104.132834034619
 30
0.0
 10
-11479.820709244779
 20
-17103.385218645049
 30
0.0
 10
-11476.695177606291
 20
-17102.186066256061
 30
0.0
 10
-11474.9115107736
 20
-17101.746262686
 30
0.0
 10
-11473.00880766694
 20
-17101.491348805572
 30
0.0
 11
-11482.11690304717
 21
-17104.985792502739
 31
0.0
 11
-11480.404118567683
 21
-17103.790699124038
 31
0.0
 11
-11478.257943425535
 21
-17102.785642450555
 31
0.0
 11
-11475.760852029018
 21
-17102.009247260288
 31
0.0
 11
-11473.00880766694
 21
-17101.491348805572
 31
0.0
  0
SPLINE
  5
81
100
AcDbEntity
  8
0
  6
CONTINUOUS
 62
             3
100
AcDbSpline
210
0.0
220
0.0
230
1.0
 70
             0
 71
             3
 72
            12
 73
             8
 74
             7
 42
0.00000000001
 43
0.00000000001
 44
0.00000000001
 40
0.0
 40
0.0
 40
0.0
 40
0.0
 40
1.0
 40
1.0
 40
2.0
 40
2.0
 40
3.0
 40
3.0
 40
3.0
 40
3.0
 10
-11473.00880766694
 20
-17102.35737420935
 30
0.0
 10
-11473.00880766694
 20
-17102.433383219559
 30
0.0
 10
-11473.002828047451
 20
-17102.519212948439
 30
0.0
 10
-11472.980112109381
 20
-17102.693252933441
 30
0.0
 10
-11472.96377548511
 20
-17102.77840089954
 30
0.0
 10
-11472.924430326229
 20
-17102.927828975739
 30
0.0
 10
-11472.902114082461
 20
-17102.989479850308
 30
0.0
 10
-11472.879398144391
 20
-17103.03186836782
 30
0.0
 11
-11473.00880766694
 21
-17102.35737420935
 31
0.0
 11
-11473.004398111067
 21
-17102.477674456786
 31
0.0
 11
-11472.991470078416
 21
-17102.60623294094
 31
0.0
 11
-11472.970904470945
 21
-17102.734288672189
 31
0.0
 11
-11472.944102905669
 21
-17102.853114937639
 31
0.0
 11
-11472.912891784517
 21
-17102.954613722948
 31
0.0
 11
-11472.879398144391
 21
-17103.03186836782
 31
0.0
  0
SPLINE
  5
80
100
AcDbEntity
  8
0
  6
CONTINUOUS
 62
             3
100
AcDbSpline
210
0.0
220
0.0
230
1.0
 70
             0
 71
             3
 72
            10
 73
             6
 74
             5
 42
0.00000000001
 43
0.00000000001
 44
0.00000000001
 40
0.0
 40
0.0
 40
0.0
 40
0.0
 40
1.0
 40
1.0
 40
2.0
 40
2.0
 40
2.0
 40
2.0
 10
-11481.683890345281
 20
-17106.40983060842
 30
0.0
 10
-11480.731809129669
 20
-17105.585304089229
 30
0.0
 10
-11479.4642363363
 20
-17104.862609212651
 30
0.0
 10
-11476.44288908576
 20
-17103.703428569959
 30
0.0
 10
-11474.71867781416
 20
-17103.2782851189
 30
0.0
 10
-11472.879398144391
 20
-17103.03186836782
 30
0.0
 11
-11481.683890345281
 21
-17106.40983060842
 31
0.0
 11
-11480.028198681777
 21
-17105.254573675669
 31
0.0
 11
-11477.953562711031
 21
-17104.283018891307
 31
0.0
 11
-11475.539707694397
 21
-17103.532503540715
 31
0.0
 11
-11472.879398144391
 21
-17103.03186836782
 31
0.0
  0
SPLINE
  5
7F
100
AcDbEntity
  8
0
  6
CONTINUOUS
 62
             3
100
AcDbSpline
210
0.0
220
0.0
230
1.0
 70
             0
 71
             3
 72
            10
 73
             6
 74
             5
 42
0.00000000001
 43
0.00000000001
 44
0.00000000001
 40
0.0
 40
0.0
 40
0.0
 40
0.0
 40
1.0
 40
1.0
 40
2.0
 40
2.0
 40
2.0
 40
2.0
 10
-11482.11690304717
 20
-17105.851817906529
 30
0.0
 10
-11481.13199144481
 20
-17104.998859438401
 30
0.0
 10
-11479.820709244779
 20
-17104.251244048839
 30
0.0
 10
-11476.695177606291
 20
-17103.05209165984
 30
0.0
 10
-11474.9115107736
 20
-17102.612288089789
 30
0.0
 10
-11473.00880766694
 20
-17102.35737420935
 30
0.0
 11
-11482.11690304717
 21
-17105.851817906529
 31
0.0
 11
-11480.404118567683
 21
-17104.656724527824
 31
0.0
 11
-11478.257943425535
 21
-17103.651667854341
 31
0.0
 11
-11475.760852029018
 21
-17102.875272664074
 31
0.0
 11
-11473.00880766694
 21
-17102.35737420935
 31
0.0
  0
SPLINE
  5
7E
100
AcDbEntity
  8
0
  6
CONTINUOUS
 62
             7
100
AcDbSpline
210
0.0
220
0.0
230
1.0
 70
             0
 71
             3
 72
            17
 73
            13
 74
             9
 42
0.00000000001
 43
0.00000000001
 44
0.00000000001
 40
0.0
 40
0.0
 40
0.0
 40
0.0
 40
3.83428110546767
 40
3.83428110546767
 40
3.83428110546767
 40
5.1229887461430881
 40
5.1229887461430881
 40
5.1229887461430881
 40
6.5592346712512244
 40
6.5592346712512244
 40
6.5592346712512244
 40
9.8386723809915271
 40
9.8386723809915271
 40
9.8386723809915271
 40
9.8386723809915271
 10
-11482.01121718063
 20
-17104.73282802973
 30
0.0
 10
-11481.140485648861
 20
-17103.978752403342
 30
0.0
 10
-11480.03099487235
 20
-17103.313980133349
 30
0.0
 10
-11478.735829649821
 20
-17102.76129172846
 30
0.0
 10
-11478.31816276017
 20
-17102.58305991449
 30
0.0
 10
-11477.912646816911
 20
-17102.42990955367
 30
0.0
 10
-11477.533187138941
 20
-17102.29879731093
 30
0.0
 10
-11477.133140581729
 20
-17102.160571817261
 30
0.0
 10
-11476.67568245959
 20
-17102.016996893119
 30
0.0
 10
-11476.16033931657
 20
-17101.877501347521
 30
0.0
 10
-11475.14070019851
 20
-17101.601500556579
 30
0.0
 10
-11474.061851897161
 20
-17101.38678168524
 30
0.0
 10
-11472.94579223244
 20
-17101.237258042311
 30
0.0
 11
-11482.01121718063
 21
-17104.73282802973
 31
0.0
 11
-11480.532686049261
 21
-17103.671539671035
 31
0.0
 11
-11478.735829649821
 21
-17102.76129172846
 31
0.0
 11
-11478.120180690001
 21
-17102.512374680482
 31
0.0
 11
-11477.533187138941
 21
-17102.29879731093
 31
0.0
 11
-11476.889999447434
 21
-17102.088625598699
 31
0.0
 11
-11476.16033931657
 21
-17101.877501347521
 31
0.0
 11
-11474.589223479503
 21
-17101.509950764412
 31
0.0
 11
-11472.94579223244
 21
-17101.237258042311
 31
0.0
  0
SPLINE
  5
7D
100
AcDbEntity
  8
0
  6
CONTINUOUS
 62
             3
100
AcDbSpline
210
0.0
220
0.0
230
1.0
 70
             0
 71
             3
 72
             8
 73
             4
 74
             3
 42
0.00000000001
 43
0.00000000001
 44
0.00000000001
 40
0.0
 40
0.0
 40
0.0
 40
0.0
 40
1.0
 40
1.0
 40
1.0
 40
1.0
 10
-11482.01121718063
 20
-17104.73282802973
 30
0.0
 10
-11482.079380894091
 20
-17104.791859537199
 30
0.0
 10
-11482.11690304717
 20
-17104.88167071054
 30
0.0
 10
-11482.11690304717
 20
-17104.985792502739
 30
0.0
 11
-11482.01121718063
 21
-17104.73282802973
 31
0.0
 11
-11482.089621506446
 21
-17104.84240140946
 31
0.0
 11
-11482.11690304717
 21
-17104.985792502739
 31
0.0
  0
SPLINE
  5
7C
100
AcDbEntity
  8
0
  6
CONTINUOUS
 62
             3
100
AcDbSpline
210
0.0
220
0.0
230
1.0
 70
             0
 71
             3
 72
            12
 73
             8
 74
             7
 42
0.00000000001
 43
0.00000000001
 44
0.00000000001
 40
0.0
 40
0.0
 40
0.0
 40
0.0
 40
1.0
 40
1.0
 40
2.0
 40
2.0
 40
3.0
 40
3.0
 40
3.0
 40
3.0
 10
-11482.11690304717
 20
-17105.851817906529
 30
0.0
 10
-11482.11690304717
 20
-17105.92782691673
 30
0.0
 10
-11482.09689485038
 20
-17106.008274392621
 30
0.0
 10
-11482.02088584018
 20
-17106.16186777137
 30
0.0
 10
-11481.96622242997
 20
-17106.232311148869
 30
0.0
 10
-11481.83457096247
 20
-17106.34632466417
 30
0.0
 10
-11481.75989935548
 20
-17106.387888697169
 30
0.0
 10
-11481.683890345281
 20
-17106.40983060842
 30
0.0
 11
-11482.11690304717
 21
-17105.851817906529
 31
0.0
 11
-11482.102148385638
 21
-17105.968149114571
 31
0.0
 11
-11482.058890345281
 21
-17106.085071081994
 31
0.0
 11
-11481.990076481496
 21
-17106.194615718654
 31
0.0
 11
-11481.900396696219
 21
-17106.289317906521
 31
0.0
 11
-11481.79596224942
 21
-17106.362723574872
 31
0.0
 11
-11481.683890345281
 21
-17106.40983060842
 31
0.0
  0
SPLINE
  5
7B
100
AcDbEntity
  8
0
  6
CONTINUOUS
 62
             7
100
AcDbSpline
210
0.0
220
0.0
230
1.0
 70
             0
 71
             3
 72
            35
 73
            31
 74
           200
 42
0.00000000001
 43
0.00000000001
 44
0.00000000001
 40
0.0
 40
0.0
 40
0.0
 40
0.0
 40
0.1342742584876155
 40
0.1342742584876155
 40
0.1342742584876155
 40
0.4546675250885961
 40
0.4546675250885961
 40
0.4546675250885961
 40
0.586830594037599
 40
0.586830594037599
 40
0.586830594037599
 40
0.6565991599260754
 40
0.6565991599260754
 40
0.6565991599260754
 40
0.6908278845003719
 40
0.6908278845003719
 40
0.6908278845003719
 40
0.6996097494304951
 40
0.6996097494304951
 40
0.6996097494304951
 40
0.7017792510214067
 40
0.7017792510214067
 40
0.7017792510214067
 40
0.7022919656873538
 40
0.7022919656873538
 40
0.7022919656873538
 40
0.7024068878660579
 40
0.7024068878660579
 40
0.7024068878660579
 40
0.7024459393394253
 40
0.7024459393394253
 40
0.7024459393394253
 40
0.7024459393394253
 10
-11492.47389107768
 20
-17076.662899635608
 30
0.0
 10
-11492.51177038986
 20
-17076.67305023496
 30
0.0
 10
-11492.5555043515
 20
-17076.684739550248
 30
0.0
 10
-11492.60361892859
 20
-17076.697544373608
 30
0.0
 10
-11492.72225105677
 20
-17076.72911616616
 30
0.0
 10
-11492.827503350059
 20
-17076.75682132311
 30
0.0
 10
-11492.913424246901
 20
-17076.779228869818
 30
0.0
 10
-11492.94177955614
 20
-17076.7866237288
 30
0.0
 10
-11492.99201485055
 20
-17076.79969765215
 30
0.0
 10
-11493.0413662868
 20
-17076.812363378722
 30
0.0
 10
-11493.068385270009
 20
-17076.819297625811
 30
0.0
 10
-11493.091169070871
 20
-17076.825090346749
 30
0.0
 10
-11493.10898274098
 20
-17076.829558137779
 30
0.0
 10
-11493.12006769544
 20
-17076.83233832063
 30
0.0
 10
-11493.133101469921
 20
-17076.835576977039
 30
0.0
 10
-11493.14221932799
 20
-17076.83773894397
 30
0.0
 10
-11493.14645017958
 20
-17076.838742135849
 30
0.0
 10
-11493.14910925177
 20
-17076.839340714389
 30
0.0
 10
-11493.150781207671
 20
-17076.839691627749
 30
0.0
 10
-11493.15178840009
 20
-17076.83990301926
 30
0.0
 10
-11493.15247384694
 20
-17076.840032187331
 30
0.0
 10
-11493.152911963651
 20
-17076.84009901468
 30
0.0
 10
-11493.15314138951
 20
-17076.840134009741
 30
0.0
 10
-11493.15331266188
 20
-17076.840153384492
 30
0.0
 10
-11493.15342132283
 20
-17076.84015597661
 30
0.0
 10
-11493.153475352239
 20
-17076.84015726548
 30
0.0
 10
-11493.153513304769
 20
-17076.840154390829
 30
0.0
 10
-11493.15353567957
 20
-17076.84014748532
 30
0.0
 10
-11493.153558178041
 20
-17076.840140541659
 30
0.0
 10
-11493.153565047891
 20
-17076.84012948459
 30
0.0
 10
-11493.153556290141
 20
-17076.840114315721
 30
0.0
 11
-11492.47389107768
 21
-17076.662899635608
 31
0.0
 11
-11492.478287665852
 21
-17076.664077663154
 31
0.0
 11
-11492.482735715173
 21
-17076.665269203466
 31
0.0
 11
-11492.487234722441
 21
-17076.666474112077
 31
0.0
 11
-11492.49178418446
 21
-17076.667692244515
 31
0.0
 11
-11492.496383598031
 21
-17076.668923456302
 31
0.0
 11
-11492.501032459959
 21
-17076.67016760297
 31
0.0
 11
-11492.505730267045
 21
-17076.671424540047
 31
0.0
 11
-11492.51047651609
 21
-17076.672694123059
 31
0.0
 11
-11492.5152707039
 21
-17076.673976207534
 31
0.0
 11
-11492.520112327269
 21
-17076.675270648997
 31
0.0
 11
-11492.525000883006
 21
-17076.676577302977
 31
0.0
 11
-11492.529935867915
 21
-17076.677896025001
 31
0.0
 11
-11492.534916778795
 21
-17076.679226670603
 31
0.0
 11
-11492.539943112442
 21
-17076.680569095304
 31
0.0
 11
-11492.545014365671
 21
-17076.681923154632
 31
0.0
 11
-11492.550130035277
 21
-17076.683288704124
 31
0.0
 11
-11492.555289618062
 21
-17076.684665599289
 31
0.0
 11
-11492.560492610826
 21
-17076.686053695666
 31
0.0
 11
-11492.56573851038
 21
-17076.687452848786
 31
0.0
 11
-11492.571026813517
 21
-17076.688862914169
 31
0.0
 11
-11492.576357017046
 21
-17076.69028374735
 31
0.0
 11
-11492.581728617761
 21
-17076.691715203844
 31
0.0
 11
-11492.587141112475
 21
-17076.693157139198
 31
0.0
 11
-11492.592593997979
 21
-17076.694609408922
 31
0.0
 11
-11492.598086771086
 21
-17076.696071868548
 31
0.0
 11
-11492.60361892859
 21
-17076.697544373608
 31
0.0
 11
-11492.611015961127
 21
-17076.699512563024
 31
0.0
 11
-11492.618377827446
 21
-17076.701470605432
 31
0.0
 11
-11492.625704204665
 21
-17076.703418423214
 31
0.0
 11
-11492.632994769885
 21
-17076.705355938728
 31
0.0
 11
-11492.640249200211
 21
-17076.707283074331
 31
0.0
 11
-11492.647467172754
 21
-17076.709199752397
 31
0.0
 11
-11492.654648364616
 21
-17076.711105895287
 31
0.0
 11
-11492.661792452913
 21
-17076.713001425367
 31
0.0
 11
-11492.668899114746
 21
-17076.714886265003
 31
0.0
 11
-11492.675968027223
 21
-17076.716760336552
 31
0.0
 11
-11492.682998867447
 21
-17076.718623562385
 31
0.0
 11
-11492.689991312534
 21
-17076.720475864866
 31
0.0
 11
-11492.696945039585
 21
-17076.722317166365
 31
0.0
 11
-11492.703859725707
 21
-17076.724147389232
 31
0.0
 11
-11492.710735048011
 21
-17076.725966455848
 31
0.0
 11
-11492.717570683602
 21
-17076.727774288567
 31
0.0
 11
-11492.724366309583
 21
-17076.729570809755
 31
0.0
 11
-11492.731121603068
 21
-17076.731355941782
 31
0.0
 11
-11492.737836241162
 21
-17076.733129607008
 31
0.0
 11
-11492.744509900969
 21
-17076.7348917278
 31
0.0
 11
-11492.7511422596
 21
-17076.736642226519
 31
0.0
 11
-11492.75773299416
 21
-17076.738381025531
 31
0.0
 11
-11492.764281781758
 21
-17076.740108047208
 31
0.0
 11
-11492.770788299496
 21
-17076.741823213906
 31
0.0
 11
-11492.777252224487
 21
-17076.743526447986
 31
0.0
 11
-11492.783673233836
 21
-17076.745217671825
 31
0.0
 11
-11492.790051004653
 21
-17076.746896807785
 31
0.0
 11
-11492.796385214036
 21
-17076.748563778219
 31
0.0
 11
-11492.802675539102
 21
-17076.750218505505
 31
0.0
 11
-11492.808921656957
 21
-17076.751860912002
 31
0.0
 11
-11492.8151232447
 21
-17076.753490920073
 31
0.0
 11
-11492.821279979446
 21
-17076.755108452086
 31
0.0
 11
-11492.827391538303
 21
-17076.756713430408
 31
0.0
 11
-11492.83345759837
 21
-17076.758305777395
 31
0.0
 11
-11492.839477836762
 21
-17076.75988541542
 31
0.0
 11
-11492.845451930585
 21
-17076.761452266845
 31
0.0
 11
-11492.85137955694
 21
-17076.76300625403
 31
0.0
 11
-11492.857260392941
 21
-17076.764547299346
 31
0.0
 11
-11492.863094115695
 21
-17076.766075325158
 31
0.0
 11
-11492.8688804023
 21
-17076.767590253825
 31
0.0
 11
-11492.874618929873
 21
-17076.769092007715
 31
0.0
 11
-11492.88030937552
 21
-17076.770580509194
 31
0.0
 11
-11492.885951416347
 21
-17076.772055680627
 31
0.0
 11
-11492.891544729453
 21
-17076.77351744437
 31
0.0
 11
-11492.897088991958
 21
-17076.774965722798
 31
0.0
 11
-11492.902583880965
 21
-17076.776400438277
 31
0.0
 11
-11492.908029073575
 21
-17076.777821513158
 31
0.0
 11
-11492.913424246901
 21
-17076.779228869818
 31
0.0
 11
-11492.91511727109
 21
-17076.779670365879
 31
0.0
 11
-11492.9168597385
 21
-17076.780124687099
 31
0.0
 11
-11492.918650619486
 21
-17076.780591558145
 31
0.0
 11
-11492.920488884405
 21
-17076.781070703677
 31
0.0
 11
-11492.922373503619
 21
-17076.781561848362
 31
0.0
 11
-11492.924303447484
 21
-17076.782064716863
 31
0.0
 11
-11492.926277686352
 21
-17076.782579033839
 31
0.0
 11
-11492.928295190588
 21
-17076.783104523962
 31
0.0
 11
-11492.93035493055
 21
-17076.78364091189
 31
0.0
 11
-11492.932455876589
 21
-17076.784187922294
 31
0.0
 11
-11492.93459699907
 21
-17076.784745279834
 31
0.0
 11
-11492.936777268347
 21
-17076.785312709177
 31
0.0
 11
-11492.93899565478
 21
-17076.785889934981
 31
0.0
 11
-11492.941251128726
 21
-17076.786476681918
 31
0.0
 11
-11492.943542660543
 21
-17076.787072674644
 31
0.0
 11
-11492.94586922059
 21
-17076.787677637833
 31
0.0
 11
-11492.948229779222
 21
-17076.78829129614
 31
0.0
 11
-11492.950623306799
 21
-17076.788913374232
 31
0.0
 11
-11492.953048773677
 21
-17076.789543596777
 31
0.0
 11
-11492.955505150216
 21
-17076.79018168844
 31
0.0
 11
-11492.957991406774
 21
-17076.790827373876
 31
0.0
 11
-11492.960506513706
 21
-17076.79148037776
 31
0.0
 11
-11492.963049441372
 21
-17076.79214042475
 31
0.0
 11
-11492.96561916013
 21
-17076.792807239508
 31
0.0
 11
-11492.968214640339
 21
-17076.793480546708
 31
0.0
 11
-11492.970834852351
 21
-17076.794160070996
 31
0.0
 11
-11492.973478766529
 21
-17076.794845537061
 31
0.0
 11
-11492.976145353237
 21
-17076.795536669553
 31
0.0
 11
-11492.97883358282
 21
-17076.796233193138
 31
0.0
 11
-11492.981542425639
 21
-17076.79693483247
 31
0.0
 11
-11492.984270852055
 21
-17076.797641312223
 31
0.0
 11
-11492.987017832431
 21
-17076.798352357073
 31
0.0
 11
-11492.989782337118
 21
-17076.799067691671
 31
0.0
 11
-11492.992563336473
 21
-17076.799787040676
 31
0.0
 11
-11492.995359800852
 21
-17076.800510128756
 31
0.0
 11
-11492.998170700626
 21
-17076.801236680589
 31
0.0
 11
-11493.000995006139
 21
-17076.801966420826
 31
0.0
 11
-11493.003831687751
 21
-17076.802699074124
 31
0.0
 11
-11493.006679715825
 21
-17076.803434365163
 31
0.0
 11
-11493.009538060716
 21
-17076.804172018605
 31
0.0
 11
-11493.012405692782
 21
-17076.8049117591
 31
0.0
 11
-11493.015281582382
 21
-17076.805653311334
 31
0.0
 11
-11493.018164699868
 21
-17076.806396399952
 31
0.0
 11
-11493.021054015611
 21
-17076.807140749632
 31
0.0
 11
-11493.023948499955
 21
-17076.807886085026
 31
0.0
 11
-11493.026847123263
 21
-17076.808632130807
 31
0.0
 11
-11493.029748855892
 21
-17076.809378611633
 31
0.0
 11
-11493.032652668207
 21
-17076.810125252177
 31
0.0
 11
-11493.035557530555
 21
-17076.810871777096
 31
0.0
 11
-11493.038462413302
 21
-17076.811617911058
 31
0.0
 11
-11493.0413662868
 21
-17076.812363378722
 31
0.0
 11
-11493.044721548295
 21
-17076.813224200891
 31
0.0
 11
-11493.048032374318
 21
-17076.814073052563
 31
0.0
 11
-11493.051298445887
 21
-17076.814909854133
 31
0.0
 11
-11493.054519444004
 21
-17076.815734525993
 31
0.0
 11
-11493.057695049687
 21
-17076.816546988553
 31
0.0
 11
-11493.060824943946
 21
-17076.817347162203
 31
0.0
 11
-11493.063908807801
 21
-17076.81813496734
 31
0.0
 11
-11493.066946322248
 21
-17076.818910324364
 31
0.0
 11
-11493.069937168313
 21
-17076.81967315367
 31
0.0
 11
-11493.072881026999
 21
-17076.820423375659
 31
0.0
 11
-11493.075777579328
 21
-17076.821160910727
 31
0.0
 11
-11493.078626506303
 21
-17076.821885679274
 31
0.0
 11
-11493.081427488936
 21
-17076.822597601691
 31
0.0
 11
-11493.084180208245
 21
-17076.823296598384
 31
0.0
 11
-11493.086884345244
 21
-17076.823982589751
 31
0.0
 11
-11493.089539580929
 21
-17076.824655496173
 31
0.0
 11
-11493.092145596333
 21
-17076.825315238078
 31
0.0
 11
-11493.094702072452
 21
-17076.825961735834
 31
0.0
 11
-11493.097208690306
 21
-17076.826594909857
 31
0.0
 11
-11493.0996651309
 21
-17076.827214680525
 31
0.0
 11
-11493.102071075256
 21
-17076.827820968265
 31
0.0
 11
-11493.10442620438
 21
-17076.828413693453
 31
0.0
 11
-11493.106730199281
 21
-17076.828992776489
 31
0.0
 11
-11493.10898274098
 21
-17076.829558137779
 31
0.0
 11
-11493.110505854358
 21
-17076.829939951225
 31
0.0
 11
-11493.112049821968
 21
-17076.830326583189
 31
0.0
 11
-11493.113611339104
 21
-17076.830717168617
 31
0.0
 11
-11493.115187101079
 21
-17076.831110842479
 31
0.0
 11
-11493.116773803185
 21
-17076.831506739723
 31
0.0
 11
-11493.118368140731
 21
-17076.831903995306
 31
0.0
 11
-11493.119966809018
 21
-17076.832301744191
 31
0.0
 11
-11493.121566503351
 21
-17076.832699121329
 31
0.0
 11
-11493.123163919026
 21
-17076.833095261678
 31
0.0
 11
-11493.124755751354
 21
-17076.833489300196
 31
0.0
 11
-11493.126338695631
 21
-17076.833880371843
 31
0.0
 11
-11493.127909447163
 21
-17076.834267611572
 31
0.0
 11
-11493.129464701253
 21
-17076.834650154346
 31
0.0
 11
-11493.131001153199
 21
-17076.835027135112
 31
0.0
 11
-11493.132515498304
 21
-17076.835397688828
 31
0.0
 11
-11493.134004431875
 21
-17076.83576095046
 31
0.0
 11
-11493.135464649218
 21
-17076.836116054965
 31
0.0
 11
-11493.136892845621
 21
-17076.836462137286
 31
0.0
 11
-11493.138285716399
 21
-17076.836798332391
 31
0.0
 11
-11493.139639956851
 21
-17076.837123775233
 31
0.0
 11
-11493.140952262282
 21
-17076.837437600778
 31
0.0
 11
-11493.14221932799
 21
-17076.83773894397
 31
0.0
 11
-11493.143102094267
 21
-17076.837947777789
 31
0.0
 11
-11493.143938023266
 21
-17076.838144568675
 31
0.0
 11
-11493.144728393403
 21
-17076.8383296598
 31
0.0
 11
-11493.145474483099
 21
-17076.838503394341
 31
0.0
 11
-11493.146177570772
 21
-17076.838666115487
 31
0.0
 11
-11493.146838934837
 21
-17076.838818166412
 31
0.0
 11
-11493.147459853715
 21
-17076.838959890305
 31
0.0
 11
-11493.14804160582
 21
-17076.83909163034
 31
0.0
 11
-11493.148585469573
 21
-17076.839213729701
 31
0.0
 11
-11493.149092723392
 21
-17076.839326531575
 31
0.0
 11
-11493.14956464569
 21
-17076.839430379128
 31
0.0
 11
-11493.150002514893
 21
-17076.839525615564
 31
0.0
 11
-11493.150407609413
 21
-17076.839612584037
 31
0.0
 11
-11493.150781207671
 21
-17076.839691627749
 31
0.0
 11
-11493.15119337981
 21
-17076.839777247988
 31
0.0
 11
-11493.15156745626
 21
-17076.839853147852
 31
0.0
 11
-11493.151904738752
 21
-17076.839919675152
 31
0.0
 11
-11493.152206529005
 21
-17076.839977177679
 31
0.0
 11
-11493.152474128758
 21
-17076.840026003239
 31
0.0
 11
-11493.152708839731
 21
-17076.840066499641
 31
0.0
 11
-11493.152911963651
 21
-17076.84009901468
 31
0.0
 11
-11493.153121839905
 21
-17076.840128759919
 31
0.0
 11
-11493.153291956518
 21
-17076.840147833333
 31
0.0
 11
-11493.15342132283
 21
-17076.84015597661
 31
0.0
 11
-11493.153490371678
 21
-17076.840154803856
 31
0.0
 11
-11493.15353567957
 21
-17076.84014748532
 31
0.0
 11
-11493.153557705939
 21
-17076.840133984973
 31
0.0
 11
-11493.153556290141
 21
-17076.840114315721
 31
0.0
  0
SPLINE
  5
7A
100
AcDbEntity
  8
0
  6
CONTINUOUS
 62
             3
100
AcDbSpline
210
0.0
220
0.0
230
1.0
 70
             0
 71
             3
 72
            10
 73
             6
 74
             5
 42
0.00000000001
 43
0.00000000001
 44
0.00000000001
 40
0.0
 40
0.0
 40
0.0
 40
0.0
 40
1.0
 40
1.0
 40
2.0
 40
2.0
 40
2.0
 40
2.0
 10
-11472.94579223244
 20
-17101.237258042311
 30
0.0
 10
-11472.96500552651
 20
-17101.23983213562
 30
0.0
 10
-11472.980911844241
 20
-17101.264596790261
 30
0.0
 10
-11473.003001533019
 20
-17101.35366680822
 30
0.0
 10
-11473.00880766694
 20
-17101.41645107642
 30
0.0
 10
-11473.00880766694
 20
-17101.491348805572
 30
0.0
 11
-11472.94579223244
 21
-17101.237258042311
 31
0.0
 11
-11472.971937629167
 21
-17101.257459577399
 31
0.0
 11
-11472.991956688631
 21
-17101.30913179924
 31
0.0
 11
-11473.00452399443
 21
-17101.388854282341
 31
0.0
 11
-11473.00880766694
 21
-17101.491348805572
 31
0.0
  0
SPLINE
  5
79
100
AcDbEntity
  8
0
  6
CONTINUOUS
 62
             7
100
AcDbSpline
210
0.0
220
0.0
230
1.0
 70
             0
 71
             3
 72
            23
 73
            19
 74
            13
 42
0.00000000001
 43
0.00000000001
 44
0.00000000001
 40
0.0
 40
0.0
 40
0.0
 40
0.0
 40
1.7019309295838361
 40
1.7019309295838361
 40
1.7019309295838361
 40
3.2798777205166649
 40
3.2798777205166649
 40
3.2798777205166649
 40
4.7161236456247781
 40
4.7161236456247781
 40
4.7161236456247781
 40
6.004831286300206
 40
6.004831286300206
 40
6.004831286300206
 40
8.160911059323956
 40
8.160911059323956
 40
8.160911059323956
 40
9.8419732822438153
 40
9.8419732822438153
 40
9.8419732822438153
 40
9.8419732822438153
 10
-11472.94579223244
 20
-17204.989822469441
 30
0.0
 10
-11473.45551203564
 20
-17204.921532964621
 30
0.0
 10
-11474.02125855253
 20
-17204.831099365991
 30
0.0
 10
-11474.62435400484
 20
-17204.710108020088
 30
0.0
 10
-11475.20017506164
 20
-17204.594588388169
 30
0.0
 10
-11475.712803574599
 20
-17204.470720278339
 30
0.0
 10
-11476.16033931657
 20
-17204.349579164231
 30
0.0
 10
-11476.58793228011
 20
-17204.23383625671
 30
0.0
 10
-11477.050925982971
 20
-17204.09491577185
 30
0.0
 10
-11477.533187138941
 20
-17203.928283200821
 30
0.0
 10
-11477.91264681696
 20
-17203.79717095806
 30
0.0
 10
-11478.318162760221
 20
-17203.644020597239
 30
0.0
 10
-11478.735829649821
 20
-17203.46578878328
 30
0.0
 10
-11479.32095766668
 20
-17203.216095952848
 30
0.0
 10
-11479.988152737031
 20
-17202.892347783079
 30
0.0
 10
-11480.65288075981
 20
-17202.482348010661
 30
0.0
 10
-11481.08834549711
 20
-17202.213756290341
 30
0.0
 10
-11481.55936742592
 20
-17201.88556584829
 30
0.0
 10
-11482.01121718063
 20
-17201.494252482011
 30
0.0
 11
-11472.94579223244
 21
-17204.989822469441
 31
0.0
 11
-11473.750057250225
 21
-17204.869728435169
 31
0.0
 11
-11474.62435400484
 21
-17204.710108020088
 31
0.0
 11
-11475.440453653766
 21
-17204.531951647979
 31
0.0
 11
-11476.16033931657
 21
-17204.349579164231
 31
0.0
 11
-11476.826262655593
 21
-17204.158014806344
 31
0.0
 11
-11477.533187138941
 21
-17203.928283200821
 31
0.0
 11
-11478.120180690039
 21
-17203.714705831248
 31
0.0
 11
-11478.735829649821
 21
-17203.46578878328
 31
0.0
 11
-11479.664505202594
 21
-17203.034183500215
 31
0.0
 11
-11480.65288075981
 21
-17202.482348010661
 31
0.0
 11
-11481.32590458869
 21
-17202.034320863571
 31
0.0
 11
-11482.01121718063
 21
-17201.494252482011
 31
0.0
  0
SPLINE
  5
78
100
AcDbEntity
  8
0
  6
CONTINUOUS
 62
             7
100
AcDbSpline
210
0.0
220
0.0
230
1.0
 70
             0
 71
             3
 72
            23
 73
            19
 74
            13
 42
0.00000000001
 43
0.00000000001
 44
0.00000000001
 40
0.0
 40
0.0
 40
0.0
 40
0.0
 40
0.079990746162636
 40
0.079990746162636
 40
0.079990746162636
 40
0.158814492837433
 40
0.158814492837433
 40
0.158814492837433
 40
0.260267108315661
 40
0.260267108315661
 40
0.260267108315661
 40
0.4089878476669726
 40
0.4089878476669726
 40
0.4089878476669726
 40
0.7249580356735916
 40
0.7249580356735916
 40
0.7249580356735916
 40
0.8549904390398659
 40
0.8549904390398659
 40
0.8549904390398659
 40
0.8549904390398659
 10
-11493.153556290141
 20
-17190.817240524051
 30
0.0
 10
-11493.153695337131
 20
-17190.790225510649
 30
0.0
 10
-11493.14989472508
 20
-17190.763792287889
 30
0.0
 10
-11493.142207859129
 20
-17190.738284302181
 30
0.0
 10
-11493.133583079411
 20
-17190.70966395683
 30
0.0
 10
-11493.12117199527
 20
-17190.6858760461
 30
0.0
 10
-11493.10895256814
 20
-17190.667037375999
 30
0.0
 10
-11493.091292395509
 20
-17190.639810717788
 30
0.0
 10
-11493.06861727433
 20
-17190.614577474949
 30
0.0
 10
-11493.041328075269
 20
-17190.59179182594
 30
0.0
 10
-11492.997342549301
 20
-17190.555065253138
 30
0.0
 10
-11492.949479377839
 20
-17190.531453666619
 30
0.0
 10
-11492.9134247365
 20
-17190.516769730191
 30
0.0
 10
-11492.824629500181
 20
-17190.48060618628
 30
0.0
 10
-11492.717956247139
 20
-17190.462228436008
 30
0.0
 10
-11492.60351979543
 20
-17190.463405760169
 30
0.0
 10
-11492.5539881411
 20
-17190.463915342669
 30
0.0
 10
-11492.50984261562
 20
-17190.4680181574
 30
0.0
 10
-11492.47389107768
 20
-17190.472835162222
 30
0.0
 11
-11493.153556290141
 21
-17190.817240524051
 31
0.0
 11
-11493.150816791987
 21
-17190.77719727773
 31
0.0
 11
-11493.142207859129
 21
-17190.738284302181
 31
0.0
 11
-11493.126928206413
 21
-17190.69899271087
 31
0.0
 11
-11493.10895256814
 21
-17190.667037375999
 31
0.0
 11
-11493.078751206616
 21
-17190.627749222516
 31
0.0
 11
-11493.041328075269
 21
-17190.59179182594
 31
0.0
 11
-11492.974402324147
 21
-17190.546014789426
 31
0.0
 11
-11492.9134247365
 21
-17190.516769730191
 31
0.0
 11
-11492.768087721735
 21
-17190.476084919654
 31
0.0
 11
-11492.60351979543
 21
-17190.463405760169
 31
0.0
 11
-11492.533612892908
 21
-17190.466505177825
 31
0.0
 11
-11492.47389107768
 21
-17190.472835162222
 31
0.0
  0
SPLINE
  5
77
100
AcDbEntity
  8
0
  6
CONTINUOUS
 62
             7
100
AcDbSpline
210
0.0
220
0.0
230
1.0
 70
             0
 71
             3
 72
            35
 73
            31
 74
           214
 42
0.00000000001
 43
0.00000000001
 44
0.00000000001
 40
0.0
 40
0.0
 40
0.0
 40
0.0
 40
0.0000390688308539
 40
0.0000390688308539
 40
0.0000390688308539
 40
0.0001540827711303
 40
0.0001540827711303
 40
0.0001540827711303
 40
0.0006672679070802
 40
0.0006672679070802
 40
0.0006672679070802
 40
0.0028392939097875
 40
0.0028392939097875
 40
0.0028392939097875
 40
0.0116298360222242
 40
0.0116298360222242
 40
0.0116298360222242
 40
0.0458778811722165
 40
0.0458778811722165
 40
0.0458778811722165
 40
0.1156547895788298
 40
0.1156547895788298
 40
0.1156547895788298
 40
0.247777902690436
 40
0.247777902690436
 40
0.247777902690436
 40
0.5682742589141405
 40
0.5682742589141405
 40
0.5682742589141405
 40
0.7024459337180551
 40
0.7024459337180551
 40
0.7024459337180551
 40
0.7024459337180551
 10
-11493.153556290141
 20
-17229.386966196009
 30
0.0
 10
-11493.153565050739
 20
-17229.38695102221
 30
0.0
 10
-11493.153558173601
 20
-17229.386939962871
 30
0.0
 10
-11493.15353565763
 20
-17229.386933019621
 30
0.0
 10
-11493.153513142979
 20
-17229.386926076779
 30
0.0
 10
-11493.153474992039
 20
-17229.386923249531
 30
0.0
 10
-11493.15342120815
 20
-17229.386924537888
 30
0.0
 10
-11493.153312453829
 20
-17229.38692714299
 30
0.0
 10
-11493.15314102919
 20
-17229.38694654563
 30
0.0
 10
-11493.152911385139
 20
-17229.386981585329
 30
0.0
 10
-11493.15243740484
 20
-17229.387053906488
 30
0.0
 10
-11493.151714416321
 20
-17229.38719299289
 30
0.0
 10
-11493.150778164339
 20
-17229.387389522781
 30
0.0
 10
-11493.148707165319
 20
-17229.387824248912
 30
0.0
 10
-11493.14565194006
 20
-17229.388527602379
 30
0.0
 10
-11493.142207859149
 20
-17229.389344287269
 30
0.0
 10
-11493.13308329107
 20
-17229.391507969569
 30
0.0
 10
-11493.12004186894
 20
-17229.39474861358
 30
0.0
 10
-11493.10895256816
 20
-17229.397529941591
 30
0.0
 10
-11493.085903170861
 20
-17229.403311003509
 30
0.0
 10
-11493.05934989352
 20
-17229.410101722518
 30
0.0
 10
-11493.0413280753
 20
-17229.414726939791
 30
0.0
 10
-11493.00596834389
 20
-17229.423801853249
 30
0.0
 10
-11492.96292634189
 20
-17229.43494185515
 30
0.0
 10
-11492.913424736529
 20
-17229.447851514229
 30
0.0
 10
-11492.859648642359
 20
-17229.461875928941
 30
0.0
 10
-11492.75190214531
 20
-17229.49007303227
 30
0.0
 10
-11492.603519795481
 20
-17229.529562520689
 30
0.0
 10
-11492.555445632441
 20
-17229.542356657639
 30
0.0
 10
-11492.5117459293
 20
-17229.554036831531
 30
0.0
 10
-11492.47389107768
 20
-17229.564180876139
 30
0.0
 11
-11493.153556290141
 21
-17229.386966196009
 31
0.0
 11
-11493.153557702599
 21
-17229.386946521357
 31
0.0
 11
-11493.15353565763
 21
-17229.386933019621
 31
0.0
 11
-11493.153490158853
 21
-17229.386925692052
 31
0.0
 11
-11493.15342120815
 21
-17229.386924537888
 31
0.0
 11
-11493.153291728571
 21
-17229.386932699188
 31
0.0
 11
-11493.153121457872
 21
-17229.386951800963
 31
0.0
 11
-11493.152911385139
 21
-17229.386981585329
 31
0.0
 11
-11493.152653809791
 21
-17229.387023266525
 31
0.0
 11
-11493.152355725982
 21
-17229.387075816321
 31
0.0
 11
-11493.152018126622
 21
-17229.387138975781
 31
0.0
 11
-11493.151642004623
 21
-17229.38721248597
 31
0.0
 11
-11493.15122835289
 21
-17229.387296087953
 31
0.0
 11
-11493.150778164339
 21
-17229.387389522781
 31
0.0
 11
-11493.150189391432
 21
-17229.387514627957
 31
0.0
 11
-11493.149554497782
 21
-17229.387652353442
 31
0.0
 11
-11493.148876167254
 21
-17229.387801999179
 31
0.0
 11
-11493.148157083711
 21
-17229.387962865108
 31
0.0
 11
-11493.147399931022
 21
-17229.388134251174
 31
0.0
 11
-11493.146607393048
 21
-17229.38831545732
 31
0.0
 11
-11493.145782153651
 21
-17229.388505783492
 31
0.0
 11
-11493.144926896695
 21
-17229.388704529621
 31
0.0
 11
-11493.144044306053
 21
-17229.388910995673
 31
0.0
 11
-11493.143137065585
 21
-17229.389124481575
 31
0.0
 11
-11493.142207859149
 21
-17229.389344287269
 31
0.0
 11
-11493.140939873025
 21
-17229.389645865958
 31
0.0
 11
-11493.139626637945
 21
-17229.389959929744
 31
0.0
 11
-11493.138271460995
 21
-17229.39028561295
 31
0.0
 11
-11493.136877649265
 21
-17229.390622049912
 31
0.0
 11
-11493.135448509835
 21
-17229.390968374948
 31
0.0
 11
-11493.133987349791
 21
-17229.391323722397
 31
0.0
 11
-11493.132497476223
 21
-17229.391687226584
 31
0.0
 11
-11493.130982196217
 21
-17229.392058021836
 31
0.0
 11
-11493.129444816854
 21
-17229.392435242487
 31
0.0
 11
-11493.127888645226
 21
-17229.392818022861
 31
0.0
 11
-11493.126316988419
 21
-17229.39320549729
 31
0.0
 11
-11493.124733153514
 21
-17229.393596800102
 31
0.0
 11
-11493.123140447598
 21
-17229.393991065619
 31
0.0
 11
-11493.121542177762
 21
-17229.394387428183
 31
0.0
 11
-11493.119941651088
 21
-17229.394785022112
 31
0.0
 11
-11493.118342174663
 21
-17229.395182981745
 31
0.0
 11
-11493.116747055572
 21
-17229.3955804414
 31
0.0
 11
-11493.115159600904
 21
-17229.395976535412
 31
0.0
 11
-11493.113583117742
 21
-17229.396370398106
 31
0.0
 11
-11493.112020913171
 21
-17229.396761163815
 31
0.0
 11
-11493.110476294283
 21
-17229.397147966869
 31
0.0
 11
-11493.10895256816
 21
-17229.397529941591
 31
0.0
 11
-11493.10678178918
 21
-17229.398074777226
 31
0.0
 11
-11493.104592683385
 21
-17229.398624947433
 31
0.0
 11
-11493.102387454521
 21
-17229.399179870823
 31
0.0
 11
-11493.100168306319
 21
-17229.399738966003
 31
0.0
 11
-11493.097937442511
 21
-17229.400301651593
 31
0.0
 11
-11493.095697066841
 21
-17229.40086734619
 31
0.0
 11
-11493.093449383045
 21
-17229.401435468415
 31
0.0
 11
-11493.091196594853
 21
-17229.402005436878
 31
0.0
 11
-11493.088940906006
 21
-17229.402576670189
 31
0.0
 11
-11493.08668452024
 21
-17229.403148586956
 31
0.0
 11
-11493.084429641291
 21
-17229.403720605795
 31
0.0
 11
-11493.082178472894
 21
-17229.404292145318
 31
0.0
 11
-11493.079933218787
 21
-17229.404862624131
 31
0.0
 11
-11493.077696082708
 21
-17229.405431460847
 31
0.0
 11
-11493.075469268391
 21
-17229.405998074079
 31
0.0
 11
-11493.073254979576
 21
-17229.406561882432
 31
0.0
 11
-11493.071055419992
 21
-17229.407122304525
 31
0.0
 11
-11493.068872793383
 21
-17229.407678758966
 31
0.0
 11
-11493.066709303483
 21
-17229.408230664361
 31
0.0
 11
-11493.064567154026
 21
-17229.408777439334
 31
0.0
 11
-11493.062448548746
 21
-17229.409318502476
 31
0.0
 11
-11493.060355691394
 21
-17229.40985327242
 31
0.0
 11
-11493.058290785688
 21
-17229.41038116776
 31
0.0
 11
-11493.056256035376
 21
-17229.41090160712
 31
0.0
 11
-11493.05425364419
 21
-17229.411414009097
 31
0.0
 11
-11493.052285815867
 21
-17229.411917792317
 31
0.0
 11
-11493.050354754145
 21
-17229.412412375379
 31
0.0
 11
-11493.048462662755
 21
-17229.412897176899
 31
0.0
 11
-11493.046611745445
 21
-17229.413371615497
 31
0.0
 11
-11493.044804205938
 21
-17229.413835109764
 31
0.0
 11
-11493.043042247979
 21
-17229.414287078325
 31
0.0
 11
-11493.0413280753
 21
-17229.414726939791
 31
0.0
 11
-11493.037766539872
 21
-17229.415641303822
 31
0.0
 11
-11493.034154061017
 21
-17229.416569369459
 31
0.0
 11
-11493.030490910427
 21
-17229.417511071049
 31
0.0
 11
-11493.026777359813
 21
-17229.418466342944
 31
0.0
 11
-11493.023013680875
 21
-17229.419435119482
 31
0.0
 11
-11493.019200145323
 21
-17229.420417335026
 31
0.0
 11
-11493.015337024854
 21
-17229.421412923919
 31
0.0
 11
-11493.011424591175
 21
-17229.422421820505
 31
0.0
 11
-11493.007463115986
 21
-17229.423443959138
 31
0.0
 11
-11493.003452870998
 21
-17229.424479274167
 31
0.0
 11
-11492.99939412791
 21
-17229.425527699932
 31
0.0
 11
-11492.995287158428
 21
-17229.426589170791
 31
0.0
 11
-11492.991132234252
 21
-17229.427663621093
 31
0.0
 11
-11492.986929627094
 21
-17229.428750985178
 31
0.0
 11
-11492.982679608645
 21
-17229.429851197401
 31
0.0
 11
-11492.978382450619
 21
-17229.43096419211
 31
0.0
 11
-11492.97403842472
 21
-17229.432089903654
 31
0.0
 11
-11492.969647802645
 21
-17229.433228266378
 31
0.0
 11
-11492.965210856104
 21
-17229.434379214639
 31
0.0
 11
-11492.960727856796
 21
-17229.435542682771
 31
0.0
 11
-11492.956199076429
 21
-17229.436718605139
 31
0.0
 11
-11492.951624786707
 21
-17229.437906916079
 31
0.0
 11
-11492.94700525933
 21
-17229.439107549948
 31
0.0
 11
-11492.942340766003
 21
-17229.440320441092
 31
0.0
 11
-11492.937631578432
 21
-17229.441545523856
 31
0.0
 11
-11492.932877968318
 21
-17229.442782732593
 31
0.0
 11
-11492.928080207368
 21
-17229.444032001651
 31
0.0
 11
-11492.923238567286
 21
-17229.44529326538
 31
0.0
 11
-11492.91835331977
 21
-17229.446566458118
 31
0.0
 11
-11492.913424736529
 21
-17229.447851514229
 31
0.0
 11
-11492.911356690265
 21
-17229.448390893798
 31
0.0
 11
-11492.909236919972
 21
-17229.448943863714
 31
0.0
 11
-11492.907065587922
 21
-17229.449510388935
 31
0.0
 11
-11492.904842856391
 21
-17229.450090434399
 31
0.0
 11
-11492.902568887652
 21
-17229.450683965057
 31
0.0
 11
-11492.90024384398
 21
-17229.451290945861
 31
0.0
 11
-11492.897867887648
 21
-17229.451911341759
 31
0.0
 11
-11492.895441180926
 21
-17229.452545117692
 31
0.0
 11
-11492.892963886095
 21
-17229.45319223862
 31
0.0
 11
-11492.89043616542
 21
-17229.453852669474
 31
0.0
 11
-11492.887858181186
 21
-17229.454526375222
 31
0.0
 11
-11492.885230095657
 21
-17229.455213320805
 31
0.0
 11
-11492.882552071109
 21
-17229.455913471164
 31
0.0
 11
-11492.879824269821
 21
-17229.45662679126
 31
0.0
 11
-11492.877046854062
 21
-17229.457353246031
 31
0.0
 11
-11492.874219986104
 21
-17229.458092800432
 31
0.0
 11
-11492.871343828228
 21
-17229.458845419405
 31
0.0
 11
-11492.868418542699
 21
-17229.459611067901
 31
0.0
 11
-11492.865444291792
 21
-17229.460389710872
 31
0.0
 11
-11492.862421237791
 21
-17229.461181313265
 31
0.0
 11
-11492.85934954296
 21
-17229.461985840022
 31
0.0
 11
-11492.856229369572
 21
-17229.462803256098
 31
0.0
 11
-11492.853060879906
 21
-17229.46363352644
 31
0.0
 11
-11492.849844236232
 21
-17229.464476616002
 31
0.0
 11
-11492.846579600831
 21
-17229.465332489719
 31
0.0
 11
-11492.843267135966
 21
-17229.466201112547
 31
0.0
 11
-11492.83990700392
 21
-17229.467082449442
 31
0.0
 11
-11492.836499366962
 21
-17229.467976465337
 31
0.0
 11
-11492.833044387366
 21
-17229.468883125191
 31
0.0
 11
-11492.829542227406
 21
-17229.469802393949
 31
0.0
 11
-11492.825993049355
 21
-17229.470734236558
 31
0.0
 11
-11492.822397015492
 21
-17229.471678617971
 31
0.0
 11
-11492.818754288084
 21
-17229.472635503134
 31
0.0
 11
-11492.815065029408
 21
-17229.47360485699
 31
0.0
 11
-11492.811329401737
 21
-17229.474586644497
 31
0.0
 11
-11492.807547567345
 21
-17229.475580830596
 31
0.0
 11
-11492.803719688509
 21
-17229.476587380239
 31
0.0
 11
-11492.799845927495
 21
-17229.477606258373
 31
0.0
 11
-11492.795926446583
 21
-17229.478637429947
 31
0.0
 11
-11492.791961408049
 21
-17229.479680859909
 31
0.0
 11
-11492.787950974158
 21
-17229.480736513204
 31
0.0
 11
-11492.783895307193
 21
-17229.481804354793
 31
0.0
 11
-11492.779794569418
 21
-17229.4828843496
 31
0.0
 11
-11492.77564892312
 21
-17229.483976462601
 31
0.0
 11
-11492.771458530557
 21
-17229.485080658724
 31
0.0
 11
-11492.767223554018
 21
-17229.486196902937
 31
0.0
 11
-11492.762944155762
 21
-17229.48732516016
 31
0.0
 11
-11492.758620498078
 21
-17229.488465395374
 31
0.0
 11
-11492.754252743231
 21
-17229.489617573505
 31
0.0
 11
-11492.749841053492
 21
-17229.490781659504
 31
0.0
 11
-11492.745385591144
 21
-17229.491957618331
 31
0.0
 11
-11492.740886518448
 21
-17229.493145414915
 31
0.0
 11
-11492.736343997691
 21
-17229.494345014227
 31
0.0
 11
-11492.731758191139
 21
-17229.495556381196
 31
0.0
 11
-11492.727129261071
 21
-17229.496779480789
 31
0.0
 11
-11492.722457369755
 21
-17229.498014277935
 31
0.0
 11
-11492.71774267947
 21
-17229.499260737593
 31
0.0
 11
-11492.712985352482
 21
-17229.500518824709
 31
0.0
 11
-11492.708185551077
 21
-17229.501788504236
 31
0.0
 11
-11492.703343437517
 21
-17229.503069741113
 31
0.0
 11
-11492.69845917408
 21
-17229.504362500298
 31
0.0
 11
-11492.693532923044
 21
-17229.505666746732
 31
0.0
 11
-11492.688564846674
 21
-17229.506982445368
 31
0.0
 11
-11492.683555107256
 21
-17229.508309561155
 31
0.0
 11
-11492.678503867053
 21
-17229.50964805904
 31
0.0
 11
-11492.673411288341
 21
-17229.510997903966
 31
0.0
 11
-11492.668277533396
 21
-17229.512359060886
 31
0.0
 11
-11492.663102764491
 21
-17229.51373149475
 31
0.0
 11
-11492.657887143898
 21
-17229.515115170503
 31
0.0
 11
-11492.6526308339
 21
-17229.516510053105
 31
0.0
 11
-11492.647333996756
 21
-17229.517916107485
 31
0.0
 11
-11492.641996794748
 21
-17229.519333298598
 31
0.0
 11
-11492.63661939015
 21
-17229.520761591404
 31
0.0
 11
-11492.631201945234
 21
-17229.522200950832
 31
0.0
 11
-11492.625744622275
 21
-17229.523651341849
 31
0.0
 11
-11492.620247583547
 21
-17229.525112729396
 31
0.0
 11
-11492.614710991324
 21
-17229.52658507842
 31
0.0
 11
-11492.609135007877
 21
-17229.528068353866
 31
0.0
 11
-11492.603519795481
 21
-17229.529562520689
 31
0.0
 11
-11492.59799227361
 21
-17229.531033799616
 31
0.0
 11
-11492.592504080261
 21
-17229.53249504718
 31
0.0
 11
-11492.587055717389
 21
-17229.533946119267
 31
0.0
 11
-11492.58164768695
 21
-17229.535386871758
 31
0.0
 11
-11492.57628049089
 21
-17229.536817160533
 31
0.0
 11
-11492.570954631172
 21
-17229.538236841483
 31
0.0
 11
-11492.565670609747
 21
-17229.539645770477
 31
0.0
 11
-11492.560428928569
 21
-17229.541043803416
 31
0.0
 11
-11492.555230089592
 21
-17229.542430796166
 31
0.0
 11
-11492.550074594772
 21
-17229.543806604626
 31
0.0
 11
-11492.544962946064
 21
-17229.545171084668
 31
0.0
 11
-11492.539895645423
 21
-17229.54652409218
 31
0.0
 11
-11492.534873194798
 21
-17229.547865483044
 31
0.0
 11
-11492.529896096146
 21
-17229.549195113141
 31
0.0
 11
-11492.524964851422
 21
-17229.550512838356
 31
0.0
 11
-11492.520079962582
 21
-17229.551818514574
 31
0.0
 11
-11492.515241931582
 21
-17229.55311199768
 31
0.0
 11
-11492.510451260372
 21
-17229.55439314355
 31
0.0
 11
-11492.505708450906
 21
-17229.555661808074
 31
0.0
 11
-11492.501014005136
 21
-17229.556917847123
 31
0.0
 11
-11492.496368425023
 21
-17229.558161116598
 31
0.0
 11
-11492.491772212519
 21
-17229.559391472372
 31
0.0
 11
-11492.48722586958
 21
-17229.560608770331
 31
0.0
 11
-11492.482729898156
 21
-17229.561812866355
 31
0.0
 11
-11492.478284800207
 21
-17229.563003616335
 31
0.0
 11
-11492.47389107768
 21
-17229.564180876139
 31
0.0
  0
SPLINE
  5
76
100
AcDbEntity
  8
0
  6
CONTINUOUS
 62
             7
100
AcDbSpline
210
0.0
220
0.0
230
1.0
 70
             0
 71
             3
 72
            20
 73
            16
 74
            11
 42
0.00000000001
 43
0.00000000001
 44
0.00000000001
 40
0.0
 40
0.0
 40
0.0
 40
0.0
 40
0.0936185188837509
 40
0.0936185188837509
 40
0.0936185188837509
 40
0.1845838655231294
 40
0.1845838655231294
 40
0.1845838655231294
 40
0.2672886969442114
 40
0.2672886969442114
 40
0.2672886969442114
 40
0.3462791792360426
 40
0.3462791792360426
 40
0.3462791792360426
 40
0.3565377940131003
 40
0.3565377940131003
 40
0.3565377940131003
 40
0.3565377940131003
 10
-11492.988796216519
 20
-17191.98739016489
 30
0.0
 10
-11493.01329675098
 20
-17191.966172079639
 30
0.0
 10
-11493.0353935684
 20
-17191.944019241499
 30
0.0
 10
-11493.05486428067
 20
-17191.92115647567
 30
0.0
 10
-11493.072168111879
 20
-17191.900838090009
 30
0.0
 10
-11493.09085713308
 20
-17191.875898119291
 30
0.0
 10
-11493.107307814609
 20
-17191.846953649369
 30
0.0
 10
-11493.1192972432
 20
-17191.825858617271
 30
0.0
 10
-11493.1314288702
 20
-17191.800295286372
 30
0.0
 10
-11493.140265322279
 20
-17191.771237383778
 30
0.0
 10
-11493.1493803373
 20
-17191.741263451229
 30
0.0
 10
-11493.152726944279
 20
-17191.715010247779
 30
0.0
 10
-11493.153417626179
 20
-17191.69352315869
 30
0.0
 10
-11493.15352778013
 20
-17191.69009627324
 30
0.0
 10
-11493.15357400472
 20
-17191.686676955931
 30
0.0
 10
-11493.153556290141
 20
-17191.683265927841
 30
0.0
 11
-11492.988796216519
 21
-17191.98739016489
 31
0.0
 11
-11493.023716431917
 21
-17191.954890075496
 31
0.0
 11
-11493.05486428067
 21
-17191.92115647567
 31
0.0
 11
-11493.081405978768
 21
-17191.887289844111
 31
0.0
 11
-11493.107307814609
 21
-17191.846953649369
 31
0.0
 11
-11493.124968934635
 21
-17191.812081593009
 31
0.0
 11
-11493.140265322279
 21
-17191.771237383778
 31
0.0
 11
-11493.150000599149
 21
-17191.729197704939
 31
0.0
 11
-11493.153417626179
 21
-17191.69352315869
 31
0.0
 11
-11493.153534908859
 21
-17191.688388596755
 31
0.0
 11
-11493.153556290141
 21
-17191.683265927841
 31
0.0
  0
SPLINE
  5
75
100
AcDbEntity
  8
0
  6
CONTINUOUS
 62
             7
100
AcDbSpline
210
0.0
220
0.0
230
1.0
 70
             0
 71
             3
 72
             8
 73
             4
 74
             3
 42
0.00000000001
 43
0.00000000001
 44
0.00000000001
 40
0.0
 40
0.0
 40
0.0
 40
0.0
 40
1.0
 40
1.0
 40
1.0
 40
1.0
 10
-11493.153556290141
 20
-17191.683265927841
 30
0.0
 10
-11493.15206384076
 20
-17191.395887528681
 30
0.0
 10
-11493.15206384076
 20
-17191.107203921369
 30
0.0
 10
-11493.153556290141
 20
-17190.817240524051
 30
0.0
 11
-11493.153556290141
 21
-17191.683265927841
 31
0.0
 11
-11493.152436953105
 21
-17191.251222600255
 31
0.0
 11
-11493.153556290141
 21
-17190.817240524051
 31
0.0
  0
SPLINE
  5
74
100
AcDbEntity
  8
0
  6
CONTINUOUS
 62
             7
100
AcDbSpline
210
0.0
220
0.0
230
1.0
 70
             0
 71
             3
 72
            11
 73
             7
 74
             5
 42
0.00000000001
 43
0.00000000001
 44
0.00000000001
 40
2.9359982991125682
 40
2.9359982991125682
 40
2.9359982991125682
 40
2.9359982991125682
 40
26.544316501890378
 40
26.544316501890378
 40
26.544316501890378
 40
53.088633008928007
 40
53.088633008928007
 40
53.088633008928007
 40
53.088633008928007
 10
-11444.131146827051
 20
-17063.708552820161
 30
0.0
 10
-11451.96826637895
 20
-17065.80863402865
 30
0.0
 10
-11459.53121784818
 20
-17067.835256781618
 30
0.0
 10
-11466.83418503696
 20
-17069.792221869109
 30
0.0
 10
-11475.752435601031
 20
-17072.182032003009
 30
0.0
 10
-11484.291093374961
 20
-17074.470138037948
 30
0.0
 10
-11492.47389107768
 20
-17076.662899635608
 30
0.0
 11
-11444.131146827051
 21
-17063.708552820161
 31
0.0
 11
-11455.682973068175
 21
-17066.80405589001
 31
0.0
 11
-11466.83418503696
 21
-17069.792221869109
 31
0.0
 11
-11479.929832880327
 21
-17073.301453953449
 31
0.0
 11
-11492.47389107768
 21
-17076.662899635608
 31
0.0
  0
ARC
  5
73
100
AcDbEntity
  8
0
  6
CONTINUOUS
 62
             7
100
AcDbCircle
 10
-11439.1654235236
 20
-17242.81940541435
 40
2.00000000000657
100
AcDbArc
 50
-10.0000000001307
 51
0.0
  0
ARC
  5
72
100
AcDbEntity
  8
0
  6
CONTINUOUS
 62
             7
100
AcDbCircle
 10
-11443.631146827051
 20
-17040.96068495667
 40
0.50000000000264
100
AcDbArc
 50
99.99999999958132
 51
180.0
  0
ARC
  5
71
100
AcDbEntity
  8
0
  6
CONTINUOUS
 62
             7
100
AcDbCircle
 10
-11442.067111108699
 20
-17041.19261656667
 40
1.00000000000529
100
AcDbArc
 50
9.99999999958132
 51
99.9999999997623
  0
ARC
  5
70
100
AcDbEntity
  8
0
  6
CONTINUOUS
 62
             7
100
AcDbCircle
 10
-11442.067111108699
 20
-17265.03446394507
 40
0.99999999999454
100
AcDbArc
 50
-99.99999999968991
 51
-9.99999999999187
  0
ARC
  5
6F
100
AcDbEntity
  8
0
  6
CONTINUOUS
 62
             7
100
AcDbCircle
 10
-11443.631146827051
 20
-17265.266395555071
 40
0.5
100
AcDbArc
 50
180.0
 51
-99.99999999958132
  0
ARC
  5
6E
100
AcDbEntity
  8
0
  6
CONTINUOUS
 62
             7
100
AcDbCircle
 10
-11439.1654235236
 20
-17063.407675097402
 40
2.0
100
AcDbArc
 50
0.0
 51
10.00000000023334
  0
ARC
  5
6D
100
AcDbEntity
  8
0
  6
CONTINUOUS
 62
             7
100
AcDbCircle
 10
-11492.1524369531
 20
-17224.480473235009
 40
5.0
100
AcDbArc
 50
180.0
 51
-105.0000000000588
  0
ARC
  5
6C
100
AcDbEntity
  8
0
  6
CONTINUOUS
 62
             3
100
AcDbCircle
 10
-11469.1265219904
 20
-17065.224070153388
 40
14.49999999999879
100
AcDbArc
 50
105.00000000001808
 51
150.00000000001307
  0
ARC
  5
6B
100
AcDbEntity
  8
0
  6
CONTINUOUS
 62
             7
100
AcDbCircle
 10
-11492.1524369531
 20
-17081.746607276738
 40
5.00000000000365
100
AcDbArc
 50
105.0000000000696
 51
180.0
  0
ARC
  5
6A
100
AcDbEntity
  8
0
  6
CONTINUOUS
 62
             7
100
AcDbCircle
 10
-11469.1265219904
 20
-17065.224070153388
 40
15.00000000000272
100
AcDbArc
 50
105.00000000000608
 51
150.00000000000705
  0
ARC
  5
69
100
AcDbEntity
  8
0
  6
CONTINUOUS
 62
             3
100
AcDbCircle
 10
-11469.1265219904
 20
-17241.003010358359
 40
14.50000000000572
100
AcDbArc
 50
-150.00000000001307
 51
-105.00000000001808
  0
ARC
  5
68
100
AcDbEntity
  8
0
  6
CONTINUOUS
 62
             7
100
AcDbCircle
 10
-11469.1265219904
 20
-17241.003010358359
 40
15.0000000000032
100
AcDbArc
 50
-150.00000000000705
 51
-105.00000000001327
  0
LINE
  5
67
100
AcDbEntity
  8
1
  6
DOT_CENTER
 62
             2
100
AcDbLine
 10
-11500.68107600316
 20
-17153.11354025589
 11
-11415.32051849388
 21
-17153.113540255861
  0
LINE
  5
66
100
AcDbEntity
  8
1
  6
DOT_CENTER
 62
             2
100
AcDbLine
 10
-11493.446532178619
 20
-17153.113540255879
 11
-11493.1524369531
 21
-17153.113540255879
  0
LINE
  5
65
100
AcDbEntity
  8
0
  6
CONTINUOUS
 62
             7
100
AcDbLine
 10
-11437.1654235236
 20
-17242.81940541435
 11
-11437.1654235236
 21
-17063.407675097402
  0
LINE
  5
64
100
AcDbEntity
  8
0
  6
CONTINUOUS
 62
             7
100
AcDbLine
 10
-11437.19580801757
 20
-17243.166701769689
 11
-11441.082303355681
 21
-17265.208112122738
  0
LINE
  5
63
100
AcDbEntity
  8
0
  6
CONTINUOUS
 62
             7
100
AcDbLine
 10
-11444.131146827051
 20
-17040.96068495667
 11
-11444.131146827051
 21
-17042.997436857699
  0
LINE
  5
62
100
AcDbEntity
  8
0
  6
CONTINUOUS
 62
             7
100
AcDbLine
 10
-11444.131146827051
 20
-17263.229643654049
 11
-11444.131146827051
 21
-17265.266395555071
  0
LINE
  5
61
100
AcDbEntity
  8
0
  6
CONTINUOUS
 62
             7
100
AcDbLine
 10
-11444.131146827051
 20
-17097.37682755903
 11
-11444.131146827051
 21
-17208.850252952721
  0
LINE
  5
60
100
AcDbEntity
  8
0
  6
CONTINUOUS
 62
             3
100
AcDbLine
 10
-11443.717970915881
 20
-17040.468281080161
 11
-11443.717970915881
 21
-17265.75879943158
  0
LINE
  5
5F
100
AcDbEntity
  8
0
  6
CONTINUOUS
 62
             7
100
AcDbLine
 10
-11443.717970915881
 20
-17040.468281080161
 11
-11442.24075928636
 21
-17040.20780881367
  0
LINE
  5
5E
100
AcDbEntity
  8
0
  6
CONTINUOUS
 62
             3
100
AcDbLine
 10
-11442.24075928636
 20
-17266.019271698078
 11
-11442.24075928636
 21
-17040.20780881367
  0
LINE
  5
5D
100
AcDbEntity
  8
0
  6
CONTINUOUS
 62
             3
100
AcDbLine
 10
-11441.082303355681
 20
-17265.208112122738
 11
-11441.082303355681
 21
-17041.018968389009
  0
LINE
  5
5C
100
AcDbEntity
  8
0
  6
CONTINUOUS
 62
             7
100
AcDbLine
 10
-11443.717970915881
 20
-17265.75879943158
 11
-11442.24075928636
 21
-17266.019271698078
  0
LINE
  5
5B
100
AcDbEntity
  8
0
  6
CONTINUOUS
 62
             7
100
AcDbLine
 10
-11437.19580801757
 20
-17063.060378742059
 11
-11441.082303355681
 21
-17041.018968389009
  0
LINE
  5
5A
100
AcDbEntity
  8
0
  6
CONTINUOUS
 62
             3
100
AcDbLine
 10
-11437.19580801757
 20
-17243.166701769689
 11
-11437.19580801757
 21
-17063.060378742059
  0
LINE
  5
59
100
AcDbEntity
  8
0
  6
CONTINUOUS
 62
             7
100
AcDbLine
 10
-11497.1524369531
 20
-17153.113540255868
 11
-11497.1524369531
 21
-17224.480473235009
  0
LINE
  5
58
100
AcDbEntity
  8
0
  6
CONTINUOUS
 62
             7
100
AcDbLine
 10
-11497.1524369531
 20
-17081.746607276738
 11
-11497.1524369531
 21
-17153.113540255868
  0
LINE
  5
57
100
AcDbEntity
  8
0
  6
CONTINUOUS
 62
             7
100
AcDbLine
 10
-11444.131146827051
 20
-17208.850252952721
 11
-11472.94579223244
 21
-17204.989822469441
  0
LINE
  5
56
100
AcDbEntity
  8
0
  6
CONTINUOUS
 62
             3
100
AcDbLine
 10
-11444.131146827051
 20
-17207.738579253069
 11
-11473.00880766694
 21
-17203.86970630239
  0
LINE
  5
55
100
AcDbEntity
  8
0
  6
CONTINUOUS
 62
             3
100
AcDbLine
 10
-11444.131146827051
 20
-17207.046747506069
 11
-11472.879398144391
 21
-17203.195212143921
  0
LINE
  5
54
100
AcDbEntity
  8
0
  6
CONTINUOUS
 62
             3
100
AcDbLine
 10
-11482.11690304717
 20
-17201.241288009009
 11
-11482.11690304717
 21
-17200.375262605219
  0
LINE
  5
53
100
AcDbEntity
  8
0
  6
CONTINUOUS
 62
             7
100
AcDbLine
 10
-11482.01121718063
 20
-17201.494252482011
 11
-11492.988796216519
 21
-17191.98739016489
  0
LINE
  5
52
100
AcDbEntity
  8
0
  6
CONTINUOUS
 62
             3
100
AcDbLine
 10
-11493.153556290141
 20
-17191.683265927841
 11
-11482.11690304717
 21
-17201.241288009009
  0
LINE
  5
51
100
AcDbEntity
  8
0
  6
CONTINUOUS
 62
             3
100
AcDbLine
 10
-11482.11690304717
 20
-17200.375262605219
 11
-11493.153556290141
 21
-17190.817240524051
  0
LINE
  5
50
100
AcDbEntity
  8
0
  6
CONTINUOUS
 62
             3
100
AcDbLine
 10
-11481.683890345281
 20
-17199.817249903321
 11
-11492.47389107768
 21
-17190.472835162222
  0
LINE
  5
4F
100
AcDbEntity
  8
0
  6
CONTINUOUS
 62
             3
100
AcDbLine
 10
-11473.00880766694
 20
-17204.73573170618
 11
-11473.00880766694
 21
-17203.86970630239
  0
LINE
  5
4E
100
AcDbEntity
  8
0
  6
CONTINUOUS
 62
             3
100
AcDbLine
 10
-11482.11690304717
 20
-17104.985792502739
 11
-11493.153556290141
 21
-17114.543814583849
  0
LINE
  5
4D
100
AcDbEntity
  8
0
  6
CONTINUOUS
 62
             3
100
AcDbLine
 10
-11492.47389107768
 20
-17115.754245349541
 11
-11481.683890345281
 21
-17106.40983060842
  0
LINE
  5
4C
100
AcDbEntity
  8
0
  6
CONTINUOUS
 62
             3
100
AcDbLine
 10
-11493.153556290141
 20
-17115.4098399877
 11
-11482.11690304717
 21
-17105.851817906529
  0
LINE
  5
4B
100
AcDbEntity
  8
0
  6
CONTINUOUS
 62
             7
100
AcDbLine
 10
-11482.01121718063
 20
-17104.73282802973
 11
-11492.988796216519
 21
-17114.239690346851
  0
LINE
  5
4A
100
AcDbEntity
  8
0
  6
CONTINUOUS
 62
             3
100
AcDbLine
 10
-11493.446532178619
 20
-17076.916978145291
 11
-11493.446532178619
 21
-17153.113540255868
  0
LINE
  5
49
100
AcDbEntity
  8
0
  6
CONTINUOUS
 62
             7
100
AcDbLine
 10
-11444.131146827051
 20
-17042.997436857699
 11
-11444.131146827051
 21
-17097.37682755903
  0
LINE
  5
48
100
AcDbEntity
  8
0
  6
CONTINUOUS
 62
             3
100
AcDbLine
 10
-11473.00880766694
 20
-17050.73518275905
 11
-11472.879398144391
 21
-17051.218145672199
  0
LINE
  5
47
100
AcDbEntity
  8
0
  6
CONTINUOUS
 62
             3
100
AcDbLine
 10
-11473.00880766694
 20
-17102.35737420935
 11
-11473.00880766694
 21
-17101.491348805572
  0
LINE
  5
46
100
AcDbEntity
  8
0
  6
CONTINUOUS
 62
             3
100
AcDbLine
 10
-11482.11690304717
 20
-17057.724070153388
 11
-11481.683890345281
 21
-17057.974070153388
  0
LINE
  5
45
100
AcDbEntity
  8
0
  6
CONTINUOUS
 62
             3
100
AcDbLine
 10
-11482.11690304717
 20
-17105.851817906529
 11
-11482.11690304717
 21
-17104.985792502739
  0
LINE
  5
44
100
AcDbEntity
  8
0
  6
CONTINUOUS
 62
             7
100
AcDbLine
 10
-11493.153556290141
 20
-17076.840114315721
 11
-11493.1524369531
 21
-17076.838175567111
  0
LINE
  5
43
100
AcDbEntity
  8
0
  6
CONTINUOUS
 62
             7
100
AcDbLine
 10
-11493.446532178619
 20
-17076.916978145291
 11
-11493.1524369531
 21
-17076.838175567111
  0
LINE
  5
42
100
AcDbEntity
  8
0
  6
CONTINUOUS
 62
             3
100
AcDbLine
 10
-11492.47389107768
 20
-17076.662899635608
 11
-11481.683890345281
 21
-17057.974070153388
  0
LINE
  5
41
100
AcDbEntity
  8
0
  6
CONTINUOUS
 62
             7
100
AcDbLine
 10
-11493.1524369531
 20
-17076.838175567111
 11
-11482.11690304717
 21
-17057.724070153388
  0
LINE
  5
40
100
AcDbEntity
  8
0
  6
CONTINUOUS
 62
             3
100
AcDbLine
 10
-11472.879398144391
 20
-17103.03186836782
 11
-11444.131146827051
 21
-17099.180333005679
  0
LINE
  5
3F
100
AcDbEntity
  8
0
  6
CONTINUOUS
 62
             3
100
AcDbLine
 10
-11444.131146827051
 20
-17097.6224758549
 11
-11473.00880766694
 21
-17101.491348805572
  0
LINE
  5
3E
100
AcDbEntity
  8
0
  6
CONTINUOUS
 62
             7
100
AcDbLine
 10
-11472.94579223244
 20
-17101.237258042311
 11
-11444.131146827051
 21
-17097.37682755903
  0
LINE
  5
3D
100
AcDbEntity
  8
0
  6
CONTINUOUS
 62
             3
100
AcDbLine
 10
-11473.00880766694
 20
-17102.35737420935
 11
-11444.131146827051
 21
-17098.488501258678
  0
LINE
  5
3C
100
AcDbEntity
  8
0
  6
CONTINUOUS
 62
             3
100
AcDbLine
 10
-11472.879398144391
 20
-17051.218145672199
 11
-11444.131146827051
 21
-17043.515074947911
  0
LINE
  5
3B
100
AcDbEntity
  8
0
  6
CONTINUOUS
 62
             7
100
AcDbLine
 10
-11473.00880766694
 20
-17050.73518275905
 11
-11444.131146827051
 21
-17042.997436857699
  0
LINE
  5
3A
100
AcDbEntity
  8
0
  6
CONTINUOUS
 62
             7
100
AcDbLine
 10
-11444.131146827051
 20
-17208.850252952721
 11
-11444.131146827051
 21
-17263.229643654049
  0
LINE
  5
39
100
AcDbEntity
  8
0
  6
CONTINUOUS
 62
             3
100
AcDbLine
 10
-11473.00880766694
 20
-17204.73573170618
 11
-11444.131146827051
 21
-17208.604604656841
  0
LINE
  5
38
100
AcDbEntity
  8
0
  6
CONTINUOUS
 62
             3
100
AcDbLine
 10
-11472.879398144391
 20
-17255.008934839549
 11
-11473.00880766694
 21
-17255.49189775269
  0
LINE
  5
37
100
AcDbEntity
  8
0
  6
CONTINUOUS
 62
             3
100
AcDbLine
 10
-11481.683890345281
 20
-17248.253010358359
 11
-11482.11690304717
 21
-17248.503010358359
  0
LINE
  5
36
100
AcDbEntity
  8
0
  6
CONTINUOUS
 62
             7
100
AcDbLine
 10
-11493.1524369531
 20
-17229.38890494463
 11
-11493.153556290141
 21
-17229.386966196009
  0
LINE
  5
35
100
AcDbEntity
  8
0
  6
CONTINUOUS
 62
             3
100
AcDbLine
 10
-11493.446532178619
 20
-17153.113540255868
 11
-11493.446532178619
 21
-17229.31010236646
  0
LINE
  5
34
100
AcDbEntity
  8
0
  6
CONTINUOUS
 62
             7
100
AcDbLine
 10
-11493.446532178619
 20
-17229.31010236646
 11
-11493.1524369531
 21
-17229.38890494463
  0
LINE
  5
33
100
AcDbEntity
  8
0
  6
CONTINUOUS
 62
             7
100
AcDbLine
 10
-11482.11690304717
 20
-17248.503010358359
 11
-11493.1524369531
 21
-17229.38890494463
  0
LINE
  5
32
100
AcDbEntity
  8
0
  6
CONTINUOUS
 62
             3
100
AcDbLine
 10
-11481.683890345281
 20
-17248.253010358359
 11
-11492.47389107768
 21
-17229.564180876139
  0
LINE
  5
31
100
AcDbEntity
  8
0
  6
CONTINUOUS
 62
             3
100
AcDbLine
 10
-11444.131146827051
 20
-17262.712005563841
 11
-11472.879398144391
 21
-17255.008934839549
  0
LINE
  5
30
100
AcDbEntity
  8
0
  6
CONTINUOUS
 62
             7
100
AcDbLine
 10
-11444.131146827051
 20
-17263.229643654049
 11
-11473.00880766694
 21
-17255.49189775269
  0
ENDBLK
  5
90
100
AcDbEntity
  8
0
100
AcDbBlockEnd
  0
BLOCK
  5
28
100
AcDbEntity
  8
0
100
AcDbBlockBegin
  2
BITUMENFOLIE-DN110
 70
             0
 10
-11774.119550249919
 20
-17056.197930313188
 30
0.0
  3
BITUMENFOLIE-DN110
  1

  0
LINE
  5
A0
100
AcDbEntity
  8
0
  6
CONTINUOUS
 62
             7
100
AcDbLine
 10
-11751.405280999999
 20
-17846.486780804091
 11
-11751.405280999999
 21
-17412.912690313158
  0
LINE
  5
9F
100
AcDbEntity
  8
0
  6
CONTINUOUS
 62
             7
100
AcDbLine
 10
-11751.405280999999
 20
-17846.486780804091
 11
-11751.405280999999
 21
-17874.590970755271
  0
LINE
  5
9E
100
AcDbEntity
  8
0
  6
CONTINUOUS
 62
             7
100
AcDbLine
 10
-11751.405280999999
 20
-17412.912690313158
 11
-11755.405280999999
 21
-17412.912690313158
  0
LINE
  5
9D
100
AcDbEntity
  8
0
  6
CONTINUOUS
 62
             7
100
AcDbLine
 10
-11755.405280999999
 20
-17846.21588831802
 11
-11755.405280999999
 21
-17912.912690313158
  0
LINE
  5
9C
100
AcDbEntity
  8
0
  6
CONTINUOUS
 62
             7
100
AcDbLine
 10
-11751.405280999999
 20
-17912.912690313158
 11
-11755.405280999999
 21
-17912.912690313158
  0
LINE
  5
9B
100
AcDbEntity
  8
0
  6
CONTINUOUS
 62
             7
100
AcDbLine
 10
-11755.405280999999
 20
-17412.912690313158
 11
-11755.405280999999
 21
-17479.609492308289
  0
LINE
  5
9A
100
AcDbEntity
  8
0
  6
CONTINUOUS
 62
             7
100
AcDbLine
 10
-11761.165827000001
 20
-17772.982510572871
 11
-11759.19192203499
 21
-17829.507753107198
  0
LINE
  5
99
100
AcDbEntity
  8
0
  6
CONTINUOUS
 62
             7
100
AcDbLine
 10
-11761.165827000001
 20
-17752.912690313158
 11
-11761.165827000001
 21
-17772.982510572871
  0
LINE
  5
98
100
AcDbEntity
  8
0
  6
CONTINUOUS
 62
             7
100
AcDbLine
 10
-11759.19192203499
 20
-17829.507753107198
 11
-11755.405280999999
 21
-17846.21588831802
  0
LINE
  5
97
100
AcDbEntity
  8
0
  6
CONTINUOUS
 62
             7
100
AcDbLine
 10
-11759.19192203499
 20
-17496.317627519111
 11
-11755.405280999999
 21
-17479.609492308289
  0
LINE
  5
96
100
AcDbEntity
  8
0
  6
CONTINUOUS
 62
             7
100
AcDbLine
 10
-11761.165827000001
 20
-17552.842870053439
 11
-11759.19192203499
 21
-17496.317627519111
  0
LINE
  5
95
100
AcDbEntity
  8
0
  6
CONTINUOUS
 62
             7
100
AcDbLine
 10
-11761.165827000001
 20
-17552.842870053439
 11
-11761.165827000001
 21
-17752.912690313158
  0
LINE
  5
94
100
AcDbEntity
  8
1
  6
PHANTOM
 62
             2
100
AcDbLine
 10
-11751.405280999999
 20
-17662.912690313158
 11
-11755.405280999999
 21
-17662.912690313158
  0
LINE
  5
93
100
AcDbEntity
  8
1
  6
CONTINUOUS
 62
             7
100
AcDbLine
 10
-11755.405280999999
 20
-17479.609492308289
 11
-11755.405280999999
 21
-17846.21588831802
  0
LINE
  5
92
100
AcDbEntity
  8
1
  6
CONTINUOUS
 62
             7
100
AcDbLine
 10
-11759.19192203499
 20
-17829.507753107198
 11
-11759.19192203499
 21
-17496.317627519111
  0
LINE
  5
91
100
AcDbEntity
  8
0
  6
CONTINUOUS
 62
             7
100
AcDbLine
 10
-11751.405280999999
 20
-17874.590970755271
 11
-11751.405280999999
 21
-17912.912690313158
  0
ENDBLK
  5
A1
100
AcDbEntity
  8
0
100
AcDbBlockEnd
  0
BLOCK
  5
2A
100
AcDbEntity
  8
0
100
AcDbBlockBegin
  2
DICHTUNG_DN110_ROHRDURRUNG
 70
             0
 10
-12.95372324992263
 20
689.71475999997142
 30
0.0
  3
DICHTUNG_DN110_ROHRDURRUNG
  1

  0
ARC
  5
AF
100
AcDbEntity
  8
0
  6
CONTINUOUS
 62
             7
100
AcDbCircle
 10
-18.52365485050746
 20
-67.49999999999477
 40
5.0
100
AcDbArc
 50
-90.0
 51
-24.99999999999059
  0
ARC
  5
AE
100
AcDbEntity
  8
0
  6
CONTINUOUS
 62
             7
100
AcDbCircle
 10
-18.52365485050746
 20
67.50000000000523
 40
5.00000000000198
100
AcDbArc
 50
24.99999999999059
 51
90.0
  0
ARC
  5
AD
100
AcDbEntity
  8
0
  6
CONTINUOUS
 62
             7
100
AcDbCircle
 10
-11.03316324684624
 20
68.00000000000205
 40
1.9999999999985
100
AcDbArc
 50
-155.00000000000185
 51
-90.0
  0
ARC
  5
AC
100
AcDbEntity
  8
0
  6
CONTINUOUS
 62
             7
100
AcDbCircle
 10
-11.03316324684624
 20
-67.99999999999454
 40
2.0
100
AcDbArc
 50
90.0
 51
155.00000000000776
  0
LINE
  5
AB
100
AcDbEntity
  8
0
  6
CONTINUOUS
 62
             7
100
AcDbLine
 10
-20.04337106447019
 20
-72.49999999999477
 11
-18.52365485050746
 21
-72.49999999999477
  0
LINE
  5
AA
100
AcDbEntity
  8
0
  6
CONTINUOUS
 62
             7
100
AcDbLine
 10
-12.84577882091821
 20
-67.15476347651406
 11
-13.99211591532207
 21
-69.61309130869836
  0
LINE
  5
A9
100
AcDbEntity
  8
0
  6
CONTINUOUS
 62
             7
100
AcDbLine
 10
-9.76054600000134
 20
66.00000000000205
 11
-11.03316324684624
 21
66.00000000000205
  0
LINE
  5
A8
100
AcDbEntity
  8
0
  6
CONTINUOUS
 62
             7
100
AcDbLine
 10
-20.04337106447019
 20
72.50000000000523
 11
-18.52365485050746
 21
72.50000000000523
  0
LINE
  5
A7
100
AcDbEntity
  8
0
  6
CONTINUOUS
 62
             7
100
AcDbLine
 10
-13.99211591532207
 20
69.61309130870586
 11
-12.84577882091821
 21
67.15476347652134
  0
LINE
  5
A6
100
AcDbEntity
  8
0
  6
CONTINUOUS
 62
             7
100
AcDbLine
 10
-11.03316324684624
 20
-65.99999999999454
 11
-9.76054600000134
 21
-65.99999999999454
  0
LINE
  5
A5
100
AcDbEntity
  8
1
  6
CONTINUOUS
 62
             3
100
AcDbLine
 10
-18.52365485050746
 20
72.50000000000523
 11
-18.52365485050746
 21
-72.4999999999967
  0
LINE
  5
A4
100
AcDbEntity
  8
1
  6
CONTINUOUS
 62
             3
100
AcDbLine
 10
-12.84577882091821
 20
-67.15476347651406
 11
-12.84577882091821
 21
67.15476347652134
  0
LINE
  5
A3
100
AcDbEntity
  8
1
  6
CONTINUOUS
 62
             3
100
AcDbLine
 10
-13.99211591532207
 20
69.61309130870882
 11
-13.99211591532207
 21
-69.61309130869836
  0
LINE
  5
A2
100
AcDbEntity
  8
1
  6
CONTINUOUS
 62
             3
100
AcDbLine
 10
-11.03316324684624
 20
-65.99999999999454
 11
-11.03316324684624
 21
66.00000000000205
  0
ENDBLK
  5
B0
100
AcDbEntity
  8
0
100
AcDbBlockEnd
  0
BLOCK
  5
B5
100
AcDbEntity
  8
0
100
AcDbBlockBegin
  2
*D3
 70
             1
 10
0.0
 20
0.0
 30
0.0
  3
*D3
  1

  0
LINE
  5
B6
100
AcDbEntity
  8
0
  6
CONTINUOUS
 62
             4
100
AcDbLine
 10
0.0
 20
-224.67828044211271
 11
-79.99999999999818
 21
-224.67828044211271
  0
LINE
  5
B7
100
AcDbEntity
  8
0
  6
CONTINUOUS
 62
             4
100
AcDbLine
 10
0.0
 20
-211.67828044211271
 11
0.0
 21
-226.67828044211271
  0
LINE
  5
B8
100
AcDbEntity
  8
0
  6
CONTINUOUS
 62
             4
100
AcDbLine
 10
-79.99999999999818
 20
-71.36693297913732
 11
-79.99999999999818
 21
-226.67828044211271
  0
SOLID
  5
B9
100
AcDbEntity
  8
0
 62
             4
100
AcDbTrace
 10
-5.0
 20
-225.33654293004969
 11
-5.0
 21
-224.02001795417573
 12
0.0
 22
-224.67828044211271
 13
0.0
 23
-224.67828044211271
  0
SOLID
  5
BA
100
AcDbEntity
  8
0
 62
             4
100
AcDbTrace
 10
-74.99999999999818
 20
-224.02001795417573
 11
-74.99999999999818
 21
-225.33654293004969
 12
-79.99999999999818
 22
-224.67828044211271
 13
-79.99999999999818
 23
-224.67828044211271
  0
MTEXT
  5
BC
100
AcDbEntity
  8
0
 62
             1
100
AcDbMText
 10
-44.17329556755581
 20
-222.67828044211271
 30
0.0
 40
5.0
 41
0.0
 71
             7
 72
             1
  1
80
  7
CONVERTER_1
 11
0.99999999999706
 21
0.00000242406841
 31
0.0
  0
ENDBLK
  5
BD
100
AcDbEntity
  8
0
100
AcDbBlockEnd
  0
BLOCK
  5
C1
100
AcDbEntity
  8
0
100
AcDbBlockBegin
  2
*D4
 70
             1
 10
0.0
 20
0.0
 30
0.0
  3
*D4
  1

  0
LINE
  5
C2
100
AcDbEntity
  8
0
  6
CONTINUOUS
 62
             4
100
AcDbLine
 10
-108.042835456329
 20
-54.99999999999727
 11
-108.042835456329
 21
55.00000000000273
  0
LINE
  5
C3
100
AcDbEntity
  8
0
  6
CONTINUOUS
 62
             4
100
AcDbLine
 10
-86.04283545631684
 20
-54.99999999999727
 11
-110.042835456329
 21
-54.99999999999727
  0
LINE
  5
C4
100
AcDbEntity
  8
0
  6
CONTINUOUS
 62
             4
100
AcDbLine
 10
-86.04283545632904
 20
55.00000000000273
 11
-110.042835456329
 21
55.00000000000273
  0
SOLID
  5
C5
100
AcDbEntity
  8
0
 62
             4
100
AcDbTrace
 10
-108.70109794426598
 20
-49.99999999999727
 11
-107.38457296839202
 21
-49.99999999999727
 12
-108.042835456329
 22
-54.99999999999727
 13
-108.042835456329
 23
-54.99999999999727
  0
SOLID
  5
C6
100
AcDbEntity
  8
0
 62
             4
100
AcDbTrace
 10
-107.38457296839202
 20
50.00000000000273
 11
-108.70109794426598
 21
50.00000000000273
 12
-108.042835456329
 22
55.00000000000273
 13
-108.042835456329
 23
55.00000000000273
  0
MTEXT
  5
C7
100
AcDbEntity
  8
0
 62
             1
100
AcDbMText
 10
-110.042835456329
 20
-6.35912713192324
 30
0.0
 40
5.0
 41
0.0
 71
             7
 72
             1
  1
\C1;DN\C1;110
  7
CONVERTER_1
 11
0.0
 21
1.0
 31
0.0
  0
ENDBLK
  5
C8
100
AcDbEntity
  8
0
100
AcDbBlockEnd
  0
ENDSEC
  0
SECTION
  2
ENTITIES
  0
DIMENSION
  5
CA
100
AcDbEntity
  8
1
100
AcDbDimension
  2
*D4
 10
-108.042835456329
 20
-54.99999999999727
 11
-112.542835456329
 21
0.84087286807676
 31
0.0
 53
90.0
  1
<>
  3
ME10_DIM_1
100
AcDbAlignedDimension
 13
-86.04283545632906
 23
55.00000000000273
 14
-86.04283545631685
 24
-54.99999999999727
 50
90.0
100
AcDbRotatedDimension
  0
DIMENSION
  5
BF
100
AcDbEntity
  8
1
100
AcDbDimension
  2
*D3
 10
0.0
 20
-224.67828044211271
 11
-40.42329556755581
 21
-220.17828044211271
 31
0.0
 53
180.0
  1
<>
  3
ME10_DIM_0
100
AcDbAlignedDimension
 13
-80.0
 23
-71.36693297914098
 14
0.0
 24
-211.67828044211274
 50
180.0
100
AcDbRotatedDimension
  0
LINE
  5
B3
100
AcDbEntity
  8
1
  6
DOT_CENTER
 62
             2
100
AcDbLine
 10
-86.04283545631685
 20
-54.99999999999727
 11
-83.04283545631685
 21
-54.99999999999727
  0
LINE
  5
B2
100
AcDbEntity
  8
1
  6
DOT_CENTER
 62
             2
100
AcDbLine
 10
-86.04283545632906
 20
55.00000000000273
 11
-83.04283545632906
 21
55.00000000000273
  0
INSERT
  5
2D
100
AcDbEntity
  8
0
100
AcDbBlockReference
  2
MUTTERDN110-ARTIKEL
 10
-92.95372324992059
 20
743.7938363107678
  0
INSERT
  5
2E
100
AcDbEntity
  8
0
100
AcDbBlockReference
  2
BITUMENFOLIE-DN110
 10
-22.71426924992011
 20
606.71475999996983
  0
INSERT
  5
2F
100
AcDbEntity
  8
0
100
AcDbBlockReference
  2
DICHTUNG_DN110_ROHRDURRUNG
 10
-12.95372324992263
 20
689.71475999997142
  0
ENDSEC
  0
SECTION
  2
OBJECTS
  0
DICTIONARY
  5
19
100
AcDbDictionary
  3
ACAD_GROUP
350
1A
  3
ACAD_MLINESTYLE
350
1B
  0
DICTIONARY
  5
1A
102
{ACAD_REACTORS
330
19
102
}
100
AcDbDictionary
  0
DICTIONARY
  5
1B
102
{ACAD_REACTORS
330
19
102
}
100
AcDbDictionary
  3
STANDARD
350
1C
  0
MLINESTYLE
  5
1C
102
{ACAD_REACTORS
330
1B
102
}
100
AcDbMlineStyle
  2
STANDARD
 70
             0
  3

 62
             0
 51
90.0
 52
90.0
 71
             2
 49
0.5
 62
           256
  6
BYLAYER
 49
-0.5
 62
           256
  6
BYLAYER
  0
ENDSEC
  0
EOF
