  0
SECTION
  2
HEADER
  9
$ACADVER
  1
AC1015
  9
$ACADMAINTVER
 70
     6
  9
$DWGCODEPAGE
  3
ANSI_1252
  9
$INSBASE
 10
0.0
 20
0.0
 30
0.0
  9
$EXTMIN
 10
481.8478992018953
 20
878.0
 30
0.0
  9
$EXTMAX
 10
589.686476975203
 20
1378.0
 30
0.0
  9
$LIMMIN
 10
0.0
 20
0.0
  9
$LIMMAX
 10
12.0
 20
9.0
  9
$ORTHOMODE
 70
     0
  9
$REGENMODE
 70
     1
  9
$FILLMODE
 70
     1
  9
$QTEXTMODE
 70
     0
  9
$MIRRTEXT
 70
     1
  9
$LTSCALE
 40
1.0
  9
$ATTMODE
 70
     1
  9
$TEXTSIZE
 40
0.2
  9
$TRACEWID
 40
0.05
  9
$TEXTSTYLE
  7
Standard
  9
$CLAYER
  8
0
  9
$CELTYPE
  6
ByLayer
  9
$CECOLOR
 62
   256
  9
$CELTSCALE
 40
1.0
  9
$DISPSILH
 70
     0
  9
$DIMSCALE
 40
1.0
  9
$DIMASZ
 40
0.18
  9
$DIMEXO
 40
0.0625
  9
$DIMDLI
 40
0.38
  9
$DIMRND
 40
0.0
  9
$DIMDLE
 40
0.0
  9
$DIMEXE
 40
0.18
  9
$DIMTP
 40
0.0
  9
$DIMTM
 40
0.0
  9
$DIMTXT
 40
0.18
  9
$DIMCEN
 40
0.09
  9
$DIMTSZ
 40
0.0
  9
$DIMTOL
 70
     0
  9
$DIMLIM
 70
     0
  9
$DIMTIH
 70
     1
  9
$DIMTOH
 70
     1
  9
$DIMSE1
 70
     0
  9
$DIMSE2
 70
     0
  9
$DIMTAD
 70
     0
  9
$DIMZIN
 70
     0
  9
$DIMBLK
  1

  9
$DIMASO
 70
     1
  9
$DIMSHO
 70
     1
  9
$DIMPOST
  1

  9
$DIMAPOST
  1

  9
$DIMALT
 70
     0
  9
$DIMALTD
 70
     2
  9
$DIMALTF
 40
25.4
  9
$DIMLFAC
 40
1.0
  9
$DIMTOFL
 70
     0
  9
$DIMTVP
 40
0.0
  9
$DIMTIX
 70
     0
  9
$DIMSOXD
 70
     0
  9
$DIMSAH
 70
     0
  9
$DIMBLK1
  1

  9
$DIMBLK2
  1

  9
$DIMSTYLE
  2
Standard
  9
$DIMCLRD
 70
     0
  9
$DIMCLRE
 70
     0
  9
$DIMCLRT
 70
     0
  9
$DIMTFAC
 40
1.0
  9
$DIMGAP
 40
0.09
  9
$DIMJUST
 70
     0
  9
$DIMSD1
 70
     0
  9
$DIMSD2
 70
     0
  9
$DIMTOLJ
 70
     1
  9
$DIMTZIN
 70
     0
  9
$DIMALTZ
 70
     0
  9
$DIMALTTZ
 70
     0
  9
$DIMUPT
 70
     0
  9
$DIMDEC
 70
     4
  9
$DIMTDEC
 70
     4
  9
$DIMALTU
 70
     2
  9
$DIMALTTD
 70
     2
  9
$DIMTXSTY
  7
Standard
  9
$DIMAUNIT
 70
     0
  9
$DIMADEC
 70
     0
  9
$DIMALTRND
 40
0.0
  9
$DIMAZIN
 70
     0
  9
$DIMDSEP
 70
    46
  9
$DIMATFIT
 70
     3
  9
$DIMFRAC
 70
     0
  9
$DIMLDRBLK
  1

  9
$DIMLUNIT
 70
     2
  9
$DIMLWD
 70
    -2
  9
$DIMLWE
 70
    -2
  9
$DIMTMOVE
 70
     0
  9
$LUNITS
 70
     2
  9
$LUPREC
 70
     4
  9
$SKETCHINC
 40
0.1
  9
$FILLETRAD
 40
0.5
  9
$AUNITS
 70
     0
  9
$AUPREC
 70
     0
  9
$MENU
  1
.
  9
$ELEVATION
 40
0.0
  9
$PELEVATION
 40
0.0
  9
$THICKNESS
 40
0.0
  9
$LIMCHECK
 70
     0
  9
$CHAMFERA
 40
0.5
  9
$CHAMFERB
 40
0.5
  9
$CHAMFERC
 40
1.0
  9
$CHAMFERD
 40
0.0
  9
$SKPOLY
 70
     0
  9
$TDCREATE
 40
2454560.628649942
  9
$TDUCREATE
 40
2454560.545316609
  9
$TDUPDATE
 40
2454560.628649954
  9
$TDUUPDATE
 40
2454560.54531662
  9
$TDINDWG
 40
0.0000000116
  9
$TDUSRTIMER
 40
0.0000000116
  9
$USRTIMER
 70
     1
  9
$ANGBASE
 50
0.0
  9
$ANGDIR
 70
     0
  9
$PDMODE
 70
     0
  9
$PDSIZE
 40
0.0
  9
$PLINEWID
 40
0.0
  9
$SPLFRAME
 70
     0
  9
$SPLINETYPE
 70
     6
  9
$SPLINESEGS
 70
     8
  9
$HANDSEED
  5
16E
  9
$SURFTAB1
 70
     6
  9
$SURFTAB2
 70
     6
  9
$SURFTYPE
 70
     6
  9
$SURFU
 70
     6
  9
$SURFV
 70
     6
  9
$UCSBASE
  2

  9
$UCSNAME
  2

  9
$UCSORG
 10
0.0
 20
0.0
 30
0.0
  9
$UCSXDIR
 10
1.0
 20
0.0
 30
0.0
  9
$UCSYDIR
 10
0.0
 20
1.0
 30
0.0
  9
$UCSORTHOREF
  2

  9
$UCSORTHOVIEW
 70
     0
  9
$UCSORGTOP
 10
0.0
 20
0.0
 30
0.0
  9
$UCSORGBOTTOM
 10
0.0
 20
0.0
 30
0.0
  9
$UCSORGLEFT
 10
0.0
 20
0.0
 30
0.0
  9
$UCSORGRIGHT
 10
0.0
 20
0.0
 30
0.0
  9
$UCSORGFRONT
 10
0.0
 20
0.0
 30
0.0
  9
$UCSORGBACK
 10
0.0
 20
0.0
 30
0.0
  9
$PUCSBASE
  2

  9
$PUCSNAME
  2

  9
$PUCSORG
 10
0.0
 20
0.0
 30
0.0
  9
$PUCSXDIR
 10
1.0
 20
0.0
 30
0.0
  9
$PUCSYDIR
 10
0.0
 20
1.0
 30
0.0
  9
$PUCSORTHOREF
  2

  9
$PUCSORTHOVIEW
 70
     0
  9
$PUCSORGTOP
 10
0.0
 20
0.0
 30
0.0
  9
$PUCSORGBOTTOM
 10
0.0
 20
0.0
 30
0.0
  9
$PUCSORGLEFT
 10
0.0
 20
0.0
 30
0.0
  9
$PUCSORGRIGHT
 10
0.0
 20
0.0
 30
0.0
  9
$PUCSORGFRONT
 10
0.0
 20
0.0
 30
0.0
  9
$PUCSORGBACK
 10
0.0
 20
0.0
 30
0.0
  9
$USERI1
 70
     0
  9
$USERI2
 70
     0
  9
$USERI3
 70
     0
  9
$USERI4
 70
     0
  9
$USERI5
 70
     0
  9
$USERR1
 40
15.5
  9
$USERR2
 40
0.0
  9
$USERR3
 40
0.0
  9
$USERR4
 40
0.0
  9
$USERR5
 40
0.0
  9
$WORLDVIEW
 70
     1
  9
$SHADEDGE
 70
     3
  9
$SHADEDIF
 70
    70
  9
$TILEMODE
 70
     1
  9
$MAXACTVP
 70
    64
  9
$PINSBASE
 10
0.0
 20
0.0
 30
0.0
  9
$PLIMCHECK
 70
     0
  9
$PEXTMIN
 10
1.00000000000000E+20
 20
1.00000000000000E+20
 30
1.00000000000000E+20
  9
$PEXTMAX
 10
-1.00000000000000E+20
 20
-1.00000000000000E+20
 30
-1.00000000000000E+20
  9
$PLIMMIN
 10
0.0
 20
0.0
  9
$PLIMMAX
 10
12.0
 20
9.0
  9
$UNITMODE
 70
     0
  9
$VISRETAIN
 70
     1
  9
$PLINEGEN
 70
     0
  9
$PSLTSCALE
 70
     1
  9
$TREEDEPTH
 70
  3020
  9
$CMLSTYLE
  2
Standard
  9
$CMLJUST
 70
     0
  9
$CMLSCALE
 40
1.0
  9
$PROXYGRAPHICS
 70
     1
  9
$MEASUREMENT
 70
     1
  9
$CELWEIGHT
370
    -1
  9
$ENDCAPS
280
     0
  9
$JOINSTYLE
280
     0
  9
$LWDISPLAY
290
     0
  9
$INSUNITS
 70
     1
  9
$HYPERLINKBASE
  1

  9
$STYLESHEET
  1

  9
$XEDIT
290
     1
  9
$CEPSNTYPE
380
     0
  9
$PSTYLEMODE
290
     1
  9
$FINGERPRINTGUID
  2
{96514E7E-2D46-46EC-87BC-334A40DAC838}
  9
$VERSIONGUID
  2
{FAEB1C32-E019-11D5-929B-00C0DF256EC4}
  9
$EXTNAMES
290
     1
  9
$PSVPSCALE
 40
0.0
  9
$OLESTARTUP
290
     0
  0
ENDSEC
  0
SECTION
  2
CLASSES
  0
CLASS
  1
ACDBDICTIONARYWDFLT
  2
AcDbDictionaryWithDefault
  3
ObjectDBX Classes
 90
        0
280
     0
281
     0
  0
CLASS
  1
VISUALSTYLE
  2
AcDbVisualStyle
  3
ObjectDBX Classes
 90
     4095
280
     0
281
     0
  0
CLASS
  1

  2
exOdDbSpline
  3

 90
        0
280
     0
281
     1
  0
CLASS
  1

  2
exOdDbCircle
  3

 90
        0
280
     0
281
     1
  0
CLASS
  1
ACDBPLACEHOLDER
  2
AcDbPlaceHolder
  3
ObjectDBX Classes
 90
        0
280
     0
281
     0
  0
CLASS
  1
LAYOUT
  2
AcDbLayout
  3
ObjectDBX Classes
 90
        0
280
     0
281
     0
  0
ENDSEC
  0
SECTION
  2
TABLES
  0
TABLE
  2
VPORT
  5
8
330
0
100
AcDbSymbolTable
 70
     1
  0
VPORT
  5
29
330
8
100
AcDbSymbolTableRecord
100
AcDbViewportTableRecord
  2
*Active
 70
     0
 10
0.0
 20
0.0
 11
1.0
 21
1.0
 12
535.7671880885491
 22
1128.0
 13
0.0
 23
0.0
 14
0.5
 24
0.5
 15
0.5
 25
0.5
 16
0.0
 26
0.0
 36
1.0
 17
0.0
 27
0.0
 37
0.0
 40
550.0
 41
1.60267857142857
 42
50.0
 43
0.0
 44
0.0
 50
0.0
 51
0.0
 71
     0
 72
   100
 73
     1
 74
     3
 75
     0
 76
     0
 77
     0
 78
     0
281
     0
 65
     1
110
0.0
120
0.0
130
0.0
111
1.0
121
0.0
131
0.0
112
0.0
122
1.0
132
0.0
 79
     0
146
0.0
  0
ENDTAB
  0
TABLE
  2
LTYPE
  5
5
330
0
100
AcDbSymbolTable
 70
     8
  0
LTYPE
  5
14
330
5
100
AcDbSymbolTableRecord
100
AcDbLinetypeTableRecord
  2
ByBlock
 70
     0
  3

 72
    65
 73
     0
 40
0.0
  0
LTYPE
  5
15
330
5
100
AcDbSymbolTableRecord
100
AcDbLinetypeTableRecord
  2
ByLayer
 70
     0
  3

 72
    65
 73
     0
 40
0.0
  0
LTYPE
  5
16
330
5
100
AcDbSymbolTableRecord
100
AcDbLinetypeTableRecord
  2
Continuous
 70
     0
  3
Solid line
 72
    65
 73
     0
 40
0.0
  0
LTYPE
  5
3B
330
5
100
AcDbSymbolTableRecord
100
AcDbLinetypeTableRecord
  2
DASHED
 70
     0
  3
Dashed
 72
    65
 73
     2
 40
15.0
 49
7.0
 74
     0
 49
-8.0
 74
     0
  0
LTYPE
  5
3C
330
5
100
AcDbSymbolTableRecord
100
AcDbLinetypeTableRecord
  2
DOTTED
 70
     0
  3
Dotted
 72
    65
 73
     2
 40
1.0
 49
0.0
 74
     0
 49
-1.0
 74
     0
  0
LTYPE
  5
3D
330
5
100
AcDbSymbolTableRecord
100
AcDbLinetypeTableRecord
  2
DOT_CENTER
 70
     0
  3
Dot_Center
 72
    65
 73
     4
 40
14.0
 49
12.0
 74
     0
 49
-1.0
 74
     0
 49
0.0
 74
     0
 49
-1.0
 74
     0
  0
LTYPE
  5
3E
330
5
100
AcDbSymbolTableRecord
100
AcDbLinetypeTableRecord
  2
LONG_DASHED
 70
     0
  3
Long_Dashed
 72
    65
 73
     2
 40
15.0
 49
10.0
 74
     0
 49
-5.0
 74
     0
  0
LTYPE
  5
3F
330
5
100
AcDbSymbolTableRecord
100
AcDbLinetypeTableRecord
  2
DASH_CENTER
 70
     0
  3
Dash_Center
 72
    65
 73
     4
 40
14.0
 49
11.0
 74
     0
 49
-1.0
 74
     0
 49
1.0
 74
     0
 49
-1.0
 74
     0
  0
LTYPE
  5
40
330
5
100
AcDbSymbolTableRecord
100
AcDbLinetypeTableRecord
  2
PHANTOM
 70
     0
  3
Phantom
 72
    65
 73
     6
 40
13.0
 49
10.0
 74
     0
 49
-1.0
 74
     0
 49
0.0
 74
     0
 49
-1.0
 74
     0
 49
0.0
 74
     0
 49
-1.0
 74
     0
  0
LTYPE
  5
41
330
5
100
AcDbSymbolTableRecord
100
AcDbLinetypeTableRecord
  2
CENTER_DASH_DASH
 70
     0
  3
Center_Dash_Dash
 72
    65
 73
     6
 40
14.0
 49
9.0
 74
     0
 49
-1.0
 74
     0
 49
1.0
 74
     0
 49
-1.0
 74
     0
 49
1.0
 74
     0
 49
-1.0
 74
     0
  0
ENDTAB
  0
TABLE
  2
LAYER
  5
2
330
0
100
AcDbSymbolTable
 70
     2
  0
LAYER
  5
10
330
2
100
AcDbSymbolTableRecord
100
AcDbLayerTableRecord
  2
0
 70
     0
 62
     7
  6
Continuous
370
    -3
390
F
  0
LAYER
  5
42
330
2
100
AcDbSymbolTableRecord
100
AcDbLayerTableRecord
  2
1
 70
     0
 62
     7
  6
Continuous
370
    -3
390
F
  0
ENDTAB
  0
TABLE
  2
STYLE
  5
3
330
0
100
AcDbSymbolTable
 70
     3
  0
STYLE
  5
11
330
3
100
AcDbSymbolTableRecord
100
AcDbTextStyleTableRecord
  2
Standard
 70
     0
 40
0.0
 41
1.0
 50
0.0
 71
     0
 42
0.2
  3
txt
  4

  0
STYLE
  5
154
330
3
100
AcDbSymbolTableRecord
100
AcDbTextStyleTableRecord
  2
CONVERTER_11
 70
     0
 40
0.0
 41
0.95
 50
0.0
 71
     0
 42
0.2
  3
simplex.shx
  4

  0
STYLE
  5
15C
330
3
100
AcDbSymbolTableRecord
100
AcDbTextStyleTableRecord
  2
CONVERTER_12
 70
     0
 40
0.0
 41
0.9
 50
0.0
 71
     0
 42
0.2
  3
txt.shx
  4

  0
ENDTAB
  0
TABLE
  2
VIEW
  5
6
330
0
100
AcDbSymbolTable
 70
     0
  0
ENDTAB
  0
TABLE
  2
UCS
  5
7
330
0
100
AcDbSymbolTable
 70
     0
  0
ENDTAB
  0
TABLE
  2
APPID
  5
9
330
0
100
AcDbSymbolTable
 70
     1
  0
APPID
  5
12
330
9
100
AcDbSymbolTableRecord
100
AcDbRegAppTableRecord
  2
ACAD
 70
     0
  0
ENDTAB
  0
TABLE
  2
DIMSTYLE
  5
A
330
0
100
AcDbSymbolTable
 70
     3
100
AcDbDimStyleTable
  0
DIMSTYLE
105
27
330
A
100
AcDbSymbolTableRecord
100
AcDbDimStyleTableRecord
  2
Standard
 70
     0
340
11
  0
DIMSTYLE
105
160
102
{ACAD_REACTORS
330
161
102
}
330
A
100
AcDbSymbolTableRecord
100
AcDbDimStyleTableRecord
  2
ME10_DIM_10
 70
     0
  3
DN<>
 41
10.0
 42
0.0
 44
2.0
 73
     0
 74
     0
 77
     1
 78
     8
140
10.0
147
2.0
172
     1
173
     1
176
     4
177
     4
178
     1
271
     2
340
15C
  0
DIMSTYLE
105
16B
102
{ACAD_REACTORS
330
16C
102
}
330
A
100
AcDbSymbolTableRecord
100
AcDbDimStyleTableRecord
  2
ME10_DIM_11
 70
     0
 41
10.0
 42
0.0
 44
2.0
 73
     0
 74
     0
 77
     1
 78
     8
140
10.0
147
2.0
172
     1
173
     1
176
     4
177
     4
178
     1
271
     2
340
15C
  0
ENDTAB
  0
TABLE
  2
BLOCK_RECORD
  5
1
330
0
100
AcDbSymbolTable
 70
     7
  0
BLOCK_RECORD
  5
1F
330
1
100
AcDbSymbolTableRecord
100
AcDbBlockTableRecord
  2
*Model_Space
340
22
  0
BLOCK_RECORD
  5
1B
330
1
100
AcDbSymbolTableRecord
100
AcDbBlockTableRecord
  2
*Paper_Space
340
1E
  0
BLOCK_RECORD
  5
23
330
1
100
AcDbSymbolTableRecord
100
AcDbBlockTableRecord
  2
*Paper_Space0
340
26
  0
BLOCK_RECORD
  5
43
330
1
100
AcDbSymbolTableRecord
100
AcDbBlockTableRecord
  2
DN125-Artikel-Dichtmanschette
340
0
102
{BLKREFS
331
4D
102
}
  0
BLOCK_RECORD
  5
46
330
1
100
AcDbSymbolTableRecord
100
AcDbBlockTableRecord
  2
Dichtmatte
340
0
102
{BLKREFS
331
4E
102
}
  0
BLOCK_RECORD
  5
49
330
1
100
AcDbSymbolTableRecord
100
AcDbBlockTableRecord
  2
MutterDN125-Artikel
340
0
102
{BLKREFS
331
4F
102
}
  0
BLOCK_RECORD
  5
4C
330
1
100
AcDbSymbolTableRecord
100
AcDbBlockTableRecord
  2
Bgr_DN125__1
340
0
102
{BLKREFS
331
52
102
}
  0
BLOCK_RECORD
  5
156
330
1
100
AcDbSymbolTableRecord
100
AcDbBlockTableRecord
  2
*D5
340
0
  0
BLOCK_RECORD
  5
162
330
1
100
AcDbSymbolTableRecord
100
AcDbBlockTableRecord
  2
*D6
340
0
  0
ENDTAB
  0
ENDSEC
  0
SECTION
  2
BLOCKS
  0
BLOCK
  5
20
330
1F
100
AcDbEntity
  8
0
100
AcDbBlockBegin
  2
*Model_Space
 70
     0
 71
     0
 10
0.0
 20
0.0
 30
0.0
  3
*Model_Space
  1

  0
ENDBLK
  5
21
330
1F
100
AcDbEntity
  8
0
100
AcDbBlockEnd
  0
BLOCK
  5
1C
330
1B
100
AcDbEntity
 67
     1
  8
0
100
AcDbBlockBegin
  2
*Paper_Space
 70
     0
 71
     0
 10
0.0
 20
0.0
 30
0.0
  3
*Paper_Space
  1

  0
ENDBLK
  5
1D
330
1B
100
AcDbEntity
 67
     1
  8
0
100
AcDbBlockEnd
  0
BLOCK
  5
24
330
23
100
AcDbEntity
  8
0
100
AcDbBlockBegin
  2
*Paper_Space0
 70
     0
 71
     0
 10
0.0
 20
0.0
 30
0.0
  3
*Paper_Space0
  1

  0
ENDBLK
  5
25
330
23
100
AcDbEntity
  8
0
100
AcDbBlockEnd
  0
BLOCK
  5
44
330
43
100
AcDbEntity
  8
0
100
AcDbBlockBegin
  2
DN125-Artikel-Dichtmanschette
 70
     0
 71
     0
 10
569.8282703251841
 20
953.0000000000002
 30
0.0
  3
DN125-Artikel-Dichtmanschette
  1

  0
LINE
  5
53
330
43
100
AcDbEntity
  8
0
  6
Continuous
 62
     7
100
AcDbLine
 10
576.2739713482547
 20
1201.5
 30
0.0
 11
574.2408081014086
 21
1201.5
 31
0.0
  0
LINE
  5
54
330
43
100
AcDbEntity
  8
0
  6
Continuous
 62
     7
100
AcDbLine
 10
572.4281925273353
 20
1202.654763476518
 30
0.0
 11
571.281855432932
 21
1205.113091308703
 31
0.0
  0
LINE
  5
55
330
43
100
AcDbEntity
  8
0
  6
Continuous
 62
     3
100
AcDbLine
 10
572.4281925273353
 20
1202.654763476518
 30
0.0
 11
572.4281925273353
 21
1053.345236523482
 31
0.0
  0
LINE
  5
56
330
43
100
AcDbEntity
  8
0
  6
Continuous
 62
     3
100
AcDbLine
 10
574.2408081014086
 20
1201.5
 30
0.0
 11
574.2408081014086
 21
1054.5
 31
0.0
  0
LINE
  5
57
330
43
100
AcDbEntity
  8
0
  6
Continuous
 62
     7
100
AcDbLine
 10
585.2739713482547
 20
1303.0
 30
0.0
 11
585.2739713482547
 21
953.0000000000002
 31
0.0
  0
LINE
  5
58
330
43
100
AcDbEntity
  8
0
  6
Continuous
 62
     3
100
AcDbLine
 10
571.281855432932
 20
1205.113091308703
 30
0.0
 11
571.281855432932
 21
1050.886908691297
 31
0.0
  0
LINE
  5
59
330
43
100
AcDbEntity
  8
0
  6
Continuous
 62
     7
100
AcDbLine
 10
572.4281925273353
 20
1053.345236523482
 30
0.0
 11
571.281855432932
 21
1050.886908691297
 31
0.0
  0
LINE
  5
5A
330
43
100
AcDbEntity
  8
0
  6
Continuous
 62
     7
100
AcDbLine
 10
576.2739713482547
 20
1054.5
 30
0.0
 11
574.2408081014086
 21
1054.5
 31
0.0
  0
LINE
  5
5B
330
43
100
AcDbEntity
  8
1
  6
DOT_CENTER
 62
     2
100
AcDbLine
 10
572.4281925273353
 20
1128.0
 30
0.0
 11
571.281855432932
 21
1128.0
 31
0.0
  0
ARC
  5
5C
330
43
100
AcDbEntity
  8
0
  6
Continuous
 62
     7
100
AcDbCircle
 10
574.2408081014086
 20
1203.5
 30
0.0
 40
2.000000000000212
100
AcDbArc
 50
-154.9999999999816
 51
-90.0
  0
ARC
  5
5D
330
43
100
AcDbEntity
  8
0
  6
Continuous
 62
     7
100
AcDbCircle
 10
566.7503164977488
 20
1203.0
 30
0.0
 40
4.999999999999724
100
AcDbArc
 50
24.999999999994
 51
52.00514108887857
  0
ARC
  5
5E
330
43
100
AcDbEntity
  8
0
  6
Continuous
 62
     7
100
AcDbCircle
 10
574.2408081014086
 20
1052.5
 30
0.0
 40
2.0
100
AcDbArc
 50
90.0
 51
154.9999999999816
  0
ARC
  5
5F
330
43
100
AcDbEntity
  8
0
  6
Continuous
 62
     7
100
AcDbCircle
 10
566.7503164977488
 20
1053.0
 30
0.0
 40
4.999999999999717
100
AcDbArc
 50
-52.00514108887857
 51
-24.999999999994
  0
ENDBLK
  5
45
330
43
100
AcDbEntity
  8
0
100
AcDbBlockEnd
  0
BLOCK
  5
47
330
46
100
AcDbEntity
  8
0
100
AcDbBlockBegin
  2
Dichtmatte
 70
     0
 71
     0
 10
576.2739713482547
 20
878.0
 30
0.0
  3
Dichtmatte
  1

  0
LINE
  5
60
330
46
100
AcDbEntity
  8
0
  6
Continuous
 62
     7
100
AcDbLine
 10
576.2739713482547
 20
1243.778919997081
 30
0.0
 11
578.2874322341372
 21
1301.436895900458
 31
0.0
  0
LINE
  5
61
330
46
100
AcDbEntity
  8
0
  6
Continuous
 62
     7
100
AcDbLine
 10
585.2739713482547
 20
1378.0
 30
0.0
 11
581.2739713482547
 21
1378.0
 31
0.0
  0
LINE
  5
62
330
46
100
AcDbEntity
  8
0
  6
Continuous
 62
     7
100
AcDbLine
 10
585.2739713482547
 20
1378.0
 30
0.0
 11
585.2739713482547
 21
1303.0
 31
0.0
  0
LINE
  5
63
330
46
100
AcDbEntity
  8
0
  6
Continuous
 62
     7
100
AcDbLine
 10
578.2874322341372
 20
1301.436895900458
 30
0.0
 11
581.2739713482547
 21
1321.386211106185
 31
0.0
  0
LINE
  5
64
330
46
100
AcDbEntity
  8
0
  6
Continuous
 62
     7
100
AcDbLine
 10
581.2739713482547
 20
1378.0
 30
0.0
 11
581.2739713482547
 21
1321.386211106185
 31
0.0
  0
LINE
  5
65
330
46
100
AcDbEntity
  8
0
  6
Continuous
 62
     7
100
AcDbLine
 10
576.2739713482547
 20
1012.221080002919
 30
0.0
 11
578.2874322341372
 21
954.5631040995423
 31
0.0
  0
LINE
  5
66
330
46
100
AcDbEntity
  8
0
  6
Continuous
 62
     7
100
AcDbLine
 10
576.2739713482547
 20
1243.778919997081
 30
0.0
 11
576.2739713482547
 21
1012.221080002919
 31
0.0
  0
LINE
  5
67
330
46
100
AcDbEntity
  8
0
  6
Continuous
 62
     7
100
AcDbLine
 10
585.2739713482547
 20
1303.0
 30
0.0
 11
585.2739713482547
 21
953.0000000000002
 31
0.0
  0
LINE
  5
68
330
46
100
AcDbEntity
  8
0
  6
Continuous
 62
     7
100
AcDbLine
 10
578.2874322341372
 20
1301.436895900458
 30
0.0
 11
578.2874322341372
 21
954.5631040995423
 31
0.0
  0
LINE
  5
69
330
46
100
AcDbEntity
  8
0
  6
Continuous
 62
     7
100
AcDbLine
 10
578.2874322341372
 20
954.5631040995423
 30
0.0
 11
581.2739713482547
 21
934.6137888938154
 31
0.0
  0
LINE
  5
6A
330
46
100
AcDbEntity
  8
0
  6
Continuous
 62
     7
100
AcDbLine
 10
581.2739713482547
 20
934.6137888938154
 30
0.0
 11
581.2739713482547
 21
878.0
 31
0.0
  0
LINE
  5
6B
330
46
100
AcDbEntity
  8
0
  6
Continuous
 62
     7
100
AcDbLine
 10
581.2739713482547
 20
1321.386211106185
 30
0.0
 11
581.2739713482547
 21
934.6137888938154
 31
0.0
  0
LINE
  5
6C
330
46
100
AcDbEntity
  8
0
  6
Continuous
 62
     7
100
AcDbLine
 10
585.2739713482547
 20
878.0
 30
0.0
 11
581.2739713482547
 21
878.0
 31
0.0
  0
LINE
  5
6D
330
46
100
AcDbEntity
  8
0
  6
Continuous
 62
     7
100
AcDbLine
 10
585.2739713482547
 20
953.0000000000002
 30
0.0
 11
585.2739713482547
 21
878.0
 31
0.0
  0
LINE
  5
6E
330
46
100
AcDbEntity
  8
1
  6
DOT_CENTER
 62
     2
100
AcDbLine
 10
585.2739713482547
 20
1128.0
 30
0.0
 11
574.2408081014084
 21
1128.0
 31
0.0
  0
ENDBLK
  5
48
330
46
100
AcDbEntity
  8
0
100
AcDbBlockEnd
  0
BLOCK
  5
4A
330
49
100
AcDbEntity
  8
0
100
AcDbBlockBegin
  2
MutterDN125-Artikel
 70
     0
 71
     0
 10
507.8478992018953
 20
1007.405845404791
 30
0.0
  3
MutterDN125-Artikel
  1

  0
LINE
  5
6F
330
49
100
AcDbEntity
  8
0
  6
Continuous
 62
     7
100
AcDbLine
 10
512.5538039763826
 20
1044.310423899979
 30
0.0
 11
562.8777027621824
 21
1030.826175860336
 31
0.0
  0
LINE
  5
70
330
49
100
AcDbEntity
  8
0
  6
Continuous
 62
     3
100
AcDbLine
 10
562.8777027621824
 20
1241.171811991018
 30
0.0
 11
534.0790094865893
 21
1233.718161698032
 31
0.0
  0
LINE
  5
71
330
49
100
AcDbEntity
  8
0
  6
Continuous
 62
     3
100
AcDbLine
 10
533.8247074156027
 20
1156.178203506858
 30
0.0
 11
533.8247074156027
 21
1157.177702791817
 31
0.0
  0
LINE
  5
72
330
49
100
AcDbEntity
  8
0
  6
Continuous
 62
     3
100
AcDbLine
 10
533.8247074156027
 20
1049.284532809571
 30
0.0
 11
533.8247074156027
 21
1050.01621706829
 31
0.0
  0
LINE
  5
73
330
49
100
AcDbEntity
  8
0
  6
Continuous
 62
     7
100
AcDbLine
 10
562.8777027621824
 20
1240.216523080363
 30
0.0
 11
560.3478992018952
 21
1240.216523080363
 31
0.0
  0
LINE
  5
74
330
49
100
AcDbEntity
  8
0
  6
Continuous
 62
     7
100
AcDbLine
 10
562.8777027621824
 20
1040.84158312291
 30
0.0
 11
562.8777027621824
 21
1043.494159686048
 31
0.0
  0
LINE
  5
75
330
49
100
AcDbEntity
  8
0
  6
Continuous
 62
     7
100
AcDbLine
 10
562.8777027621824
 20
1043.494159686048
 30
0.0
 11
562.8777027621824
 21
1147.796713275605
 31
0.0
  0
LINE
  5
76
330
49
100
AcDbEntity
  8
0
  6
Continuous
 62
     7
100
AcDbLine
 10
562.8777027621824
 20
1159.926990966194
 30
0.0
 11
562.8777027621824
 21
1226.216523080363
 31
0.0
  0
LINE
  5
77
330
49
100
AcDbEntity
  8
0
  6
Continuous
 62
     7
100
AcDbLine
 10
562.8777027621824
 20
1147.796713275605
 30
0.0
 11
562.8777027621824
 21
1159.926990966194
 31
0.0
  0
LINE
  5
78
330
49
100
AcDbEntity
  8
0
  6
Continuous
 62
     3
100
AcDbLine
 10
562.8777027621824
 20
1242.413139210289
 30
0.0
 11
533.8247074156027
 21
1234.893670697286
 31
0.0
  0
LINE
  5
79
330
49
100
AcDbEntity
  8
0
  6
Continuous
 62
     3
100
AcDbLine
 10
562.8777027621824
 20
1242.680954236466
 30
0.0
 11
533.8247074156027
 21
1235.161485723527
 31
0.0
  0
LINE
  5
7A
330
49
100
AcDbEntity
  8
0
  6
Continuous
 62
     7
100
AcDbLine
 10
562.8777027621824
 20
1242.713905008821
 30
0.0
 11
533.8329636612901
 21
1235.196573369521
 31
0.0
  0
LINE
  5
7B
330
49
100
AcDbEntity
  8
0
  6
Continuous
 62
     7
100
AcDbLine
 10
569.7978858312085
 20
1225.812344895089
 30
0.0
 11
565.9265462335463
 21
1247.767802772876
 31
0.0
  0
LINE
  5
7C
330
49
100
AcDbEntity
  8
0
  6
Continuous
 62
     7
100
AcDbLine
 10
563.2908786733489
 20
1248.318490081721
 30
0.0
 11
564.7680903028672
 21
1248.578962348222
 31
0.0
  0
LINE
  5
7D
330
49
100
AcDbEntity
  8
0
  6
Continuous
 62
     7
100
AcDbLine
 10
559.3478992018952
 20
1239.17098271221
 30
0.0
 11
559.3478992018952
 21
1239.216523080363
 31
0.0
  0
LINE
  5
7E
330
49
100
AcDbEntity
  8
0
  6
Continuous
 62
     3
100
AcDbLine
 10
560.3478992018952
 20
1240.163392650852
 30
0.0
 11
560.3478992018952
 21
1240.216523080363
 31
0.0
  0
LINE
  5
7F
330
49
100
AcDbEntity
  8
0
  6
Continuous
 62
     7
100
AcDbLine
 10
562.8777027621824
 20
1226.216523080363
 30
0.0
 11
562.8777027621824
 21
1247.826086205215
 31
0.0
  0
LINE
  5
80
330
49
100
AcDbEntity
  8
0
  6
Continuous
 62
     3
100
AcDbLine
 10
566.7547745536144
 20
1237.951202097884
 30
0.0
 11
566.9146581772068
 21
1237.951202097884
 31
0.0
  0
LINE
  5
81
330
49
100
AcDbEntity
  8
0
  6
Continuous
 62
     3
100
AcDbLine
 10
559.9336856395221
 20
1227.270540302515
 30
0.0
 11
559.9336856395221
 21
1238.859280485371
 31
0.0
  0
LINE
  5
82
330
49
100
AcDbEntity
  8
0
  6
Continuous
 62
     7
100
AcDbLine
 10
559.3478992018952
 20
1227.690888883243
 30
0.0
 11
559.3478992018952
 21
1239.17098271221
 31
0.0
  0
LINE
  5
83
330
49
100
AcDbEntity
  8
0
  6
Continuous
 62
     3
100
AcDbLine
 10
564.7680903028672
 20
1248.578962348222
 30
0.0
 11
564.7680903028672
 21
1213.262201944865
 31
0.0
  0
LINE
  5
84
330
49
100
AcDbEntity
  8
0
  6
Continuous
 62
     3
100
AcDbLine
 10
568.0687676740588
 20
1229.919727646741
 30
0.0
 11
568.3806900861578
 21
1229.919727646741
 31
0.0
  0
LINE
  5
85
330
49
100
AcDbEntity
  8
0
  6
Continuous
 62
     7
100
AcDbLine
 10
562.8777027621824
 20
1226.216523080363
 30
0.0
 11
562.3150270464259
 21
1226.216523028334
 31
0.0
  0
LINE
  5
86
330
49
100
AcDbEntity
  8
0
  6
Continuous
 62
     3
100
AcDbLine
 10
565.9265462335463
 20
1247.767802772876
 30
0.0
 11
565.9265462335463
 21
1212.688625508514
 31
0.0
  0
LINE
  5
87
330
49
100
AcDbEntity
  8
0
  6
Continuous
 62
     3
100
AcDbLine
 10
563.2908786733489
 20
1248.318490081721
 30
0.0
 11
563.2908786733489
 21
1213.078020238911
 31
0.0
  0
LINE
  5
88
330
49
100
AcDbEntity
  8
0
  6
Continuous
 62
     3
100
AcDbLine
 10
566.7713563637325
 20
1237.607143718683
 30
0.0
 11
566.9883428998986
 21
1237.607143718683
 31
0.0
  0
LINE
  5
89
330
49
100
AcDbEntity
  8
0
  6
Continuous
 62
     3
100
AcDbLine
 10
567.9851389836358
 20
1230.378816712655
 30
0.0
 11
568.3077985970683
 21
1230.378816712631
 31
0.0
  0
LINE
  5
8A
330
49
100
AcDbEntity
  8
0
  6
Continuous
 62
     7
100
AcDbLine
 10
569.8282703251841
 20
1206.940329965393
 30
0.0
 11
569.8282703251841
 21
1225.465048539755
 31
0.0
  0
LINE
  5
8B
330
49
100
AcDbEntity
  8
0
  6
Continuous
 62
     3
100
AcDbLine
 10
562.8777027621823
 20
1156.963987477209
 30
0.0
 11
534.0790094865893
 21
1154.966787900552
 31
0.0
  0
LINE
  5
8C
330
49
100
AcDbEntity
  8
0
  6
Continuous
 62
     3
100
AcDbLine
 10
560.3478992018952
 20
1155.334183058973
 30
0.0
 11
560.3478992018951
 21
1156.693439413018
 31
0.0
  0
LINE
  5
8D
330
49
100
AcDbEntity
  8
0
  6
Continuous
 62
     7
100
AcDbLine
 10
512.5538039763826
 20
1211.689576100021
 30
0.0
 11
515.0661943815272
 21
1212.362769080152
 31
0.0
  0
LINE
  5
8E
330
49
100
AcDbEntity
  8
0
  6
Continuous
 62
     3
100
AcDbLine
 10
524.7166120353745
 20
1154.300210607655
 30
0.0
 11
513.194069968217
 21
1148.860052101858
 31
0.0
  0
LINE
  5
8F
330
49
100
AcDbEntity
  8
0
  6
Continuous
 62
     3
100
AcDbLine
 10
525.5781204166328
 20
1153.20938546304
 30
0.0
 11
514.5322917200685
 21
1147.99429850722
 31
0.0
  0
LINE
  5
90
330
49
100
AcDbEntity
  8
0
  6
Continuous
 62
     3
100
AcDbLine
 10
524.7166120353745
 20
1154.300210607655
 30
0.0
 11
524.7166120353746
 21
1155.437981367344
 31
0.0
  0
LINE
  5
91
330
49
100
AcDbEntity
  8
0
  6
Continuous
 62
     7
100
AcDbLine
 10
525.1919305866722
 20
1156.229087002419
 30
0.0
 11
525.1919348435104
 21
1156.229088804585
 31
0.0
  0
LINE
  5
92
330
49
100
AcDbEntity
  8
0
  6
Continuous
 62
     3
100
AcDbLine
 10
524.7166120353746
 20
1155.437981367344
 30
0.0
 11
513.194069968217
 21
1150.547311278916
 31
0.0
  0
LINE
  5
93
330
49
100
AcDbEntity
  8
0
  6
Continuous
 62
     7
100
AcDbLine
 10
559.3478992018951
 20
1154.944476377266
 30
0.0
 11
559.3478992018952
 21
1156.401760423505
 31
0.0
  0
LINE
  5
94
330
49
100
AcDbEntity
  8
0
  6
Continuous
 62
     3
100
AcDbLine
 10
559.9336856395221
 20
1150.487813251584
 30
0.0
 11
559.9336856395221
 21
1153.593006824875
 31
0.0
  0
LINE
  5
95
330
49
100
AcDbEntity
  8
0
  6
Continuous
 62
     7
100
AcDbLine
 10
559.3478992018952
 20
1151.868394506761
 30
0.0
 11
559.3478992018951
 21
1154.944476377266
 31
0.0
  0
LINE
  5
96
330
49
100
AcDbEntity
  8
0
  6
Continuous
 62
     7
100
AcDbLine
 10
562.8777027621824
 20
1159.926990966194
 30
0.0
 11
534.0143422681411
 21
1157.925306694966
 31
0.0
  0
LINE
  5
97
330
49
100
AcDbEntity
  8
0
  6
Continuous
 62
     3
100
AcDbLine
 10
562.8777027621823
 20
1158.193039022537
 30
0.0
 11
533.8247074156027
 21
1156.178203506858
 31
0.0
  0
LINE
  5
98
330
49
100
AcDbEntity
  8
0
  6
Continuous
 62
     3
100
AcDbLine
 10
562.8777027621823
 20
1159.192538307262
 30
0.0
 11
533.8247074156027
 21
1157.177702791817
 31
0.0
  0
LINE
  5
99
330
49
100
AcDbEntity
  8
0
  6
Continuous
 62
     3
100
AcDbLine
 10
512.5538039763826
 20
1187.177466774953
 30
0.0
 11
512.5538039763826
 21
1044.310423899979
 31
0.0
  0
LINE
  5
9A
330
49
100
AcDbEntity
  8
0
  6
Continuous
 62
     7
100
AcDbLine
 10
562.8777027621824
 20
1043.494159686048
 30
0.0
 11
533.8973696325179
 21
1048.985025468144
 31
0.0
  0
LINE
  5
9B
330
49
100
AcDbEntity
  8
0
  6
Continuous
 62
     3
100
AcDbLine
 10
562.8777027621824
 20
1045.937857915537
 30
0.0
 11
534.0790094865893
 21
1051.394308631845
 31
0.0
  0
LINE
  5
9C
330
49
100
AcDbEntity
  8
0
  6
Continuous
 62
     3
100
AcDbLine
 10
562.8777027621824
 20
1043.779899812248
 30
0.0
 11
533.8247074156027
 21
1049.284532809571
 31
0.0
  0
LINE
  5
9D
330
49
100
AcDbEntity
  8
0
  6
Continuous
 62
     7
100
AcDbLine
 10
559.3478992018952
 20
1043.773493665056
 30
0.0
 11
559.3478992018952
 21
1044.162946946038
 31
0.0
  0
LINE
  5
9E
330
49
100
AcDbEntity
  8
0
  6
Continuous
 62
     3
100
AcDbLine
 10
560.3478992018952
 20
1043.170790408122
 30
0.0
 11
560.3478992018952
 21
1043.973478255056
 31
0.0
  0
LINE
  5
9F
330
49
100
AcDbEntity
  8
0
  6
Continuous
 62
     3
100
AcDbLine
 10
562.8777027621824
 20
1044.511584070795
 30
0.0
 11
533.8247074156027
 21
1050.01621706829
 31
0.0
  0
LINE
  5
A0
330
49
100
AcDbEntity
  8
0
  6
Continuous
 62
     3
100
AcDbLine
 10
524.7166120353745
 20
1054.175811606608
 30
0.0
 11
513.194069968217
 21
1068.086859188988
 31
0.0
  0
LINE
  5
A1
330
49
100
AcDbEntity
  8
0
  6
Continuous
 62
     3
100
AcDbLine
 10
525.5781204166328
 20
1056.057349904245
 30
0.0
 11
514.5322917200685
 21
1069.778477583394
 31
0.0
  0
LINE
  5
A2
330
49
100
AcDbEntity
  8
0
  6
Continuous
 62
     3
100
AcDbLine
 10
524.7166120353746
 20
1055.008717610066
 30
0.0
 11
513.194069968217
 21
1069.322018632131
 31
0.0
  0
LINE
  5
A3
330
49
100
AcDbEntity
  8
0
  6
Continuous
 62
     7
100
AcDbLine
 10
524.8125137657119
 20
1053.891470391958
 30
0.0
 11
524.812515661805
 21
1053.891468105142
 31
0.0
  0
LINE
  5
A4
330
49
100
AcDbEntity
  8
0
  6
Continuous
 62
     3
100
AcDbLine
 10
524.7166120353745
 20
1054.175811606608
 30
0.0
 11
524.7166120353746
 21
1055.008717610066
 31
0.0
  0
LINE
  5
A5
330
49
100
AcDbEntity
  8
0
  6
Continuous
 62
     7
100
AcDbLine
 10
569.7978858312085
 20
1030.187655104911
 30
0.0
 11
565.9265462335463
 21
1008.232197227124
 31
0.0
  0
LINE
  5
A6
330
49
100
AcDbEntity
  8
0
  6
Continuous
 62
     3
100
AcDbLine
 10
566.9441557535351
 20
1156.472425957831
 30
0.0
 11
566.9883428999283
 21
1156.472425957787
 31
0.0
  0
LINE
  5
A7
330
49
100
AcDbEntity
  8
0
  6
Continuous
 62
     3
100
AcDbLine
 10
568.1952423979108
 20
1148.847095445169
 30
0.0
 11
568.3437069120589
 21
1148.847095445169
 31
0.0
  0
LINE
  5
A8
330
49
100
AcDbEntity
  8
0
  6
Continuous
 62
     3
100
AcDbLine
 10
566.7587826120721
 20
1154.213350035656
 30
0.0
 11
568.380690086163
 21
1154.213350035664
 31
0.0
  0
LINE
  5
A9
330
49
100
AcDbEntity
  8
0
  6
Continuous
 62
     3
100
AcDbLine
 10
566.7666789701997
 20
1154.535601573937
 30
0.0
 11
568.3077985970683
 21
1154.535601573931
 31
0.0
  0
LINE
  5
AA
330
49
100
AcDbEntity
  8
0
  6
Continuous
 62
     3
100
AcDbLine
 10
565.9265462335463
 20
1212.688625508514
 30
0.0
 11
565.9265462335463
 21
1008.232197227124
 31
0.0
  0
LINE
  5
AB
330
49
100
AcDbEntity
  8
0
  6
Continuous
 62
     3
100
AcDbLine
 10
564.7680903028672
 20
1213.262201944865
 30
0.0
 11
564.7680903028672
 21
1007.421037651778
 31
0.0
  0
LINE
  5
AC
330
49
100
AcDbEntity
  8
0
  6
Continuous
 62
     7
100
AcDbLine
 10
562.8777027621824
 20
1008.173913794785
 30
0.0
 11
562.8777027621824
 21
1040.84158312291
 31
0.0
  0
LINE
  5
AD
330
49
100
AcDbEntity
  8
0
  6
Continuous
 62
     7
100
AcDbLine
 10
563.2908786733489
 20
1007.681509918279
 30
0.0
 11
564.7680903028672
 21
1007.421037651778
 31
0.0
  0
LINE
  5
AE
330
49
100
AcDbEntity
  8
0
  6
Continuous
 62
     3
100
AcDbLine
 10
563.2908786733489
 20
1213.078020238911
 30
0.0
 11
563.2908786733489
 21
1007.681509918279
 31
0.0
  0
LINE
  5
AF
330
49
100
AcDbEntity
  8
0
  6
Continuous
 62
     3
100
AcDbLine
 10
569.7978858312085
 20
1197.163772359075
 30
0.0
 11
569.7978858312085
 21
1225.812344895089
 31
0.0
  0
LINE
  5
B0
330
49
100
AcDbEntity
  8
0
  6
Continuous
 62
     3
100
AcDbLine
 10
568.3566300274526
 20
1052.293622388915
 30
0.0
 11
568.380690086163
 21
1052.293622388933
 31
0.0
  0
LINE
  5
B1
330
49
100
AcDbEntity
  8
0
  6
Continuous
 62
     3
100
AcDbLine
 10
567.3623664821155
 20
1048.365251382325
 30
0.0
 11
568.3437069120589
 21
1048.365251382325
 31
0.0
  0
LINE
  5
B2
330
49
100
AcDbEntity
  8
0
  6
Continuous
 62
     7
100
AcDbLine
 10
569.8282703251841
 20
1049.059670034607
 30
0.0
 11
569.8282703251841
 21
1206.940329965393
 31
0.0
  0
LINE
  5
B3
330
49
100
AcDbEntity
  8
0
  6
Continuous
 62
     3
100
AcDbLine
 10
569.7978858312085
 20
1030.187655104911
 30
0.0
 11
569.7978858312085
 21
1197.163772359075
 31
0.0
  0
LINE
  5
B4
330
49
100
AcDbEntity
  8
0
  6
Continuous
 62
     3
100
AcDbLine
 10
567.2498810707436
 20
1047.914144174165
 30
0.0
 11
568.2680149690325
 21
1047.914144174165
 31
0.0
  0
LINE
  5
B5
330
49
100
AcDbEntity
  8
0
  6
Continuous
 62
     3
100
AcDbLine
 10
566.8358475723729
 20
1042.622641552036
 30
0.0
 11
566.9511715036333
 21
1042.622641551972
 31
0.0
  0
LINE
  5
B6
330
49
100
AcDbEntity
  8
0
  6
Continuous
 62
     7
100
AcDbLine
 10
569.8282703251841
 20
1030.534951460245
 30
0.0
 11
569.8282703251841
 21
1049.059670034607
 31
0.0
  0
LINE
  5
B7
330
49
100
AcDbEntity
  8
0
  6
Continuous
 62
     7
100
AcDbLine
 10
562.8777027621824
 20
1013.286094991179
 30
0.0
 11
533.8329636612901
 21
1020.803426630479
 31
0.0
  0
LINE
  5
B8
330
49
100
AcDbEntity
  8
0
  6
Continuous
 62
     3
100
AcDbLine
 10
562.8777027621824
 20
1014.042813731388
 30
0.0
 11
534.0790094865893
 21
1021.496464024381
 31
0.0
  0
LINE
  5
B9
330
49
100
AcDbEntity
  8
0
  6
Continuous
 62
     7
100
AcDbLine
 10
524.7251476509425
 20
1027.539198171498
 30
0.0
 11
515.0661943815272
 21
1043.637230919848
 31
0.0
  0
LINE
  5
BA
330
49
100
AcDbEntity
  8
0
  6
Continuous
 62
     3
100
AcDbLine
 10
525.5781204166328
 20
1027.778636258063
 30
0.0
 11
516.2537587577785
 21
1043.319024004272
 31
0.0
  0
LINE
  5
BB
330
49
100
AcDbEntity
  8
0
  6
Continuous
 62
     3
100
AcDbLine
 10
524.7166120353745
 20
1228.124399001048
 30
0.0
 11
524.7166120353746
 21
1228.429263757278
 31
0.0
  0
LINE
  5
BC
330
49
100
AcDbEntity
  8
0
  6
Continuous
 62
     3
100
AcDbLine
 10
533.8247074156027
 20
1234.893670697286
 30
0.0
 11
533.8247074156027
 21
1235.161485723527
 31
0.0
  0
LINE
  5
BD
330
49
100
AcDbEntity
  8
0
  6
Continuous
 62
     7
100
AcDbLine
 10
524.7251476508618
 20
1228.460801828551
 30
0.0
 11
513.2052185466912
 21
1209.261185596123
 31
0.0
  0
LINE
  5
BE
330
49
100
AcDbEntity
  8
0
  6
Continuous
 62
     3
100
AcDbLine
 10
512.5538039763826
 20
1211.689576100021
 30
0.0
 11
512.5538039763826
 21
1187.177466774953
 31
0.0
  0
LINE
  5
BF
330
49
100
AcDbEntity
  8
0
  6
Continuous
 62
     7
100
AcDbLine
 10
508.8478992018953
 20
1206.859946968577
 30
0.0
 11
508.8478992018953
 21
1183.762403265492
 31
0.0
  0
LINE
  5
C0
330
49
100
AcDbEntity
  8
0
  6
Continuous
 62
     7
100
AcDbLine
 10
508.8478992018953
 20
1181.59869401394
 30
0.0
 11
508.8478992018953
 21
1180.891587232754
 31
0.0
  0
LINE
  5
C1
330
49
100
AcDbEntity
  8
0
  6
Continuous
 62
     7
100
AcDbLine
 10
508.8478992018953
 20
1181.745140623347
 30
0.0
 11
508.8478992018953
 21
1181.59869401394
 31
0.0
  0
LINE
  5
C2
330
49
100
AcDbEntity
  8
0
  6
Continuous
 62
     7
100
AcDbLine
 10
508.8478992018953
 20
1180.184480451567
 30
0.0
 11
508.8478992018953
 21
1174.881179592668
 31
0.0
  0
LINE
  5
C3
330
49
100
AcDbEntity
  8
0
  6
Continuous
 62
     7
100
AcDbLine
 10
508.8478992018953
 20
1183.762403265492
 30
0.0
 11
508.8478992018953
 21
1181.745140623347
 31
0.0
  0
LINE
  5
C4
330
49
100
AcDbEntity
  8
0
  6
Continuous
 62
     7
100
AcDbLine
 10
508.8478992018953
 20
1180.891587232754
 30
0.0
 11
508.8478992018953
 21
1180.184480451567
 31
0.0
  0
LINE
  5
C5
330
49
100
AcDbEntity
  8
0
  6
Continuous
 62
     7
100
AcDbLine
 10
508.8478992018953
 20
1174.881179592668
 30
0.0
 11
508.8478992018953
 21
1081.118820407332
 31
0.0
  0
LINE
  5
C6
330
49
100
AcDbEntity
  8
0
  6
Continuous
 62
     7
100
AcDbLine
 10
508.8478992018953
 20
1075.108412767246
 30
0.0
 11
508.8478992018953
 21
1074.40130598606
 31
0.0
  0
LINE
  5
C7
330
49
100
AcDbEntity
  8
0
  6
Continuous
 62
     7
100
AcDbLine
 10
508.8478992018953
 20
1075.815519548433
 30
0.0
 11
508.8478992018953
 21
1075.108412767246
 31
0.0
  0
LINE
  5
C8
330
49
100
AcDbEntity
  8
0
  6
Continuous
 62
     7
100
AcDbLine
 10
508.8478992018953
 20
1074.40130598606
 30
0.0
 11
508.8478992018953
 21
1074.254859376653
 31
0.0
  0
LINE
  5
C9
330
49
100
AcDbEntity
  8
0
  6
Continuous
 62
     7
100
AcDbLine
 10
508.8478992018953
 20
1081.118820407332
 30
0.0
 11
508.8478992018953
 21
1075.815519548433
 31
0.0
  0
LINE
  5
CA
330
49
100
AcDbEntity
  8
0
  6
Continuous
 62
     7
100
AcDbLine
 10
508.8478992018953
 20
1074.254859376653
 30
0.0
 11
508.8478992018953
 21
1049.140053031423
 31
0.0
  0
LINE
  5
CB
330
49
100
AcDbEntity
  8
0
  6
Continuous
 62
     7
100
AcDbLine
 10
507.8478992018953
 20
1075.108412767246
 30
0.0
 11
507.8478992018953
 21
1080.411713626146
 31
0.0
  0
LINE
  5
CC
330
49
100
AcDbEntity
  8
0
  6
Continuous
 62
     7
100
AcDbLine
 10
507.8478992018953
 20
1180.891587232754
 30
0.0
 11
507.8478992018953
 21
1175.588286373855
 31
0.0
  0
LINE
  5
CD
330
49
100
AcDbEntity
  8
0
  6
Continuous
 62
     7
100
AcDbLine
 10
524.8125137657119
 20
1053.891470391958
 30
0.0
 11
513.3369281600325
 21
1067.745827916893
 31
0.0
  0
LINE
  5
CE
330
49
100
AcDbEntity
  8
0
  6
Continuous
 62
     7
100
AcDbLine
 10
525.1919305866722
 20
1156.229087002419
 30
0.0
 11
513.9257329253087
 21
1151.447220675387
 31
0.0
  0
LINE
  5
CF
330
49
100
AcDbEntity
  8
0
  6
Continuous
 62
     3
100
AcDbLine
 10
525.5781204166328
 20
1227.398939733958
 30
0.0
 11
514.5322917200684
 21
1208.848336412352
 31
0.0
  0
LINE
  5
D0
330
49
100
AcDbEntity
  8
0
  6
Continuous
 62
     3
100
AcDbLine
 10
524.7166120353745
 20
1228.124399001048
 30
0.0
 11
513.194069968217
 21
1208.77319291287
 31
0.0
  0
LINE
  5
D1
330
49
100
AcDbEntity
  8
0
  6
Continuous
 62
     3
100
AcDbLine
 10
524.7166120353746
 20
1228.429263757278
 30
0.0
 11
513.194069968217
 21
1209.225292646785
 31
0.0
  0
LINE
  5
D2
330
49
100
AcDbEntity
  8
1
  6
DOT_CENTER
 62
     2
100
AcDbLine
 10
563.2908786733444
 20
1128.000000000001
 30
0.0
 11
564.7680903028717
 21
1128.000000000001
 31
0.0
  0
LINE
  5
D3
330
49
100
AcDbEntity
  8
1
  6
DOT_CENTER
 62
     2
100
AcDbLine
 10
501.018650219734
 20
1128.0
 30
0.0
 11
589.686476975203
 21
1128.0
 31
0.0
  0
LINE
  5
D4
330
49
100
AcDbEntity
  8
1
  6
DOT_CENTER
 62
     2
100
AcDbLine
 10
569.7978858312085
 20
1128.0
 30
0.0
 11
565.9265462335463
 21
1128.0
 31
0.0
  0
ARC
  5
D5
330
49
100
AcDbEntity
  8
0
  6
Continuous
 62
     7
100
AcDbCircle
 10
560.3478992018952
 20
1239.216523080363
 30
0.0
 40
1.0
100
AcDbArc
 50
90.0
 51
180.0
  0
ARC
  5
D6
330
49
100
AcDbEntity
  8
0
  6
Continuous
 62
     7
100
AcDbCircle
 10
563.3777027621824
 20
1247.826086205215
 30
0.0
 40
0.4999999999998385
100
AcDbArc
 50
100.0000000000084
 51
180.0
  0
ARC
  5
D7
330
49
100
AcDbEntity
  8
0
  6
Continuous
 62
     7
100
AcDbCircle
 10
564.9417384805341
 20
1247.59415459521
 30
0.0
 40
0.9999999999998154
100
AcDbArc
 50
9.99999999994088
 51
100.000000000002
  0
ARC
  5
D8
330
49
100
AcDbEntity
  8
0
  6
Continuous
 62
     7
100
AcDbCircle
 10
567.8282703251841
 20
1225.465048539755
 30
0.0
 40
2.0
100
AcDbArc
 50
0.0
 51
10.00000000000502
  0
ARC
  5
D9
330
49
100
AcDbEntity
  8
0
  6
Continuous
 62
     7
100
AcDbCircle
 10
563.3777027621824
 20
1008.173913794785
 30
0.0
 40
0.5
100
AcDbArc
 50
180.0
 51
-100.0000000000062
  0
ARC
  5
DA
330
49
100
AcDbEntity
  8
0
  6
Continuous
 62
     7
100
AcDbCircle
 10
564.9417384805341
 20
1008.405845404791
 30
0.0
 40
1.000000000000777
100
AcDbArc
 50
-99.99999999999069
 51
-10.00000000000502
  0
ARC
  5
DB
330
49
100
AcDbEntity
  8
0
  6
Continuous
 62
     7
100
AcDbCircle
 10
567.8282703251841
 20
1030.534951460245
 30
0.0
 40
2.000000000000026
100
AcDbArc
 50
-10.00000000000502
 51
0.0
  0
ARC
  5
DC
330
49
100
AcDbEntity
  8
0
  6
Continuous
 62
     7
100
AcDbCircle
 10
513.8478992018952
 20
1049.140053031424
 30
0.0
 40
4.999999999999886
100
AcDbArc
 50
-179.999999999987
 51
-105.0000000000008
  0
ARC
  5
DD
330
49
100
AcDbEntity
  8
0
  6
Continuous
 62
     7
100
AcDbCircle
 10
513.8478992018952
 20
1206.859946968576
 30
0.0
 40
4.999999999999684
100
AcDbArc
 50
105.0000000000008
 51
179.999999999987
  0
SPLINE
  5
DE
330
49
100
AcDbEntity
  8
0
  6
Continuous
 62
     3
100
AcDbSpline
210
0.0
220
0.0
230
1.0
 70
     8
 71
     3
 72
    37
 73
    33
 74
    31
 42
0.0000000001
 43
0.0000000001
 44
0.00000001
 40
0.0
 40
0.0
 40
0.0
 40
0.0
 40
0.07030993130085
 40
0.1407891959800445
 40
0.1758916802457028
 40
0.2107873856760218
 40
0.2453866871457501
 40
0.2795977404518622
 40
0.3133274310154002
 40
0.3464820371290621
 40
0.3789682007260526
 40
0.4106938635881816
 40
0.4415692136140664
 40
0.4715078745375185
 40
0.5004277857206108
 40
0.5282526170404064
 40
0.5549125602963749
 40
0.580345947997186
 40
0.6044999778437706
 40
0.6273325492429099
 40
0.6488130201514135
 40
0.6689243534756227
 40
0.6876641289626345
 40
0.7050472178734212
 40
0.7165992762845322
 40
0.727501353216758
 40
0.7377784997612817
 40
0.747462679725852
 40
0.765203501764198
 40
0.7811467755909111
 40
0.7931642476666021
 40
0.8046889333551045
 40
0.8046889333551045
 40
0.8046889333551045
 40
0.8046889333551045
 10
533.8247074156027
 20
1157.177702791817
 30
0.0
 10
533.8248390705166
 20
1157.201139811563
 30
0.0
 10
533.82510269742
 20
1157.248070296419
 30
0.0
 10
533.8269620751903
 20
1157.306678671124
 30
0.0
 10
533.8291773571434
 20
1157.353452520221
 30
0.0
 10
533.8312477970579
 20
1157.388257817968
 30
0.0
 10
533.8337277616869
 20
1157.422738330476
 30
0.0
 10
533.8366264378437
 20
1157.456796259994
 30
0.0
 10
533.8399491387534
 20
1157.490331640192
 30
0.0
 10
533.8436982996984
 20
1157.523243539236
 30
0.0
 10
533.8478760481594
 20
1157.555430429893
 30
0.0
 10
533.8524801195708
 20
1157.586791581442
 30
0.0
 10
533.8575083997941
 20
1157.617227355766
 30
0.0
 10
533.8629537936806
 20
1157.646640870752
 30
0.0
 10
533.8688097210979
 20
1157.674938067594
 30
0.0
 10
533.8750641963566
 20
1157.702029680764
 30
0.0
 10
533.881706238159
 20
1157.727830901142
 30
0.0
 10
533.8887191767558
 20
1157.75226371063
 30
0.0
 10
533.8960879748091
 20
1157.775255926193
 30
0.0
 10
533.9037918059632
 20
1157.7967440117
 30
0.0
 10
533.9118122264183
 20
1157.816671199727
 30
0.0
 10
533.9201252005666
 20
1157.834991103296
 30
0.0
 10
533.9287098034888
 20
1157.851664004494
 30
0.0
 10
533.9367777281658
 20
1157.86536762993
 30
0.0
 10
533.9441558518004
 20
1157.876414636673
 30
0.0
 10
533.9506803739629
 20
1157.885165632791
 30
0.0
 10
533.9572992804701
 20
1157.89305119534
 30
0.0
 10
533.9659842785852
 20
1157.902141180282
 30
0.0
 10
533.9770414835609
 20
1157.911561435927
 30
0.0
 10
533.9902633753252
 20
1157.919274191585
 30
0.0
 10
534.0027097741872
 20
1157.923864234815
 30
0.0
 10
534.0105192597553
 20
1157.924832631771
 30
0.0
 10
534.0143422681411
 20
1157.925306694966
 30
0.0
 11
533.8247074156027
 21
1157.177702791817
 31
0.0
 11
533.8254078135889
 21
1157.248009234496
 31
0.0
 11
533.8275806238942
 21
1157.318454998351
 31
0.0
 11
533.8292514650168
 21
1157.353517694932
 31
0.0
 11
533.8313258392157
 21
1157.388351690241
 31
0.0
 11
533.8338128166911
 21
1157.422861494721
 31
0.0
 11
533.836719258588
 21
1157.456948864285
 31
0.0
 11
533.84005074415
 21
1157.490513626007
 31
0.0
 11
533.8438102367459
 21
1157.523454392877
 31
0.0
 11
533.847999271506
 21
1157.555669339921
 31
0.0
 11
533.852616426612
 21
1157.587057228712
 31
0.0
 11
533.8576587930307
 21
1157.617518052406
 31
0.0
 11
533.8631202583726
 21
1157.646954353366
 31
0.0
 11
533.868993271567
 21
1157.67527164453
 31
0.0
 11
533.8752669497024
 21
1157.702379986431
 31
0.0
 11
533.8819291386877
 21
1157.728194087468
 31
0.0
 11
533.8889643565146
 21
1157.75263509645
 31
0.0
 11
533.8963561357195
 21
1157.775630286339
 31
0.0
 11
533.9040848216027
 21
1157.797115018853
 31
0.0
 11
533.9121301620169
 21
1157.817031924438
 31
0.0
 11
533.9204689908559
 21
1157.835333008058
 31
0.0
 11
533.9290780008669
 21
1157.851978251581
 31
0.0
 11
533.9379313699088
 21
1157.866937851732
 31
0.0
 11
533.9443602058933
 21
1157.876535774498
 31
0.0
 11
533.9508898085458
 21
1157.885266156542
 31
0.0
 11
533.9575105777794
 21
1157.89312650996
 31
0.0
 11
533.9642124966643
 21
1157.900117048197
 31
0.0
 11
533.9778207342707
 21
1157.911499167325
 31
0.0
 11
533.9916346513824
 21
1157.919459297622
 31
0.0
 11
534.0029663792722
 21
1157.923460744626
 31
0.0
 11
534.0143422681411
 21
1157.925306694966
 31
0.0
  0
SPLINE
  5
DF
330
49
100
AcDbEntity
  8
0
  6
Continuous
 62
     3
100
AcDbSpline
210
0.0
220
0.0
230
1.0
 70
     8
 71
     3
 72
    39
 73
    35
 74
    33
 42
0.0000000001
 43
0.0000000001
 44
0.00000001
 40
0.0
 40
0.0
 40
0.0
 40
0.0
 40
0.0429208427918867
 40
0.0870019924253263
 40
0.1321536541977813
 40
0.1782717679962591
 40
0.2252394029867361
 40
0.2729259875259722
 40
0.3211891781294897
 40
0.3698747927882002
 40
0.4188190945311976
 40
0.4678495329890763
 40
0.5167873056606208
 40
0.5654489211395074
 40
0.6136488284442393
 40
0.6612017077596869
 40
0.7079249093704096
 40
0.753641275978778
 40
0.7981811250316251
 40
0.841385335367691
 40
0.8831066497157287
 40
0.9232127361681804
 40
0.9615866790272957
 40
0.9981297601488379
 40
1.032761131735944
 40
1.06542014894969
 40
1.096065356934345
 40
1.124676330449843
 40
1.151252240585967
 40
1.175813303346619
 40
1.198399307067678
 40
1.219070919942825
 40
1.237908634308531
 40
1.255014264569914
 40
1.255014264569914
 40
1.255014264569914
 40
1.255014264569914
 10
533.8247074156027
 20
1156.178203506858
 30
0.0
 10
533.8247567034929
 20
1156.163896482444
 30
0.0
 10
533.8248566117046
 20
1156.13489566259
 30
0.0
 10
533.8256633216781
 20
1156.090850292976
 30
0.0
 10
533.8269777232107
 20
1156.045751683812
 30
0.0
 10
533.8288693397767
 20
1155.999710237666
 30
0.0
 10
533.8313445867099
 20
1155.952850398904
 30
0.0
 10
533.8344214636388
 20
1155.905309587324
 30
0.0
 10
533.8381124295161
 20
1155.857238113165
 30
0.0
 10
533.8424240758806
 20
1155.808797364568
 30
0.0
 10
533.8473617668601
 20
1155.760159298207
 30
0.0
 10
533.8529225501966
 20
1155.711503860255
 30
0.0
 10
533.8591026907135
 20
1155.6630181275
 30
0.0
 10
533.8658891251773
 20
1155.614893018227
 30
0.0
 10
533.873268429718
 20
1155.567322252966
 30
0.0
 10
533.8812173387917
 20
1155.520498493935
 30
0.0
 10
533.8897129364559
 20
1155.474612378327
 30
0.0
 10
533.8987224318969
 20
1155.429848287442
 30
0.0
 10
533.9082143787548
 20
1155.386383758905
 30
0.0
 10
533.9181479019934
 20
1155.344385111697
 30
0.0
 10
533.9284846755725
 20
1155.304007550173
 30
0.0
 10
533.939177818112
 20
1155.265390850971
 30
0.0
 10
533.9501842918401
 20
1155.228660424678
 30
0.0
 10
533.9614537097792
 20
1155.193923211888
 30
0.0
 10
533.9729407641538
 20
1155.161269867665
 30
0.0
 10
533.9845942445205
 20
1155.13077096021
 30
0.0
 10
533.9963689739589
 20
1155.102480219546
 30
0.0
 10
534.0082157358461
 20
1155.076431403816
 30
0.0
 10
534.020090965457
 20
1155.052641248263
 30
0.0
 10
534.0319524192416
 20
1155.031111247008
 30
0.0
 10
534.0437513655363
 20
1155.011815868166
 30
0.0
 10
534.0554831872123
 20
1154.994756020895
 30
0.0
 10
534.0670025513065
 20
1154.979779706022
 30
0.0
 10
534.0751378529535
 20
1154.970977105362
 30
0.0
 10
534.0790094865893
 20
1154.966787900552
 30
0.0
 11
533.8247074156027
 21
1156.178203506858
 31
0.0
 11
533.8249602184524
 21
1156.135283408574
 31
0.0
 11
533.8257353276531
 21
1156.091209074107
 31
0.0
 11
533.827057076606
 21
1156.046076762616
 31
0.0
 11
533.8289468134476
 21
1155.999997382032
 31
0.0
 11
533.8314239019923
 21
1155.953095113761
 31
0.0
 11
533.8345036140727
 21
1155.905508080669
 31
0.0
 11
533.8381985808718
 21
1155.857386538844
 31
0.0
 11
533.8425163132403
 21
1155.808892763348
 31
0.0
 11
533.8474611551396
 21
1155.760198890923
 31
0.0
 11
533.8530314973458
 21
1155.711485903096
 31
0.0
 11
533.8592222612377
 21
1155.662941284069
 31
0.0
 11
533.8660218906148
 21
1155.614757076476
 31
0.0
 11
533.8734153593585
 21
1155.567127593127
 31
0.0
 11
533.881381034933
 21
1155.520246633838
 31
0.0
 11
533.8898941605883
 21
1155.474305538288
 31
0.0
 11
533.8989236810876
 21
1155.429489760537
 31
0.0
 11
533.908436104957
 21
1155.385977555976
 31
0.0
 11
533.9183923699676
 21
1155.343936188517
 31
0.0
 11
533.9287519510624
 21
1155.303521498731
 31
0.0
 11
533.9394698247722
 21
1155.264874049221
 31
0.0
 11
533.9505006610658
 21
1155.228119727826
 31
0.0
 11
533.9617959283231
 21
1155.193366113403
 31
0.0
 11
533.9733079968848
 21
1155.160704145069
 31
0.0
 11
533.9849874150643
 21
1155.130204922188
 31
0.0
 11
533.9967867587226
 21
1155.101922343422
 31
0.0
 11
534.0086581076191
 21
1155.075890461414
 31
0.0
 11
534.0205564945384
 21
1155.052126888697
 31
0.0
 11
534.0324376208712
 21
1155.030630734599
 31
0.0
 11
534.0442607834485
 21
1155.011386504535
 31
0.0
 11
534.0559868865846
 21
1154.994362577723
 31
0.0
 11
534.0675807482519
 21
1154.979515293319
 31
0.0
 11
534.0790094865893
 21
1154.966787900552
 31
0.0
  0
SPLINE
  5
E0
330
49
100
AcDbEntity
  8
0
  6
Continuous
 62
     3
100
AcDbSpline
210
0.0
220
0.0
230
1.0
 70
     8
 71
     3
 72
    39
 73
    35
 74
    33
 42
0.0000000001
 43
0.0000000001
 44
0.00000001
 40
0.0
 40
0.0
 40
0.0
 40
0.0
 40
0.0319089495263676
 40
0.0656800089331443
 40
0.1012969474568725
 40
0.1387279759765499
 40
0.1779263270956184
 40
0.2188283087111707
 40
0.2613544259593563
 40
0.3054079007953546
 40
0.3508763804650887
 40
0.3976311362407805
 40
0.4455293263170771
 40
0.4944140263799576
 40
0.5441169234299955
 40
0.5944592344302928
 40
0.6452546191245221
 40
0.696310926326675
 40
0.7474330493865251
 40
0.7984253267750189
 40
0.8490940426551868
 40
0.8992502239712334
 40
0.9487115199426298
 40
0.9973051004861915
 40
1.044868727994115
 40
1.091253477067871
 40
1.136323922549157
 40
1.179960459958379
 40
1.222058650612423
 40
1.262531007913485
 40
1.301305639120096
 40
1.338327453300109
 40
1.373556303792307
 40
1.406967651043112
 40
1.406967651043112
 40
1.406967651043112
 40
1.406967651043112
 10
533.8247074156027
 20
1050.01621706829
 30
0.0
 10
533.8247582653273
 20
1050.026853469674
 30
0.0
 10
533.824862932213
 20
1050.048746980688
 30
0.0
 10
533.8256794419062
 20
1050.082504691714
 30
0.0
 10
533.8270003583835
 20
1050.118087300404
 30
0.0
 10
533.8288999360873
 20
1050.15545568157
 30
0.0
 10
533.8313825473863
 20
1050.194555018986
 30
0.0
 10
533.8344671048272
 20
1050.235314928039
 30
0.0
 10
533.8381656058725
 20
1050.277648442678
 30
0.0
 10
533.8424850332722
 20
1050.32145290193
 30
0.0
 10
533.8474303835377
 20
1050.366609332868
 30
0.0
 10
533.8529991572675
 20
1050.412984143219
 30
0.0
 10
533.8591871294825
 20
1050.460428999781
 30
0.0
 10
533.8659818336239
 20
1050.508783323006
 30
0.0
 10
533.8733692017942
 20
1050.557874676216
 30
0.0
 10
533.8813267230139
 20
1050.607521958258
 30
0.0
 10
533.8898306787679
 20
1050.657536229638
 30
0.0
 10
533.8988491884974
 20
1050.707724399587
 30
0.0
 10
533.908349850956
 20
1050.757890330824
 30
0.0
 10
533.9182928422013
 20
1050.807838742636
 30
0.0
 10
533.9286387432371
 20
1050.857376377196
 30
0.0
 10
533.9393418349264
 20
1050.906315809052
 30
0.0
 10
533.950357867846
 20
1050.954476438779
 30
0.0
 10
533.9616376780177
 20
1051.001687919237
 30
0.0
 10
533.973134648365
 20
1051.047790772765
 30
0.0
 10
533.9847987580774
 20
1051.092639207233
 30
0.0
 10
533.9965834714561
 20
1051.13610123331
 30
0.0
 10
534.0084404313759
 20
1051.178060695393
 30
0.0
 10
534.0203251432592
 20
1051.218417006118
 30
0.0
 10
534.032193940789
 20
1051.257085785695
 30
0.0
 10
534.0440028647266
 20
1051.294000286271
 30
0.0
 10
534.0557260229987
 20
1051.329103612071
 30
0.0
 10
534.0672813665856
 20
1051.362376558209
 30
0.0
 10
534.0751697378615
 20
1051.38385417375
 30
0.0
 10
534.0790094865893
 20
1051.394308631845
 30
0.0
 11
533.8247074156027
 21
1050.01621706829
 31
0.0
 11
533.8249602166496
 21
1050.048125016383
 31
0.0
 11
533.8257353276531
 21
1050.081887179471
 31
0.0
 11
533.8270570696754
 21
1050.11747958467
 31
0.0
 11
533.8289468134476
 21
1050.15486287993
 31
0.0
 11
533.831423888038
 21
1050.193982885451
 31
0.0
 11
533.8345036140727
 21
1050.234768757853
 31
0.0
 11
533.8381985581935
 21
1050.277134050678
 31
0.0
 11
533.8425163132403
 21
1050.320975419686
 31
0.0
 11
533.847461122366
 21
1050.366174219517
 31
0.0
 11
533.8530314973458
 21
1050.412595961301
 31
0.0
 11
533.8592222174633
 21
1050.460092399031
 31
0.0
 11
533.8660218906148
 21
1050.508501885139
 31
0.0
 11
533.8734153042677
 21
1050.55765181301
 31
0.0
 11
533.881381034933
 21
1050.607359915084
 31
0.0
 11
533.8898940945494
 21
1050.657436845124
 31
0.0
 11
533.8989236810876
 21
1050.707688343331
 31
0.0
 11
533.9084360290838
 21
1050.757917684375
 31
0.0
 11
533.9183923699676
 21
1050.807928519496
 31
0.0
 11
533.9287518672297
 21
1050.857526902387
 31
0.0
 11
533.9394698247722
 21
1050.906524534068
 31
0.0
 11
533.950500571901
 21
1050.954740116787
 31
0.0
 11
533.9617959283231
 21
1051.002002691763
 31
0.0
 11
533.9733079057605
 21
1051.048152155868
 31
0.0
 11
533.9849874150643
 21
1051.093042399898
 31
0.0
 11
533.9967866697817
 21
1051.136540936011
 31
0.0
 11
534.0086581076191
 21
1051.178531605936
 31
0.0
 11
534.0205564127593
 21
1051.218913383895
 31
0.0
 11
534.0324376208712
 21
1051.257602511558
 31
0.0
 11
534.0442607146997
 21
1051.294530637391
 31
0.0
 11
534.0559868865846
 21
1051.32964632645
 31
0.0
 11
534.0675806988555
 21
1051.362912757338
 31
0.0
 11
534.0790094865893
 21
1051.394308631845
 31
0.0
  0
SPLINE
  5
E1
330
49
100
AcDbEntity
  8
0
  6
Continuous
 62
     3
100
AcDbSpline
210
0.0
220
0.0
230
1.0
 70
     8
 71
     3
 72
    25
 73
    21
 74
    19
 42
0.0000000001
 43
0.0000000001
 44
0.00000001
 40
0.0
 40
0.0
 40
0.0
 40
0.0
 40
0.0302579534923037
 40
0.0596420071869447
 40
0.0880168318677338
 40
0.1152472717507734
 40
0.1412007910257758
 40
0.165750216152998
 40
0.1887769152014185
 40
0.2101752108627795
 40
0.229857164485025
 40
0.2477602582894496
 40
0.2638565205208673
 40
0.278168187263337
 40
0.2882878717523288
 40
0.2974394336558043
 40
0.305767521072697
 40
0.3134818575627351
 40
0.3174041383142272
 40
0.3212781766763738
 40
0.3212781766763738
 40
0.3212781766763738
 40
0.3212781766763738
 10
533.8247074156027
 20
1049.284532809571
 30
0.0
 10
533.8247528348163
 20
1049.274446689606
 30
0.0
 10
533.8248423614616
 20
1049.25456575352
 30
0.0
 10
533.8256121507459
 20
1049.22523454836
 30
0.0
 10
533.8268813722004
 20
1049.196931468829
 30
0.0
 10
533.8287097165515
 20
1049.16980410008
 30
0.0
 10
533.8311061618255
 20
1049.144000878961
 30
0.0
 10
533.8340861394455
 20
1049.119668719875
 30
0.0
 10
533.8376621803731
 20
1049.096951741662
 30
0.0
 10
533.8418392793184
 20
1049.07598782555
 30
0.0
 10
533.8466236070599
 20
1049.056908029026
 30
0.0
 10
533.852011854713
 20
1049.039830620841
 30
0.0
 10
533.8580048629435
 20
1049.024864180043
 30
0.0
 10
533.8642150283919
 20
1049.012834514596
 30
0.0
 10
533.8704561023321
 20
1049.003514375276
 30
0.0
 10
533.8764938829623
 20
1048.996536206943
 30
0.0
 10
533.8829133560085
 20
1048.991059267804
 30
0.0
 10
533.8887269369218
 20
1048.987733370129
 30
0.0
 10
533.8935697700047
 20
1048.985879094438
 30
0.0
 10
533.8961082475794
 20
1048.985308834015
 30
0.0
 10
533.8973696325179
 20
1048.985025468144
 30
0.0
 11
533.8247074156027
 21
1049.284532809571
 31
0.0
 11
533.8249548866626
 21
1049.254275868093
 31
0.0
 11
533.825713479634
 21
1049.224901608132
 31
0.0
 11
533.8270068204788
 21
1049.196556274387
 31
0.0
 11
533.8288556164646
 21
1049.1693886685
 31
0.0
 11
533.8312788032798
 21
1049.143548518957
 31
0.0
 11
533.8342912276967
 21
1049.119184619983
 31
0.0
 11
533.8379054947059
 21
1049.09644333719
 31
0.0
 11
533.8421289492546
 21
1049.075465980615
 31
0.0
 11
533.846966419774
 21
1049.056387768504
 31
0.0
 11
533.8524164128165
 21
1049.039334371669
 31
0.0
 11
533.8584748906108
 21
1049.024421809695
 31
0.0
 11
533.8651307505345
 21
1049.011752029364
 31
0.0
 11
533.8708109818266
 21
1049.003376888373
 31
0.0
 11
533.8768466934562
 21
1048.996497842625
 31
0.0
 11
533.8832270724997
 21
1048.991145478355
 31
0.0
 11
533.8899387232877
 21
1048.987342225644
 31
0.0
 11
533.8936112217385
 21
1048.985964894376
 31
0.0
 11
533.8973696325179
 21
1048.985025468144
 31
0.0
  0
SPLINE
  5
E2
330
49
100
AcDbEntity
  8
0
  6
Continuous
 62
     3
100
AcDbSpline
210
0.0
220
0.0
230
1.0
 70
     8
 71
     3
 72
    15
 73
    11
 74
     9
 42
0.0000000001
 43
0.0000000001
 44
0.00000001
 40
0.0
 40
0.0
 40
0.0
 40
0.0
 40
0.3972168622054383
 40
0.7606995956288656
 40
1.151927381362638
 40
1.55385131030749
 40
1.963216894799201
 40
2.384167473224285
 40
2.446858917511182
 40
2.509265140694983
 40
2.509265140694983
 40
2.509265140694983
 40
2.509265140694983
 10
560.6407918906463
 20
1240.013255004179
 30
0.0
 10
560.767661177381
 20
1239.975205550661
 30
0.0
 10
561.0106252212058
 20
1239.902338040091
 30
0.0
 10
561.3690118765254
 20
1239.763612239863
 30
0.0
 10
561.7209595861702
 20
1239.605820141888
 30
0.0
 10
562.0768531769968
 20
1239.420897436494
 30
0.0
 10
562.4306512031866
 20
1239.211869804961
 30
0.0
 10
562.6785560950418
 20
1239.046808279782
 30
0.0
 10
562.8270576900218
 20
1238.941559718045
 30
0.0
 10
562.8608467510064
 20
1238.917123072657
 30
0.0
 10
562.8777027621824
 20
1238.904932607585
 30
0.0
 11
560.6407918906463
 21
1240.013255004179
 31
0.0
 11
561.0196830971474
 21
1239.893996087295
 31
0.0
 11
561.359183655763
 21
1239.764153612747
 31
0.0
 11
561.7160976247247
 21
1239.603930021818
 31
0.0
 11
562.0728906808663
 21
1239.418885271156
 31
0.0
 11
562.4254053547768
 21
1239.210766107108
 31
0.0
 11
562.7759412311979
 21
1238.977691035901
 31
0.0
 11
562.8270769643592
 21
1238.941423226747
 31
0.0
 11
562.8777027621824
 21
1238.904932607585
 31
0.0
  0
SPLINE
  5
E3
330
49
100
AcDbEntity
  8
0
  6
Continuous
 62
     3
100
AcDbSpline
210
0.0
220
0.0
230
1.0
 70
     8
 71
     3
 72
    15
 73
    11
 74
     9
 42
0.0000000001
 43
0.0000000001
 44
0.00000001
 40
0.0
 40
0.0
 40
0.0
 40
0.0
 40
0.4415573968062461
 40
0.9569146579058319
 40
1.484764839851154
 40
1.952395233449772
 40
2.503975850776217
 40
2.991305616629106
 40
3.146777032097945
 40
3.302136159785473
 40
3.302136159785473
 40
3.302136159785473
 40
3.302136159785473
 10
559.9336856395221
 20
1238.859280485371
 30
0.0
 10
560.0761971992915
 20
1238.822288999251
 30
0.0
 10
560.3850390428449
 20
1238.742123440838
 30
0.0
 10
560.8523754753019
 20
1238.577325250666
 30
0.0
 10
561.3157742311292
 20
1238.379320899403
 30
0.0
 10
561.7760798063221
 20
1238.146142652671
 30
0.0
 10
562.2093319357043
 20
1237.891459568332
 30
0.0
 10
562.5394002797073
 20
1237.668428270868
 30
0.0
 10
562.7543035365263
 20
1237.511554564503
 30
0.0
 10
562.8365795943942
 20
1237.448575250736
 30
0.0
 10
562.8777027621824
 20
1237.417096969516
 30
0.0
 11
559.9336856395221
 21
1238.859280485371
 31
0.0
 11
560.3595917279772
 21
1238.742760364829
 31
0.0
 11
560.846396828952
 21
1238.573603927668
 31
0.0
 11
561.3316749676572
 21
1238.365924023309
 31
0.0
 11
561.7489657899248
 21
1238.15486347591
 31
0.0
 11
562.2245205874776
 21
1237.8754197214
 31
0.0
 11
562.6284854776471
 21
1237.602834563703
 31
0.0
 11
562.7539798847234
 21
1237.511060303584
 31
0.0
 11
562.8777027621824
 21
1237.417096969516
 31
0.0
  0
SPLINE
  5
E4
330
49
100
AcDbEntity
  8
0
  6
Continuous
 62
     3
100
AcDbSpline
210
0.0
220
0.0
230
1.0
 70
     8
 71
     3
 72
    15
 73
    11
 74
     9
 42
0.0000000001
 43
0.0000000001
 44
0.00000001
 40
0.0
 40
0.0
 40
0.0
 40
0.0
 40
0.0074455862415426
 40
0.0141029070623172
 40
0.019946006864168
 40
0.0249583243576422
 40
0.0291402269298364
 40
0.0325258590110724
 40
0.0352215978862363
 40
0.0374835708714691
 40
0.0374835708714691
 40
0.0374835708714691
 40
0.0374835708714691
 10
533.8247074156027
 20
1235.161485723527
 30
0.0
 10
533.8247275165895
 20
1235.163967786735
 30
0.0
 10
533.8247655904682
 20
1235.168669136717
 30
0.0
 10
533.8251218751361
 20
1235.17531038336
 30
0.0
 10
533.8257124680295
 20
1235.181122408803
 30
0.0
 10
533.8265601402215
 20
1235.186063769673
 30
0.0
 10
533.8276616110334
 20
1235.190131200201
 30
0.0
 10
533.8290488842663
 20
1235.193247437967
 30
0.0
 10
533.8307239830306
 20
1235.195593153265
 30
0.0
 10
533.8322619559073
 20
1235.19626626156
 30
0.0
 10
533.8329636612901
 20
1235.196573369521
 30
0.0
 11
533.8247074156027
 21
1235.161485723527
 31
0.0
 11
533.8248273213774
 21
1235.168930344208
 31
0.0
 11
533.8251926544671
 21
1235.175577633298
 31
0.0
 11
533.8258117149365
 21
1235.18138784667
 31
0.0
 11
533.8266921708869
 21
1235.186322228493
 31
0.0
 11
533.8278413570351
 21
1235.190343133904
 31
0.0
 11
533.8292657864733
 21
1235.193414535109
 31
0.0
 11
533.8309714986817
 21
1235.195502010605
 31
0.0
 11
533.8329636612901
 21
1235.196573369521
 31
0.0
  0
SPLINE
  5
E5
330
49
100
AcDbEntity
  8
0
  6
Continuous
 62
     3
100
AcDbSpline
210
0.0
220
0.0
230
1.0
 70
     8
 71
     3
 72
    13
 73
     9
 74
     7
 42
0.0000000001
 43
0.0000000001
 44
0.00000001
 40
0.0
 40
0.0
 40
0.0
 40
0.0
 40
0.6402551188497164
 40
1.278225357238189
 40
1.924680523416276
 40
2.568067656845337
 40
3.406184205081982
 40
4.222612150430436
 40
4.222612150430436
 40
4.222612150430436
 40
4.222612150430436
 10
559.9336856395221
 20
1153.593006824875
 30
0.0
 10
560.087149300128
 20
1153.444692587393
 30
0.0
 10
560.3935289550902
 20
1153.148593401914
 30
0.0
 10
560.8490951079502
 20
1152.696842065158
 30
0.0
 10
561.3012052729609
 20
1152.240169668697
 30
0.0
 10
561.7948645123529
 20
1151.730811418287
 30
0.0
 10
562.3220010171319
 20
1151.175014261242
 30
0.0
 10
562.6940947110403
 20
1150.767920257714
 30
0.0
 10
562.8777027621824
 20
1150.56704145261
 30
0.0
 11
559.9336856395221
 21
1153.593006824875
 31
0.0
 11
560.3931163182706
 21
1153.147080745084
 31
0.0
 11
560.846396828952
 21
1152.698145556325
 31
0.0
 11
561.3011042454362
 21
1152.238639901003
 31
0.0
 11
561.7489657899248
 21
1151.77672319809
 31
0.0
 11
562.3250640517206
 21
1151.167994899763
 31
0.0
 11
562.8777027621824
 21
1150.56704145261
 31
0.0
  0
SPLINE
  5
E6
330
49
100
AcDbEntity
  8
0
  6
Continuous
 62
     3
100
AcDbSpline
210
0.0
220
0.0
230
1.0
 70
     8
 71
     3
 72
    11
 73
     7
 74
     5
 42
0.0000000001
 43
0.0000000001
 44
0.00000001
 40
0.0
 40
0.0
 40
0.0
 40
0.0
 40
1.094233075854996
 40
2.190355380575461
 40
2.777817348289087
 40
3.458139234816079
 40
3.458139234816079
 40
3.458139234816079
 40
3.458139234816079
 10
560.6407918906463
 20
1154.554317322843
 30
0.0
 10
560.8823636747793
 20
1154.281027648812
 30
0.0
 10
561.3659243245596
 20
1153.733976457272
 30
0.0
 10
561.9650469008453
 20
1153.027914841641
 30
0.0
 10
562.4687202531827
 20
1152.421926483106
 30
0.0
 10
562.7348769667152
 20
1152.093672542749
 30
0.0
 10
562.8777027621824
 20
1151.917523951475
 30
0.0
 11
560.6407918906463
 21
1154.554317322843
 31
0.0
 11
561.3627264236767
 21
1153.732029931286
 31
0.0
 11
562.0728906808663
 21
1152.897074342817
 31
0.0
 11
562.4480827985337
 21
1152.445031824518
 31
0.0
 11
562.8777027621824
 21
1151.917523951475
 31
0.0
  0
SPLINE
  5
E7
330
49
100
AcDbEntity
  8
0
  6
Continuous
 62
     7
100
AcDbSpline
210
0.0
220
0.0
230
1.0
 70
     8
 71
     3
 72
    11
 73
     7
 74
     5
 42
0.0000000001
 43
0.0000000001
 44
0.00000001
 40
0.0
 40
0.0
 40
0.0
 40
0.0
 40
0.7743959613966489
 40
1.54879192843478
 40
2.039306643389597
 40
2.52982277696192
 40
2.52982277696192
 40
2.52982277696192
 40
2.52982277696192
 10
560.3478992018951
 20
1156.693439413018
 30
0.0
 10
560.606029229251
 20
1156.692433551192
 30
0.0
 10
561.1222892858437
 20
1156.690421827532
 30
0.0
 10
561.8020530035319
 20
1156.687772324323
 30
0.0
 10
562.3871908295298
 20
1156.685491338076
 30
0.0
 10
562.714198627006
 20
1156.684216397122
 30
0.0
 10
562.8777027621785
 20
1156.683578925723
 30
0.0
 11
560.3478992018951
 21
1156.693439413018
 31
0.0
 11
561.1222892834817
 21
1156.690421703997
 31
0.0
 11
561.8966793684631
 21
1156.687403418488
 31
0.0
 11
562.3871903564678
 21
1156.685491290406
 31
0.0
 11
562.8777027621785
 21
1156.683578925723
 31
0.0
  0
SPLINE
  5
E8
330
49
100
AcDbEntity
  8
0
  6
Continuous
 62
     3
100
AcDbSpline
210
0.0
220
0.0
230
1.0
 70
     8
 71
     3
 72
    35
 73
    31
 74
    29
 42
0.0000000001
 43
0.0000000001
 44
0.00000001
 40
0.0
 40
0.0
 40
0.0
 40
0.0
 40
0.0123486761847513
 40
0.0267729654185113
 40
0.0433413097360009
 40
0.0621070924030525
 40
0.0831092443685067
 40
0.106370198935073
 40
0.1318963274225652
 40
0.1596756473159061
 40
0.1896786632324271
 40
0.2218563238048153
 40
0.2561414786743347
 40
0.2924474108283135
 40
0.3306699519683474
 40
0.3706868126003372
 40
0.4123602681266513
 40
0.4555373945161793
 40
0.5000531262363364
 40
0.545731377864111
 40
0.5923881950422578
 40
0.6398336211356256
 40
0.6878746302418388
 40
0.7363175064701558
 40
0.7849702712880815
 40
0.8336452982555076
 40
0.9303433716866175
 40
1.025072703463227
 40
1.116665914181289
 40
1.204173744787195
 40
1.204173744787195
 40
1.204173744787195
 40
1.204173744787195
 10
533.8247074156027
 20
1234.893670697286
 30
0.0
 10
533.8247633317068
 20
1234.889554423218
 30
0.0
 10
533.824884562509
 20
1234.880629995885
 30
0.0
 10
533.8257279826304
 20
1234.86620352496
 30
0.0
 10
533.8270599738803
 20
1234.849670510973
 30
0.0
 10
533.8289734147532
 20
1234.830987982739
 30
0.0
 10
533.8314654696417
 20
1234.810125968103
 30
0.0
 10
533.8345588559308
 20
1234.787068734538
 30
0.0
 10
533.8382644223932
 20
1234.761816492614
 30
0.0
 10
533.8425903052246
 20
1234.734385537294
 30
0.0
 10
533.8475409569794
 20
1234.704809962832
 30
0.0
 10
533.853114754131
 20
1234.673141109511
 30
0.0
 10
533.8593068033522
 20
1234.639448838687
 30
0.0
 10
533.8661055592628
 20
1234.603820253714
 30
0.0
 10
533.873496126876
 20
1234.566360342358
 30
0.0
 10
533.8814569942699
 20
1234.527189974051
 30
0.0
 10
533.8899634948431
 20
1234.486445827248
 30
0.0
 10
533.8989848117026
 20
1234.444277759436
 30
0.0
 10
533.908487516428
 20
1234.400848045051
 30
0.0
 10
533.9184328874792
 20
1234.356328309873
 30
0.0
 10
533.9287804401322
 20
1234.310898208009
 30
0.0
 10
533.9394855663742
 20
1234.264742183051
 30
0.0
 10
533.9505029468888
 20
1234.218047787883
 30
0.0
 10
533.9617845225172
 20
1234.171002572148
 30
0.0
 10
533.973282571694
 20
1234.123792247827
 30
0.0
 10
533.988802428252
 20
1234.061006586001
 30
0.0
 10
534.0083950898585
 20
1233.983406970064
 30
0.0
 10
534.0320848142971
 20
1233.892089070926
 30
0.0
 10
534.0555187166497
 20
1233.803870756895
 30
0.0
 10
534.071299216853
 20
1233.746293596832
 30
0.0
 10
534.0790094865893
 20
1233.718161698032
 30
0.0
 11
533.8247074156027
 21
1234.893670697286
 31
0.0
 11
533.8249602107322
 21
1234.881324608912
 31
0.0
 11
533.8257353276531
 21
1234.866921160934
 31
0.0
 11
533.8270570516966
 21
1234.850405620405
 31
0.0
 11
533.8289468134476
 21
1234.831735232095
 31
0.0
 11
533.8314238577841
 21
1234.810879665967
 31
0.0
 11
533.8345036140727
 21
1234.787823493072
 31
0.0
 11
533.8381985161477
 21
1234.762566198399
 31
0.0
 11
533.8425163132403
 21
1234.735124492147
 31
0.0
 11
533.8474610695135
 21
1234.705531750647
 31
0.0
 11
533.8530314973458
 21
1234.673839919307
 31
0.0
 11
533.8592221552567
 21
1234.640118300143
 31
0.0
 11
533.8660218906148
 21
1234.604454813092
 31
0.0
 11
533.8734152345842
 21
1234.566954131549
 31
0.0
 11
533.881381034933
 21
1234.527738125128
 31
0.0
 11
533.8898940196195
 21
1234.486943444259
 31
0.0
 11
533.8989236810876
 21
1234.444721063262
 31
0.0
 11
533.9084359513687
 21
1234.401233512346
 31
0.0
 11
533.9183923699676
 21
1234.356653557204
 31
0.0
 11
533.9287517892811
 21
1234.311161348853
 31
0.0
 11
533.9394698247722
 21
1234.264942389838
 31
0.0
 11
533.9505004962023
 21
1234.218184900131
 31
0.0
 11
533.9617959283231
 21
1234.171077305515
 31
0.0
 11
533.9733078345838
 21
1234.123806092936
 31
0.0
 11
533.9849874150643
 21
1234.076553096734
 31
0.0
 11
534.0086584123266
 21
1233.982797023363
 31
0.0
 11
534.0324376208712
 21
1233.891100810029
 31
0.0
 11
534.0559869058545
 21
1233.8025867014
 31
0.0
 11
534.0790094865893
 21
1233.718161698032
 31
0.0
  0
SPLINE
  5
E9
330
49
100
AcDbEntity
  8
0
  6
Continuous
 62
     3
100
AcDbSpline
210
0.0
220
0.0
230
1.0
 70
     8
 71
     3
 72
    13
 73
     9
 74
     7
 42
0.0000000001
 43
0.0000000001
 44
0.00000001
 40
0.0
 40
0.0
 40
0.0
 40
0.0
 40
0.441571469380403
 40
0.916591439817967
 40
1.381779967928796
 40
1.784593404552502
 40
2.260967004474566
 40
2.714639237916579
 40
2.714639237916579
 40
2.714639237916579
 40
2.714639237916579
 10
560.6407918906463
 20
1042.541062318664
 30
0.0
 10
560.7541557247412
 20
1042.44716546201
 30
0.0
 10
560.9894705653082
 20
1042.252259176159
 30
0.0
 10
561.3550784161729
 20
1041.971939832024
 30
0.0
 10
561.7188472482736
 20
1041.710847070871
 30
0.0
 10
562.0921408663168
 20
1041.462834036053
 30
0.0
 10
562.4707248535942
 20
1041.229833306493
 30
0.0
 10
562.7442690944579
 20
1041.083817228335
 30
0.0
 10
562.8777027621824
 20
1041.012591232883
 30
0.0
 11
560.6407918906463
 21
1042.541062318664
 31
0.0
 11
560.9825562448589
 21
1042.261451001367
 31
0.0
 11
561.359183655763
 21
1041.971976018562
 31
0.0
 11
561.7374404065729
 21
1041.701195300724
 31
0.0
 11
562.0728906808664
 21
1041.478189071661
 31
0.0
 11
562.4796324819689
 21
1041.230211423599
 31
0.0
 11
562.8777027621824
 21
1041.012591232883
 31
0.0
  0
SPLINE
  5
EA
330
49
100
AcDbEntity
  8
0
  6
Continuous
 62
     7
100
AcDbSpline
210
0.0
220
0.0
230
1.0
 70
     8
 71
     3
 72
    11
 73
     7
 74
     5
 42
0.0000000001
 43
0.0000000001
 44
0.00000001
 40
0.0
 40
0.0
 40
0.0
 40
0.0
 40
0.1217299960961121
 40
0.2109073923586888
 40
0.2659127355723175
 40
0.2970354522691518
 40
0.2970354522691518
 40
0.2970354522691518
 40
0.2970354522691518
 10
566.9146581772068
 20
1237.951202097884
 30
0.0
 10
566.902548093778
 20
1237.990108908817
 30
0.0
 10
566.881566362084
 20
1238.057518210568
 30
0.0
 10
566.8475153246055
 20
1238.138022937077
 30
0.0
 10
566.8248089548845
 20
1238.194627346628
 30
0.0
 10
566.8004574929232
 20
1238.210711138322
 30
0.0
 10
566.7916579953778
 20
1238.216523080363
 30
0.0
 11
566.9146581772068
 21
1237.951202097884
 31
0.0
 11
566.8763206010016
 21
1238.066737469958
 31
0.0
 11
566.8430583312586
 21
1238.149479414676
 31
0.0
 11
566.8163334294063
 21
1238.197556097206
 31
0.0
 11
566.7916579953778
 21
1238.216523080363
 31
0.0
  0
SPLINE
  5
EB
330
49
100
AcDbEntity
  8
0
  6
Continuous
 62
     3
100
AcDbSpline
210
0.0
220
0.0
230
1.0
 70
     8
 71
     3
 72
    19
 73
    15
 74
    13
 42
0.0000000001
 43
0.0000000001
 44
0.00000001
 40
0.0
 40
0.0
 40
0.0
 40
0.0
 40
0.1188425504373907
 40
0.244783347564818
 40
0.3762307304914014
 40
0.5110925983115139
 40
0.6469073002860509
 40
0.7810601258814603
 40
0.9110468788988668
 40
1.0347398455945
 40
1.150601374310237
 40
1.25779759970287
 40
1.356199457499061
 40
1.44627124738337
 40
1.44627124738337
 40
1.44627124738337
 40
1.44627124738337
 10
559.9336856395221
 20
1238.859280485371
 30
0.0
 10
559.934318703262
 20
1238.898914176228
 30
0.0
 10
559.9356226424729
 20
1238.98054880531
 30
0.0
 10
559.9515742835246
 20
1239.105191712782
 30
0.0
 10
559.9788071041619
 20
1239.233213668491
 30
0.0
 10
560.018814437493
 20
1239.36136430153
 30
0.0
 10
560.0710476926178
 20
1239.486012492011
 30
0.0
 10
560.1346402649691
 20
1239.603451409567
 30
0.0
 10
560.2079446503587
 20
1239.710252779237
 30
0.0
 10
560.2888218429098
 20
1239.803516079419
 30
0.0
 10
560.3747460760421
 20
1239.881342014064
 30
0.0
 10
560.4632395385805
 20
1239.942166227501
 30
0.0
 10
560.551444474793
 20
1239.987370241339
 30
0.0
 10
560.6119000813321
 20
1240.004884783004
 30
0.0
 10
560.6407918906463
 20
1240.013255004179
 30
0.0
 11
559.9336856395221
 21
1238.859280485371
 31
0.0
 11
559.9377237970903
 21
1238.978054409605
 31
0.0
 11
559.9530064033487
 21
1239.103064514505
 31
0.0
 11
559.9805205547735
 21
1239.231600058031
 31
0.0
 11
560.0207042219608
 21
1239.360336207901
 31
0.0
 11
560.0733101189295
 21
1239.48554903822
 31
0.0
 11
560.1373474353115
 21
1239.603431194316
 31
0.0
 11
560.211122290521
 21
1239.710453746607
 31
0.0
 11
560.2923841635045
 21
1239.803708548141
 31
0.0
 11
560.3785475931128
 21
1239.881166648005
 31
0.0
 11
560.466948005306
 21
1239.941799954549
 31
0.0
 11
560.5550824826205
 21
1239.98556340421
 31
0.0
 11
560.6407918906463
 21
1240.013255004179
 31
0.0
  0
SPLINE
  5
EC
330
49
100
AcDbEntity
  8
0
  6
Continuous
 62
     3
100
AcDbSpline
210
0.0
220
0.0
230
1.0
 70
     8
 71
     3
 72
    11
 73
     7
 74
     5
 42
0.0000000001
 43
0.0000000001
 44
0.00000001
 40
0.0
 40
0.0
 40
0.0
 40
0.0
 40
0.3900683811536282
 40
0.779337291718993
 40
1.167472895011747
 40
1.55480521417883
 40
1.55480521417883
 40
1.55480521417883
 40
1.55480521417883
 10
560.3478992018952
 20
1240.163392650852
 30
0.0
 10
560.2169065242778
 20
1240.148501416264
 30
0.0
 10
559.9551896470792
 20
1240.118749467645
 30
0.0
 10
559.6246891597572
 20
1239.889587767308
 30
0.0
 10
559.3931057954223
 20
1239.56151363373
 30
0.0
 10
559.3629576565511
 20
1239.301069757365
 30
0.0
 10
559.3478992018952
 20
1239.17098271221
 30
0.0
 11
560.3478992018952
 21
1240.163392650852
 31
0.0
 11
559.9652157307218
 21
1240.087849928724
 31
0.0
 11
559.6407924469942
 21
1239.872722483455
 31
0.0
 11
559.4240196831452
 21
1239.550761592357
 31
0.0
 11
559.3478992018952
 21
1239.17098271221
 31
0.0
  0
SPLINE
  5
ED
330
49
100
AcDbEntity
  8
0
  6
Continuous
 62
     3
100
AcDbSpline
210
0.0
220
0.0
230
1.0
 70
     8
 71
     3
 72
    10
 73
     6
 74
     4
 42
0.0000000001
 43
0.0000000001
 44
0.00000001
 40
0.0
 40
0.0
 40
0.0
 40
0.0
 40
0.1344222080637993
 40
0.3609461617886501
 40
0.6910356706688987
 40
0.6910356706688987
 40
0.6910356706688987
 40
0.6910356706688987
 10
559.3478992018952
 20
1239.17098271221
 30
0.0
 10
559.3674192209768
 20
1239.129242684661
 30
0.0
 10
559.4198337443434
 20
1239.017163713831
 30
0.0
 10
559.6525375224342
 20
1238.931697691194
 30
0.0
 10
559.8290237100184
 20
1238.886238960388
 30
0.0
 10
559.9336856395221
 20
1238.859280485371
 30
0.0
 11
559.3478992018952
 21
1239.17098271221
 31
0.0
 11
559.416047552997
 21
1239.055115839192
 31
0.0
 11
559.615848390233
 21
1238.948379120811
 31
0.0
 11
559.9336856395221
 21
1238.859280485371
 31
0.0
  0
SPLINE
  5
EE
330
49
100
AcDbEntity
  8
0
  6
Continuous
 62
     3
100
AcDbSpline
210
0.0
220
0.0
230
1.0
 70
     8
 71
     3
 72
    10
 73
     6
 74
     4
 42
0.0000000001
 43
0.0000000001
 44
0.00000001
 40
0.0
 40
0.0
 40
0.0
 40
0.0
 40
0.1715539474201939
 40
0.2823421947234505
 40
0.3361911861349799
 40
0.3361911861349799
 40
0.3361911861349799
 40
0.3361911861349799
 10
560.6407918906463
 20
1240.013255004179
 30
0.0
 10
560.587191326623
 20
1240.030966210222
 30
0.0
 10
560.4989759220095
 20
1240.060115179749
 30
0.0
 10
560.3887757342287
 20
1240.101763391268
 30
0.0
 10
560.3579737957828
 20
1240.148203256682
 30
0.0
 10
560.3478992018952
 20
1240.163392650852
 30
0.0
 11
560.6407918906463
 21
1240.013255004179
 31
0.0
 11
560.4783902734943
 21
1240.068540369529
 31
0.0
 11
560.3806011056112
 21
1240.120610652659
 31
0.0
 11
560.3478992018952
 21
1240.163392650852
 31
0.0
  0
SPLINE
  5
EF
330
49
100
AcDbEntity
  8
0
  6
Continuous
 62
     7
100
AcDbSpline
210
0.0
220
0.0
230
1.0
 70
     8
 71
     3
 72
    15
 73
    11
 74
     9
 42
0.0000000001
 43
0.0000000001
 44
0.00000001
 40
0.0
 40
0.0
 40
0.0
 40
0.0
 40
0.049175221058717
 40
0.1027274088482521
 40
0.1594771403379264
 40
0.2189174030043857
 40
0.2867866537836823
 40
0.3421524464905392
 40
0.4104330402545006
 40
0.4645824692155219
 40
0.4645824692155219
 40
0.4645824692155219
 40
0.4645824692155219
 10
566.8803636370478
 20
1236.513318513978
 30
0.0
 10
566.8823509540053
 20
1236.49704754393
 30
0.0
 10
566.8865024741655
 20
1236.463057364395
 30
0.0
 10
566.8936310345158
 20
1236.410377156727
 30
0.0
 10
566.9016346138086
 20
1236.354365024916
 30
0.0
 10
566.9107846068871
 20
1236.293697468667
 30
0.0
 10
566.9203024766157
 20
1236.233553531448
 30
0.0
 10
566.9307106533329
 20
1236.170568926431
 30
0.0
 10
566.9407292625556
 20
1236.112155761798
 30
0.0
 10
566.9479693111691
 20
1236.071992991788
 30
0.0
 10
566.951171503649
 20
1236.054229448066
 30
0.0
 11
566.8803636370478
 21
1236.513318513978
 31
0.0
 11
566.8864264944531
 21
1236.464518471701
 31
0.0
 11
566.8935518524979
 21
1236.411442431063
 31
0.0
 11
566.901578732124
 21
1236.3552632425
 31
0.0
 11
566.9104319238006
 21
1236.296485986499
 31
0.0
 11
566.9210378039991
 21
1236.229450544332
 31
0.0
 11
566.9300584284244
 21
1236.174824549265
 31
0.0
 11
566.9416316801936
 21
1236.107531909784
 31
0.0
 11
566.951171503649
 21
1236.054229448066
 31
0.0
  0
SPLINE
  5
F0
330
49
100
AcDbEntity
  8
0
  6
Continuous
 62
     7
100
AcDbSpline
210
0.0
220
0.0
230
1.0
 70
     8
 71
     3
 72
    21
 73
    17
 74
    15
 42
0.0000000001
 43
0.0000000001
 44
0.00000001
 40
0.0
 40
0.0
 40
0.0
 40
0.0
 40
0.0145888032626793
 40
0.0370302159911282
 40
0.0731262692863039
 40
0.1224966858661849
 40
0.174936223579368
 40
0.2458549366842186
 40
0.338611227539836
 40
0.4565707200038564
 40
0.6153155916585074
 40
0.7956804400640292
 40
0.9967060571753285
 40
1.219127464119103
 40
1.460316251508648
 40
1.719218189936834
 40
1.719218189936834
 40
1.719218189936834
 40
1.719218189936834
 10
566.7916579953778
 20
1238.216523080363
 30
0.0
 10
566.7870966171597
 20
1238.214373038352
 30
0.0
 10
566.7755186407081
 20
1238.208915666788
 30
0.0
 10
566.7683524063972
 20
1238.183456592338
 30
0.0
 10
566.7610250535906
 20
1238.149222452222
 30
0.0
 10
566.7570869284909
 20
1238.102920423627
 30
0.0
 10
566.7545608141704
 20
1238.045548531916
 30
0.0
 10
566.754140291783
 20
1237.973434790706
 30
0.0
 10
566.7561472605021
 20
1237.879594715109
 30
0.0
 10
566.7615593713668
 20
1237.756541608462
 30
0.0
 10
566.7711155178741
 20
1237.604481322626
 30
0.0
 10
566.7851216347676
 20
1237.42497537176
 30
0.0
 10
566.8031615523375
 20
1237.224511264487
 30
0.0
 10
566.8251981671935
 20
1237.004061958608
 30
0.0
 10
566.851028676225
 20
1236.764610613383
 30
0.0
 10
566.8703571131663
 20
1236.599037407865
 30
0.0
 10
566.8803636370478
 20
1236.513318513978
 30
0.0
 11
566.7916579953778
 21
1238.216523080363
 31
0.0
 11
566.7792076586966
 21
1238.20891898297
 31
0.0
 11
566.7699494462053
 21
1238.188476319085
 31
0.0
 11
566.762526275699
 21
1238.153151800644
 31
0.0
 11
566.7575081149705
 21
1238.104037076821
 31
0.0
 11
566.755113706434
 21
1238.051652232416
 31
0.0
 11
566.7544615509845
 21
1237.980736517925
 31
0.0
 11
566.7562748111093
 21
1237.887997952156
 31
0.0
 11
566.7612766492948
 21
1237.770144553914
 31
0.0
 11
566.7710367923851
 21
1237.611700008777
 31
0.0
 11
566.7849224645224
 21
1237.4318704599
 31
0.0
 11
566.8028352644883
 21
1237.2316445117
 31
0.0
 11
566.8248528314112
 21
1237.010315550618
 31
0.0
 11
566.8507326215413
 21
1236.770519246174
 31
0.0
 11
566.8803636370478
 21
1236.513318513978
 31
0.0
  0
SPLINE
  5
F1
330
49
100
AcDbEntity
  8
0
  6
Continuous
 62
     7
100
AcDbSpline
210
0.0
220
0.0
230
1.0
 70
     8
 71
     3
 72
    13
 73
     9
 74
     7
 42
0.0000000001
 43
0.0000000001
 44
0.00000001
 40
0.0
 40
0.0
 40
0.0
 40
0.0
 40
0.0492448616538494
 40
0.1028557545776037
 40
0.1658924102204326
 40
0.2191548662934747
 40
0.3421786800699813
 40
0.464886036638243
 40
0.464886036638243
 40
0.464886036638243
 40
0.464886036638243
 10
568.3806900861578
 20
1229.919727646741
 30
0.0
 10
568.3785548435178
 20
1229.936003244496
 30
0.0
 10
568.3740950484131
 20
1229.969997428499
 30
0.0
 10
568.3662872288642
 20
1230.024741876422
 30
0.0
 10
568.3579130398755
 20
1230.080756440162
 30
0.0
 10
568.3455892877947
 20
1230.159573277505
 30
0.0
 10
568.3294340685759
 20
1230.257923387805
 30
0.0
 10
568.3150042265639
 20
1230.338553550034
 30
0.0
 10
568.3077985970683
 20
1230.378816712631
 30
0.0
 11
568.3806900861578
 21
1229.919727646741
 31
0.0
 11
568.3741969842802
 21
1229.968542562774
 31
0.0
 11
568.366676146735
 21
1230.021623301679
 31
0.0
 11
568.3573558598615
 21
1230.083967124206
 31
0.0
 11
568.3491407571607
 21
1230.136592225769
 31
0.0
 11
568.329128102423
 21
1230.257977366567
 31
0.0
 11
568.3077985970683
 21
1230.378816712631
 31
0.0
  0
SPLINE
  5
F2
330
49
100
AcDbEntity
  8
0
  6
Continuous
 62
     3
100
AcDbSpline
210
0.0
220
0.0
230
1.0
 70
     8
 71
     3
 72
    11
 73
     7
 74
     5
 42
0.0000000001
 43
0.0000000001
 44
0.00000001
 40
0.0
 40
0.0
 40
0.0
 40
0.0
 40
0.0410410907835278
 40
0.0828438152095313
 40
0.3369938175165492
 40
0.5639951380621295
 40
0.5639951380621295
 40
0.5639951380621295
 40
0.5639951380621295
 10
562.8777027621824
 20
1226.250485626485
 30
0.0
 10
562.8641196334013
 20
1226.248855773867
 30
0.0
 10
562.8367013024255
 20
1226.2455658221
 30
0.0
 10
562.725021169904
 20
1226.233504391958
 30
0.0
 10
562.5510975804336
 20
1226.219739373601
 30
0.0
 10
562.3907004530865
 20
1226.217554041393
 30
0.0
 10
562.3150270464259
 20
1226.216523028334
 30
0.0
 11
562.8777027621824
 21
1226.250485626485
 31
0.0
 11
562.8369444907069
 21
1226.245675799146
 31
0.0
 11
562.7953863427125
 21
1226.241160480252
 31
0.0
 11
562.5419635191512
 21
1226.221948604475
 31
0.0
 11
562.3150270464259
 21
1226.216523028334
 31
0.0
  0
SPLINE
  5
F3
330
49
100
AcDbEntity
  8
0
  6
Continuous
 62
     7
100
AcDbSpline
210
0.0
220
0.0
230
1.0
 70
     8
 71
     3
 72
     9
 73
     5
 74
     3
 42
0.0000000001
 43
0.0000000001
 44
0.00000001
 40
0.0
 40
0.0
 40
0.0
 40
0.0
 40
0.0000470541350527
 40
0.0000941083259295
 40
0.0000941083259295
 40
0.0000941083259295
 40
0.0000941083259295
 10
562.3150270464259
 20
1226.216523028334
 30
0.0
 10
562.3150113617143
 20
1226.216523028353
 30
0.0
 10
562.3149799922722
 20
1226.216523028391
 30
0.0
 10
562.3149486228303
 20
1226.216523028891
 30
0.0
 10
562.3149329381
 20
1226.216523029141
 30
0.0
 11
562.3150270464259
 21
1226.216523028334
 31
0.0
 11
562.3149799922909
 21
1226.216523028506
 31
0.0
 11
562.3149329381
 21
1226.216523029141
 31
0.0
  0
SPLINE
  5
F4
330
49
100
AcDbEntity
  8
0
  6
Continuous
 62
     7
100
AcDbSpline
210
0.0
220
0.0
230
1.0
 70
     8
 71
     3
 72
    17
 73
    13
 74
    11
 42
0.0000000001
 43
0.0000000001
 44
0.00000001
 40
0.0
 40
0.0
 40
0.0
 40
0.0
 40
0.221888127962359
 40
0.4725200098593687
 40
0.704064893712423
 40
0.9585087154216647
 40
1.22874676543782
 40
1.457766740849265
 40
1.587832117437331
 40
1.711526192680526
 40
1.847857189786738
 40
1.967226243472093
 40
1.967226243472093
 40
1.967226243472093
 40
1.967226243472093
 10
562.3149329381
 20
1226.216523029141
 30
0.0
 10
562.2409672039305
 20
1226.217248594228
 30
0.0
 10
562.0834540924358
 20
1226.218793715299
 30
0.0
 10
561.849026856809
 20
1226.231441706733
 30
0.0
 10
561.6043661017118
 20
1226.25258430436
 30
0.0
 10
561.3540825538921
 20
1226.283070666615
 30
0.0
 10
561.1058907215036
 20
1226.322410006496
 30
0.0
 10
560.8998919384171
 20
1226.362208156646
 30
0.0
 10
560.742641783713
 20
1226.396444107306
 30
0.0
 10
560.6160670740857
 20
1226.426240401697
 30
0.0
 10
560.493423467019
 20
1226.457131456312
 30
0.0
 10
560.4112107629578
 20
1226.479627308946
 30
0.0
 10
560.3728312137386
 20
1226.490129100528
 30
0.0
 11
562.3149329381
 21
1226.216523029141
 31
0.0
 11
562.0930757908752
 21
1226.22023079881
 31
0.0
 11
561.8427788311532
 21
1226.233183488767
 31
0.0
 11
561.6121014561222
 21
1226.253208020905
 31
0.0
 11
561.3595155050834
 21
1226.283899970075
 31
0.0
 11
561.0926049180473
 21
1226.326176940219
 31
0.0
 11
560.8677367020467
 21
1226.369587014743
 31
0.0
 11
560.74064940803
 21
1226.397260501811
 31
0.0
 11
560.6202388492616
 21
1226.425571658399
 31
0.0
 11
560.4880669155248
 21
1226.458989029694
 31
0.0
 11
560.3728312137386
 21
1226.490129100528
 31
0.0
  0
SPLINE
  5
F5
330
49
100
AcDbEntity
  8
0
  6
Continuous
 62
     7
100
AcDbSpline
210
0.0
220
0.0
230
1.0
 70
     8
 71
     3
 72
    23
 73
    19
 74
    17
 42
0.0000000001
 43
0.0000000001
 44
0.00000001
 40
0.0
 40
0.0
 40
0.0
 40
0.0
 40
0.1115653925602619
 40
0.2288276955678841
 40
0.3716862179992537
 40
0.5311419976638869
 40
0.6673282013333784
 40
0.829030408058486
 40
0.9327480232933938
 40
1.023198575781145
 40
1.12752615236662
 40
1.217988374340411
 40
1.346311811959714
 40
1.456495804336018
 40
1.514482184202351
 40
1.578501251472047
 40
1.641293871805353
 40
1.699549492678455
 40
1.699549492678455
 40
1.699549492678455
 40
1.699549492678455
 10
560.3727689235274
 20
1226.490146430113
 30
0.0
 10
560.3370985988552
 20
1226.500702754353
 30
0.0
 10
560.2639365007565
 20
1226.522354444846
 30
0.0
 10
560.1481460665772
 20
1226.566797698675
 30
0.0
 10
560.021532264569
 20
1226.626592416097
 30
0.0
 10
559.8960510780038
 20
1226.702174333607
 30
0.0
 10
559.7741982556354
 20
1226.794154462429
 30
0.0
 10
559.6766808917348
 20
1226.886418045073
 30
0.0
 10
559.5993773185345
 20
1226.976559669477
 30
0.0
 10
559.5406803384051
 20
1227.057009180438
 30
0.0
 10
559.490963922473
 20
1227.138208876256
 30
0.0
 10
559.442503716537
 20
1227.23450368626
 30
0.0
 10
559.4026674594365
 20
1227.336937271559
 30
0.0
 10
559.3767649488218
 20
1227.432482907534
 30
0.0
 10
559.3621430044868
 20
1227.508518394429
 30
0.0
 10
559.3538679444266
 20
1227.569587616439
 30
0.0
 10
559.3487936773831
 20
1227.631114528253
 30
0.0
 10
559.3481898159639
 20
1227.671468263286
 30
0.0
 10
559.3478992018952
 20
1227.690888883243
 30
0.0
 11
560.3727689235274
 21
1226.490146430113
 31
0.0
 11
560.2662038889532
 21
1226.523172635214
 31
0.0
 11
560.1566360128263
 21
1226.564949760865
 31
0.0
 11
560.0275942661569
 21
1226.626242379081
 31
0.0
 11
559.8910885908645
 21
1226.708658071042
 31
0.0
 11
559.7824670504419
 21
1226.790804544041
 31
0.0
 11
559.6651225828973
 21
1226.902060463418
 31
0.0
 11
559.5976356472357
 21
1226.980818683465
 31
0.0
 11
559.5443477570112
 21
1227.053905639899
 31
0.0
 11
559.4899060274399
 21
1227.142901939359
 31
0.0
 11
559.4492625130517
 21
1227.223719748922
 31
0.0
 11
559.4027997385541
 21
1227.343336283015
 31
0.0
 11
559.3739654734569
 21
1227.449680522785
 31
0.0
 11
559.3630243623229
 21
1227.506625341137
 31
0.0
 11
559.3543740993273
 21
1227.570057304091
 31
0.0
 11
559.3493998902397
 21
1227.632652594747
 31
0.0
 11
559.3478992018952
 21
1227.690888883243
 31
0.0
  0
SPLINE
  5
F6
330
49
100
AcDbEntity
  8
0
  6
Continuous
 62
     3
100
AcDbSpline
210
0.0
220
0.0
230
1.0
 70
     8
 71
     3
 72
    15
 73
    11
 74
     9
 42
0.0000000001
 43
0.0000000001
 44
0.00000001
 40
0.0
 40
0.0
 40
0.0
 40
0.0
 40
0.1318576080046843
 40
0.2556162393265861
 40
0.692044913823646
 40
1.141258339325491
 40
1.618993046162865
 40
2.045802212303362
 40
2.477665892067392
 40
2.978012895811419
 40
2.978012895811419
 40
2.978012895811419
 40
2.978012895811419
 10
562.8777027621824
 20
1227.188788886072
 30
0.0
 10
562.8350345366189
 20
1227.178227851425
 30
0.0
 10
562.7523188592884
 20
1227.157754463497
 30
0.0
 10
562.5266130156831
 20
1227.109966638843
 30
0.0
 10
562.1936087399838
 20
1227.058639494284
 30
0.0
 10
561.7396266200153
 20
1227.028582426779
 30
0.0
 10
561.2878654205421
 20
1227.036595819159
 30
0.0
 10
560.8441721066813
 20
1227.079397025096
 30
0.0
 10
560.3964729277072
 20
1227.151926435192
 30
0.0
 10
560.0953225739888
 20
1227.229112237422
 30
0.0
 10
559.9336856395221
 20
1227.270540302515
 30
0.0
 11
562.8777027621824
 21
1227.188788886072
 31
0.0
 11
562.7495246305683
 21
1227.157856777113
 31
0.0
 11
562.6284854776403
 21
1227.132055182489
 31
0.0
 11
562.1971639280903
 21
1227.065484101553
 31
0.0
 11
561.7489657899201
 21
1227.035299161733
 31
0.0
 11
561.2713012130038
 21
1227.043484641334
 31
0.0
 11
560.8463968289497
 21
1227.083762783212
 31
0.0
 11
560.4203093543586
 21
1227.154159529557
 31
0.0
 11
559.9336856395221
 21
1227.270540302515
 31
0.0
  0
SPLINE
  5
F7
330
49
100
AcDbEntity
  8
0
  6
Continuous
 62
     3
100
AcDbSpline
210
0.0
220
0.0
230
1.0
 70
     8
 71
     3
 72
    10
 73
     6
 74
     4
 42
0.0000000001
 43
0.0000000001
 44
0.00000001
 40
0.0
 40
0.0
 40
0.0
 40
0.0
 40
0.3416491436692595
 40
0.5873231092743281
 40
0.7539761354291677
 40
0.7539761354291677
 40
0.7539761354291677
 40
0.7539761354291677
 10
559.9336856395221
 20
1227.270540302515
 30
0.0
 10
559.827861217814
 20
1227.308193958474
 30
0.0
 10
559.6459402923659
 20
1227.37292370448
 30
0.0
 10
559.4110183934374
 20
1227.502885743705
 30
0.0
 10
559.3660673665183
 20
1227.636774248608
 30
0.0
 10
559.3478992018952
 20
1227.690888883243
 30
0.0
 11
559.9336856395221
 21
1227.270540302515
 31
0.0
 11
559.6158483902332
 21
1227.395854389251
 31
0.0
 11
559.4160475529968
 21
1227.538806558929
 31
0.0
 11
559.3478992018952
 21
1227.690888883243
 31
0.0
  0
SPLINE
  5
F8
330
49
100
AcDbEntity
  8
0
  6
Continuous
 62
     7
100
AcDbSpline
210
0.0
220
0.0
230
1.0
 70
     8
 71
     3
 72
    15
 73
    11
 74
     9
 42
0.0000000001
 43
0.0000000001
 44
0.00000001
 40
0.0
 40
0.0
 40
0.0
 40
0.0
 40
0.0589137500097439
 40
0.11504357624609
 40
0.1730994884852409
 40
0.2158861089636158
 40
0.2636678050028056
 40
0.2967785273097269
 40
0.3280376322757962
 40
0.3524614908397113
 40
0.3524614908397113
 40
0.3524614908397113
 40
0.3524614908397113
 10
568.2680149690325
 20
1228.825902442045
 30
0.0
 10
568.2715731643597
 20
1228.806589468692
 30
0.0
 10
568.2785214152408
 20
1228.768876141631
 30
0.0
 10
568.2895209799476
 20
1228.712233663107
 30
0.0
 10
568.2999316051622
 20
1228.660954556339
 30
0.0
 10
568.3103003054664
 20
1228.612510089163
 30
0.0
 10
568.3193909086851
 20
1228.57229536767
 30
0.0
 10
568.3282762518731
 20
1228.53598398648
 30
0.0
 10
568.3357404625565
 20
1228.507333564053
 30
0.0
 10
568.341278012362
 20
1228.489615585371
 30
0.0
 10
568.3437069120589
 20
1228.481844062845
 30
0.0
 11
568.2680149690325
 21
1228.825902442045
 31
0.0
 11
568.2787845312914
 21
1228.767981405547
 31
0.0
 11
568.2894751988583
 21
1228.712879073289
 31
0.0
 11
568.3010593670417
 21
1228.655990621092
 31
0.0
 11
568.3100273645118
 21
1228.614154393808
 31
0.0
 11
568.3206308201161
 21
1228.56756408145
 31
0.0
 11
568.3285053161133
 21
1228.535403356264
 31
0.0
 11
568.3365850351644
 21
1228.505206505711
 31
0.0
 11
568.3437069120589
 21
1228.481844062845
 31
0.0
  0
SPLINE
  5
F9
330
49
100
AcDbEntity
  8
0
  6
Continuous
 62
     7
100
AcDbSpline
210
0.0
220
0.0
230
1.0
 70
     8
 71
     3
 72
    11
 73
     7
 74
     5
 42
0.0000000001
 43
0.0000000001
 44
0.00000001
 40
0.0
 40
0.0
 40
0.0
 40
0.0
 40
0.1223225197269912
 40
0.2129363084996951
 40
0.2685153496347735
 40
0.3019933528889826
 40
0.3019933528889826
 40
0.3019933528889826
 40
0.3019933528889826
 10
568.3437069120589
 20
1228.481844062845
 30
0.0
 10
568.3567603567046
 20
1228.443036550428
 30
0.0
 10
568.3794835014068
 20
1228.375481300138
 30
0.0
 10
568.4159707832497
 20
1228.295073107489
 30
0.0
 10
568.4414603274716
 20
1228.23807154558
 30
0.0
 10
568.467279668046
 20
1228.222410372224
 30
0.0
 10
568.4769855815277
 20
1228.216523080363
 30
0.0
 11
568.3437069120589
 21
1228.481844062845
 31
0.0
 11
568.3849171255174
 21
1228.366672377353
 31
0.0
 11
568.421067507589
 21
1228.28358201334
 31
0.0
 11
568.4497310540353
 21
1228.235964464909
 31
0.0
 11
568.4769855815277
 21
1228.216523080363
 31
0.0
  0
SPLINE
  5
FA
330
49
100
AcDbEntity
  8
0
  6
Continuous
 62
     3
100
AcDbSpline
210
0.0
220
0.0
230
1.0
 70
     8
 71
     3
 72
    17
 73
    13
 74
    11
 42
0.0000000001
 43
0.0000000001
 44
0.00000001
 40
0.0
 40
0.0
 40
0.0
 40
0.0
 40
0.042729485535264
 40
0.0861282798683393
 40
0.1817482895576986
 40
0.2820005346349299
 40
0.3873465129323668
 40
0.497514084368252
 40
0.611517992195889
 40
0.7278391174641775
 40
0.8446799039769844
 40
0.9602126501958707
 40
0.9602126501958707
 40
0.9602126501958707
 40
0.9602126501958707
 10
560.3727689235274
 20
1226.490146430113
 30
0.0
 10
560.3591450150473
 20
1226.494337489602
 30
0.0
 10
560.3316837950543
 20
1226.502785256761
 30
0.0
 10
560.2761481291243
 20
1226.527277325768
 30
0.0
 10
560.2079652471515
 20
1226.569645067102
 30
0.0
 10
560.1339841087863
 20
1226.638364814341
 30
0.0
 10
560.0700741378521
 20
1226.722590119437
 30
0.0
 10
560.017843460939
 20
1226.819655829393
 30
0.0
 10
559.9780401981225
 20
1226.926293239402
 30
0.0
 10
559.9510502378631
 20
1227.039040416464
 30
0.0
 10
559.9354528152903
 20
1227.15450433233
 30
0.0
 10
559.9342724833991
 20
1227.232007067829
 30
0.0
 10
559.9336856395221
 20
1227.270540302515
 30
0.0
 11
560.3727689235274
 21
1226.490146430113
 31
0.0
 11
560.3321786597229
 21
1226.503497063746
 31
0.0
 11
560.2923841635029
 21
1226.520813339909
 31
0.0
 11
560.2111222905241
 21
1226.571208719191
 31
0.0
 11
560.1373474353111
 21
1226.639089374619
 31
0.0
 11
560.0733101189264
 21
1226.722737430506
 31
0.0
 11
560.0207042219629
 21
1226.819533677338
 31
0.0
 11
559.9805205547747
 21
1226.92622090193
 31
0.0
 11
559.9530064033452
 21
1227.039241146377
 31
0.0
 11
559.9377237970971
 21
1227.155078149702
 31
0.0
 11
559.9336856395221
 21
1227.270540302515
 31
0.0
  0
SPLINE
  5
FB
330
49
100
AcDbEntity
  8
0
  6
Continuous
 62
     7
100
AcDbSpline
210
0.0
220
0.0
230
1.0
 70
     8
 71
     3
 72
     9
 73
     5
 74
     3
 42
0.0000000001
 43
0.0000000001
 44
0.00000001
 40
0.0
 40
0.0
 40
0.0
 40
0.0
 40
0.0000323276625241
 40
0.0000646558963115
 40
0.0000646558963115
 40
0.0000646558963115
 40
0.0000646558963115
 10
560.3728312137386
 20
1226.490129100528
 30
0.0
 10
560.3728208320931
 20
1226.49013198864
 30
0.0
 10
560.3728000686185
 20
1226.490137764913
 30
0.0
 10
560.3727793052856
 20
1226.490143541696
 30
0.0
 10
560.3727689235274
 20
1226.490146430113
 30
0.0
 11
560.3728312137386
 21
1226.490129100528
 31
0.0
 11
560.3728000688374
 21
1226.49013776499
 31
0.0
 11
560.3727689235274
 21
1226.490146430113
 31
0.0
  0
SPLINE
  5
FC
330
49
100
AcDbEntity
  8
0
  6
Continuous
 62
     7
100
AcDbSpline
210
0.0
220
0.0
230
1.0
 70
     8
 71
     3
 72
    11
 73
     7
 74
     5
 42
0.0000000001
 43
0.0000000001
 44
0.00000001
 40
0.0
 40
0.0
 40
0.0
 40
0.0
 40
1.836941668891311
 40
3.673883332512895
 40
5.510824990716227
 40
7.347766643219947
 40
7.347766643219947
 40
7.347766643219947
 40
7.347766643219947
 10
566.9883428998986
 20
1237.607143718683
 30
0.0
 10
567.0982977929848
 20
1237.004783178042
 30
0.0
 10
567.3182075788418
 20
1235.800062098489
 30
0.0
 10
567.6480717127367
 20
1233.992980382424
 30
0.0
 10
567.9779354618521
 20
1232.185898601674
 30
0.0
 10
568.1978442187766
 20
1230.981177341689
 30
0.0
 10
568.3077985970683
 20
1230.378816712631
 30
0.0
 11
566.9883428998986
 21
1237.607143718683
 31
0.0
 11
567.3182074884226
 21
1235.800062080199
 31
0.0
 11
567.6480716490946
 21
1233.992980368971
 31
0.0
 11
567.9779353599877
 21
1232.185898581149
 31
0.0
 11
568.3077985970683
 21
1230.378816712631
 31
0.0
  0
SPLINE
  5
FD
330
49
100
AcDbEntity
  8
0
  6
Continuous
 62
     7
100
AcDbSpline
210
0.0
220
0.0
230
1.0
 70
     8
 71
     3
 72
    11
 73
     7
 74
     5
 42
0.0000000001
 43
0.0000000001
 44
0.00000001
 40
0.0
 40
0.0
 40
0.0
 40
0.0
 40
1.819897999129754
 40
3.673648479883656
 40
5.496291784529443
 40
7.347298008669699
 40
7.347298008669699
 40
7.347298008669699
 40
7.347298008669699
 10
568.2680149690325
 20
1228.825902442045
 30
0.0
 10
568.1593019382567
 20
1229.42271453045
 30
0.0
 10
567.9398536722308
 20
1230.627440192213
 30
0.0
 10
567.6114986526555
 20
1232.429872814254
 30
0.0
 10
567.2812664083915
 20
1234.242503525273
 30
0.0
 10
567.0617680277695
 20
1235.447220412662
 30
0.0
 10
566.951171503649
 20
1236.054229448066
 30
0.0
 11
568.2680149690325
 21
1228.825902442045
 31
0.0
 11
567.9418710000873
 21
1230.616337818918
 31
0.0
 11
567.6096370966952
 21
1232.440073402365
 31
0.0
 11
567.2829565829867
 21
1234.233201523257
 31
0.0
 11
566.951171503649
 21
1236.054229448066
 31
0.0
  0
SPLINE
  5
FE
330
49
100
AcDbEntity
  8
0
  6
Continuous
 62
     7
100
AcDbSpline
210
0.0
220
0.0
230
1.0
 70
     8
 71
     3
 72
    13
 73
     9
 74
     7
 42
0.0000000001
 43
0.0000000001
 44
0.00000001
 40
0.0
 40
0.0
 40
0.0
 40
0.0
 40
0.052710816441515
 40
0.1150908027981723
 40
0.1622528980909719
 40
0.2157865441823852
 40
0.2965575238606076
 40
0.3519767083344424
 40
0.3519767083344424
 40
0.3519767083344424
 40
0.3519767083344424
 10
566.9883428998986
 20
1237.607143718683
 30
0.0
 10
566.985161683922
 20
1237.624423670235
 30
0.0
 10
566.9782156958813
 20
1237.66215337413
 30
0.0
 10
566.9680053919194
 20
1237.715265409693
 30
0.0
 10
566.9574024856449
 20
1237.76858157862
 30
0.0
 10
566.945012685009
 20
1237.827783424024
 30
0.0
 10
566.9316578216597
 20
1237.889626194006
 30
0.0
 10
566.9195749854873
 20
1237.933392495166
 30
0.0
 10
566.9146581772068
 20
1237.951202097884
 30
0.0
 11
566.9883428998986
 21
1237.607143718683
 31
0.0
 11
566.9787370621166
 21
1237.658971877539
 31
0.0
 11
566.9669735135316
 21
1237.72023264494
 31
0.0
 11
566.9577447963999
 21
1237.766482985615
 31
0.0
 11
566.9468272030729
 21
1237.818891548081
 31
0.0
 11
566.9289952507947
 21
1237.897669543969
 31
0.0
 11
566.9146581772068
 21
1237.951202097884
 31
0.0
  0
SPLINE
  5
FF
330
49
100
AcDbEntity
  8
0
  6
Continuous
 62
     7
100
AcDbSpline
210
0.0
220
0.0
230
1.0
 70
     8
 71
     3
 72
    20
 73
    16
 74
    14
 42
0.0000000001
 43
0.0000000001
 44
0.00000001
 40
0.0
 40
0.0
 40
0.0
 40
0.0
 40
0.0148271661349472
 40
0.038420306101536
 40
0.0766542527868451
 40
0.1241078028577969
 40
0.1779019550345735
 40
0.2495058694989041
 40
0.3419586225705967
 40
0.4583020151462718
 40
0.6485473066508155
 40
0.8707235706512908
 40
1.124144463359742
 40
1.408104485364722
 40
1.721887109803161
 40
1.721887109803161
 40
1.721887109803161
 40
1.721887109803161
 10
568.4769855815277
 20
1228.216523080363
 30
0.0
 10
568.4817411723002
 20
1228.218438706339
 30
0.0
 10
568.4940639082499
 20
1228.223402496161
 30
0.0
 10
568.5027324202741
 20
1228.249897171895
 30
0.0
 10
568.510432508823
 20
1228.284452822574
 30
0.0
 10
568.5148693377819
 20
1228.331233694857
 30
0.0
 10
568.5175562943173
 20
1228.388641629346
 30
0.0
 10
568.5179770739644
 20
1228.461336544387
 30
0.0
 10
568.5157334876894
 20
1228.554761805381
 30
0.0
 10
568.5093172229331
 20
1228.687641492645
 30
0.0
 10
568.4968305449848
 20
1228.86346403053
 30
0.0
 10
568.4770563785296
 20
1229.084539334819
 30
0.0
 10
568.4509250578554
 20
1229.336378506858
 30
0.0
 10
568.4186375318352
 20
1229.618262995819
 30
0.0
 10
568.3937530801039
 20
1229.8159517314
 30
0.0
 10
568.3806900861578
 20
1229.919727646741
 30
0.0
 11
568.4769855815277
 21
1228.216523080363
 31
0.0
 11
568.490064164714
 21
1228.223508459196
 31
0.0
 11
568.500693001048
 21
1228.244571794441
 31
0.0
 11
568.5091234717476
 21
1228.281864713915
 31
0.0
 11
568.5143059091399
 21
1228.3290344262
 31
0.0
 11
568.516965288115
 21
1228.382762803357
 31
0.0
 11
568.5176263807
 21
1228.454363665944
 31
0.0
 11
568.5155939631093
 21
1228.546794076682
 31
0.0
 11
568.5101728115565
 21
1228.663011098292
 31
0.0
 11
568.4970507421936
 21
1228.852803306339
 31
0.0
 11
568.4774959067734
 21
1229.074117338196
 31
0.0
 11
568.4515538334947
 21
1229.326206920875
 31
0.0
 11
568.4192700505566
 21
1229.608325781386
 31
0.0
 11
568.3806900861578
 21
1229.919727646741
 31
0.0
  0
SPLINE
  5
100
330
49
100
AcDbEntity
  8
0
  6
Continuous
 62
     7
100
AcDbSpline
210
0.0
220
0.0
230
1.0
 70
     8
 71
     3
 72
    11
 73
     7
 74
     5
 42
0.0000000001
 43
0.0000000001
 44
0.00000001
 40
0.0
 40
0.0
 40
0.0
 40
0.0
 40
12.5953965758825
 40
25.69504194518598
 40
35.24998461263266
 40
45.07378363919875
 40
45.07378363919875
 40
45.07378363919875
 40
45.07378363919875
 10
514.5322917200685
 20
1147.99429850722
 30
0.0
 10
518.7206922277694
 20
1148.284839303289
 30
0.0
 10
527.2651732276518
 20
1148.877552513772
 30
0.0
 10
538.9870011189139
 20
1149.690651741045
 30
0.0
 10
549.7871784883713
 20
1150.439810182168
 30
0.0
 10
556.2312750480047
 20
1150.886800787885
 30
0.0
 10
559.4980253101842
 20
1151.113396814948
 30
0.0
 11
514.5322917200685
 21
1147.99429850722
 31
0.0
 11
527.0974934856464
 21
1148.865917399897
 31
0.0
 11
540.1657363937828
 21
1149.772414005217
 31
0.0
 11
549.697774641106
 21
1150.43360704039
 31
0.0
 11
559.4980253101842
 21
1151.113396814948
 31
0.0
  0
SPLINE
  5
101
330
49
100
AcDbEntity
  8
0
  6
Continuous
 62
     7
100
AcDbSpline
210
0.0
220
0.0
230
1.0
 70
     8
 71
     3
 72
    17
 73
    13
 74
    11
 42
0.0000000001
 43
0.0000000001
 44
0.00000001
 40
0.0
 40
0.0
 40
0.0
 40
0.0
 40
0.0432448092854368
 40
0.0939870063468756
 40
0.1460437469310835
 40
0.2078392089474544
 40
0.2728336906332726
 40
0.3646220318871859
 40
0.5079953694801593
 40
0.6687721854469613
 40
0.8762463888544241
 40
1.093032036526092
 40
1.093032036526092
 40
1.093032036526092
 40
1.093032036526092
 10
559.3478992018952
 20
1156.401760423505
 30
0.0
 10
559.3501069974002
 20
1156.416234345453
 30
0.0
 10
559.3549053557138
 20
1156.447691544974
 30
0.0
 10
559.3870183886194
 20
1156.48670034136
 30
0.0
 10
559.4295540617285
 20
1156.52112632269
 30
0.0
 10
559.4815293724322
 20
1156.550964062963
 30
0.0
 10
559.5481593172458
 20
1156.580532824648
 30
0.0
 10
559.6430161259676
 20
1156.612820482668
 30
0.0
 10
559.7714090605182
 20
1156.644133924475
 30
0.0
 10
559.9398283934436
 20
1156.671617199564
 30
0.0
 10
560.1341681672045
 20
1156.690418811197
 30
0.0
 10
560.2756206805216
 20
1156.692417920591
 30
0.0
 10
560.3478992018951
 20
1156.693439413018
 30
0.0
 11
559.3478992018952
 21
1156.401760423505
 31
0.0
 11
559.3578819551738
 21
1156.443837236206
 31
0.0
 11
559.387694657537
 21
1156.484897841906
 31
0.0
 11
559.42780341383
 21
1156.518082053647
 31
0.0
 11
559.4810279596588
 21
1156.549479933307
 31
0.0
 11
559.5402931955482
 21
1156.5761616586
 31
0.0
 11
559.6270095592388
 21
1156.606251056374
 31
0.0
 11
559.7660974287288
 21
1156.641042987813
 31
0.0
 11
559.9246667601434
 21
1156.667593914109
 31
0.0
 11
560.1311994622608
 21
1156.687336964421
 31
0.0
 11
560.3478992018951
 21
1156.693439413018
 31
0.0
  0
SPLINE
  5
102
330
49
100
AcDbEntity
  8
0
  6
Continuous
 62
     7
100
AcDbSpline
210
0.0
220
0.0
230
1.0
 70
    24
 71
     3
 72
     8
 73
     4
 74
     2
 42
0.0000000001
 43
0.0000000001
 44
0.00000001
 40
0.0
 40
0.0
 40
0.0
 40
0.0
 40
0.0000107776314288
 40
0.0000107776314288
 40
0.0000107776314288
 40
0.0000107776314288
 10
559.9441741079818
 20
1150.453384318062
 30
0.0
 10
559.9441715371663
 20
1150.4533868275
 30
0.0
 10
559.9441689663507
 20
1150.453389336938
 30
0.0
 10
559.944166395535
 20
1150.453391846376
 30
0.0
 11
559.9441741079818
 21
1150.453384318062
 31
0.0
 11
559.944166395535
 21
1150.453391846376
 31
0.0
  0
SPLINE
  5
103
330
49
100
AcDbEntity
  8
0
  6
Continuous
 62
     7
100
AcDbSpline
210
0.0
220
0.0
230
1.0
 70
     8
 71
     3
 72
    13
 73
     9
 74
     7
 42
0.0000000001
 43
0.0000000001
 44
0.00000001
 40
0.0
 40
0.0
 40
0.0
 40
0.0
 40
0.6983304538732478
 40
1.429027134330906
 40
2.088455081963728
 40
2.659456890349673
 40
3.289147536270151
 40
3.958621106218442
 40
3.958621106218442
 40
3.958621106218442
 40
3.958621106218442
 10
562.8777027621824
 20
1147.796713275605
 30
0.0
 10
562.6995844354631
 20
1147.946584933933
 30
0.0
 10
562.3350923521064
 20
1148.253274503649
 30
0.0
 10
561.812086055641
 20
1148.71279307933
 30
0.0
 10
561.326376214693
 20
1149.150326062988
 30
0.0
 10
560.8705702704727
 20
1149.570686422693
 30
0.0
 10
560.4163032608418
 20
1149.997623994154
 30
0.0
 10
560.104730809534
 20
1150.298394155176
 30
0.0
 10
559.9441741079818
 20
1150.453384318062
 30
0.0
 11
562.8777027621824
 21
1147.796713275605
 31
0.0
 11
562.3449297580414
 21
1148.248175731259
 31
0.0
 11
561.7952979185753
 21
1148.729655201099
 31
0.0
 11
561.3054044746095
 21
1149.171072952983
 31
0.0
 11
560.8855323190259
 21
1149.558048970516
 31
0.0
 11
560.4269056227436
 21
1149.989525346482
 31
0.0
 11
559.9441741079818
 21
1150.453384318062
 31
0.0
  0
SPLINE
  5
104
330
49
100
AcDbEntity
  8
0
  6
Continuous
 62
     7
100
AcDbSpline
210
0.0
220
0.0
230
1.0
 70
     8
 71
     3
 72
    17
 73
    13
 74
    11
 42
0.0000000001
 43
0.0000000001
 44
0.00000001
 40
0.0
 40
0.0
 40
0.0
 40
0.0
 40
0.1698156751972484
 40
0.3939653501349591
 40
0.6103680639922122
 40
0.7884275164440866
 40
0.9660664253963296
 40
1.182290122018396
 40
1.286523424768851
 40
1.380343095143043
 40
1.483054086857209
 40
1.576294157844923
 40
1.576294157844923
 40
1.576294157844923
 40
1.576294157844923
 10
559.9441638194503
 20
1150.453394350336
 30
0.0
 10
559.9046363850714
 20
1150.493960641943
 30
0.0
 10
559.8129343704784
 20
1150.588072762381
 30
0.0
 10
559.6898232928022
 20
1150.750838314497
 30
0.0
 10
559.5827497818696
 20
1150.927443848094
 30
0.0
 10
559.5007704800055
 20
1151.099933705265
 30
0.0
 10
559.4345741789892
 20
1151.278961098365
 30
0.0
 10
559.3926997234798
 20
1151.440011362772
 30
0.0
 10
559.3688295970833
 20
1151.576080833285
 30
0.0
 10
559.3565665077201
 20
1151.675613255675
 30
0.0
 10
559.3492152779279
 20
1151.771988883443
 30
0.0
 10
559.3483235268776
 20
1151.837311717164
 30
0.0
 10
559.3478992018952
 20
1151.868394506761
 30
0.0
 11
559.9441638194503
 21
1150.453394350336
 31
0.0
 11
559.827855547087
 21
1150.577126922129
 31
0.0
 11
559.6915239194002
 21
1150.755050400251
 31
0.0
 11
559.5796499001463
 21
1150.94029169797
 31
0.0
 11
559.5031660266623
 21
1151.10108779775
 31
0.0
 11
559.4415778262543
 21
1151.267708551392
 31
0.0
 11
559.3871437244907
 21
1151.476968235866
 31
0.0
 11
559.3691536780942
 21
1151.579637314137
 31
0.0
 11
559.3576189428798
 21
1151.672745210862
 31
0.0
 11
559.350095814297
 21
1151.775180314002
 31
0.0
 11
559.3478992018952
 21
1151.868394506761
 31
0.0
  0
SPLINE
  5
105
330
49
100
AcDbEntity
  8
0
  6
Continuous
 62
     3
100
AcDbSpline
210
0.0
220
0.0
230
1.0
 70
     8
 71
     3
 72
    11
 73
     7
 74
     5
 42
0.0000000001
 43
0.0000000001
 44
0.00000001
 40
0.0
 40
0.0
 40
0.0
 40
0.0
 40
0.0081243576404767
 40
0.0168441948521541
 40
0.0266728374762315
 40
0.0369965945208407
 40
0.0369965945208407
 40
0.0369965945208407
 40
0.0369965945208407
 10
559.9441638194503
 20
1150.453394350336
 30
0.0
 10
559.9423758577785
 20
1150.455451613012
 30
0.0
 10
559.9386688847328
 20
1150.459716926643
 30
0.0
 10
559.9353777496556
 20
1150.468127915618
 30
0.0
 10
559.9336069995335
 20
1150.477632356217
 30
0.0
 10
559.9336590003319
 20
1150.484364486989
 30
0.0
 10
559.9336856395221
 20
1150.487813251584
 30
0.0
 11
559.9441638194503
 21
1150.453394350336
 31
0.0
 11
559.9391788023637
 21
1150.459809550389
 31
0.0
 11
559.9357689595781
 21
1150.467835043095
 31
0.0
 11
559.933943727549
 21
1150.47749272107
 31
0.0
 11
559.9336856395221
 21
1150.487813251584
 31
0.0
  0
SPLINE
  5
106
330
49
100
AcDbEntity
  8
0
  6
Continuous
 62
     3
100
AcDbSpline
210
0.0
220
0.0
230
1.0
 70
     8
 71
     3
 72
    15
 73
    11
 74
     9
 42
0.0000000001
 43
0.0000000001
 44
0.00000001
 40
0.0
 40
0.0
 40
0.0
 40
0.0
 40
1.424393837925054
 40
2.582266649682919
 40
3.695128853236284
 40
4.946265601690557
 40
5.931596889012633
 40
7.012071955759847
 40
7.841350405632285
 40
8.722476152342226
 40
8.722476152342226
 40
8.722476152342226
 40
8.722476152342226
 10
534.0790094865893
 20
1154.966787900552
 30
0.0
 10
533.6056110236344
 20
1154.929800689161
 30
0.0
 10
532.7473925798646
 20
1154.862747013487
 30
0.0
 10
531.5238186255021
 20
1154.719160730671
 30
0.0
 10
530.3620122114663
 20
1154.54965564539
 30
0.0
 10
529.2635250120735
 20
1154.348389626778
 30
0.0
 10
528.1845818244353
 20
1154.105303250921
 30
0.0
 10
527.2541965611081
 20
1153.848004702782
 30
0.0
 10
526.3700093065067
 20
1153.555687922908
 30
0.0
 10
525.8473643399793
 20
1153.327129043171
 30
0.0
 10
525.5781204166328
 20
1153.20938546304
 30
0.0
 11
534.0790094865893
 21
1154.966787900552
 31
0.0
 11
532.6597720403216
 21
1154.845697534995
 31
0.0
 11
531.5096512504339
 21
1154.711937986267
 31
0.0
 11
530.4086278214887
 21
1154.550043906661
 31
0.0
 11
529.1782308527231
 21
1154.32318169609
 31
0.0
 11
528.2173704694083
 21
1154.104950008309
 31
0.0
 11
527.1762540791868
 21
1153.815981096703
 31
0.0
 11
526.3909565119279
 21
1153.549503183397
 31
0.0
 11
525.5781204166328
 21
1153.20938546304
 31
0.0
  0
SPLINE
  5
107
330
49
100
AcDbEntity
  8
0
  6
Continuous
 62
     3
100
AcDbSpline
210
0.0
220
0.0
230
1.0
 70
     8
 71
     3
 72
    15
 73
    11
 74
     9
 42
0.0000000001
 43
0.0000000001
 44
0.00000001
 40
0.0
 40
0.0
 40
0.0
 40
0.0
 40
1.526039485950931
 40
2.766679759773058
 40
3.958960940192215
 40
5.299374793327768
 40
6.354941734789538
 40
7.512352142000521
 40
8.40053317328463
 40
9.344177889684628
 40
9.344177889684628
 40
9.344177889684628
 40
9.344177889684628
 10
533.8247074156027
 20
1156.178203506858
 30
0.0
 10
533.3175259219453
 20
1156.13859463388
 30
0.0
 10
532.3980157874099
 20
1156.066784521374
 30
0.0
 10
531.087051893578
 20
1155.913193209562
 30
0.0
 10
529.842239314643
 20
1155.731954531597
 30
0.0
 10
528.6652979172906
 20
1155.516844387373
 30
0.0
 10
527.5092920661439
 20
1155.257109191823
 30
0.0
 10
526.5124744095831
 20
1154.982255089065
 30
0.0
 10
525.5651580644351
 20
1154.670052782162
 30
0.0
 10
525.0051130254974
 20
1154.425954916013
 30
0.0
 10
524.7166120353745
 20
1154.300210607655
 30
0.0
 11
533.8247074156027
 21
1156.178203506858
 31
0.0
 11
532.3041840474325
 21
1156.04856863682
 31
0.0
 11
531.0718236009259
 21
1155.905474196273
 31
0.0
 11
529.8921740182246
 21
1155.732380940441
 31
0.0
 11
528.5738732071552
 21
1155.489909768523
 31
0.0
 11
527.5443832076244
 21
1155.256731920576
 31
0.0
 11
526.4288981051438
 21
1154.948038161546
 31
0.0
 11
525.5875490374228
 21
1154.66343793214
 31
0.0
 11
524.7166120353745
 21
1154.300210607655
 31
0.0
  0
SPLINE
  5
108
330
49
100
AcDbEntity
  8
0
  6
Continuous
 62
     7
100
AcDbSpline
210
0.0
220
0.0
230
1.0
 70
     8
 71
     3
 72
    17
 73
    13
 74
    11
 42
0.0000000001
 43
0.0000000001
 44
0.00000001
 40
0.0
 40
0.0
 40
0.0
 40
0.0
 40
0.7829622049021944
 40
1.813961268571543
 40
2.350758378975239
 40
2.870258286785351
 40
3.44986451663248
 40
3.976636953078956
 40
5.152427864323432
 40
6.397669290563996
 40
7.671405390483922
 40
9.018910446135491
 40
9.018910446135491
 40
9.018910446135491
 40
9.018910446135491
 10
525.1919348435104
 20
1156.229088804585
 30
0.0
 10
525.4344527322584
 20
1156.325741509391
 30
0.0
 10
525.9963164523336
 20
1156.549665808577
 30
0.0
 10
526.7470072857955
 20
1156.777607210309
 30
0.0
 10
527.4191104083721
 20
1156.957349837075
 30
0.0
 10
527.9492724584466
 20
1157.085239396123
 30
0.0
 10
528.4787391025113
 20
1157.201101310862
 30
0.0
 10
529.2249296125926
 20
1157.34926136149
 30
0.0
 10
530.1937083900926
 20
1157.514816210101
 30
0.0
 10
531.4139305810718
 20
1157.682863159488
 30
0.0
 10
532.695216332445
 20
1157.824234250445
 30
0.0
 10
533.5664605511481
 20
1157.890989653076
 30
0.0
 10
534.0143422681411
 20
1157.925306694966
 30
0.0
 11
525.1919348435104
 21
1156.229088804585
 31
0.0
 11
525.9227314177131
 21
1156.510098024076
 31
0.0
 11
526.9066272142602
 21
1156.818169656694
 31
0.0
 11
527.4252480333942
 21
1156.956674471407
 31
0.0
 11
527.9301788751842
 21
1157.078842385459
 31
0.0
 11
528.4963439513481
 21
1157.202941088957
 31
0.0
 11
529.0129966268925
 21
1157.305699118583
 31
0.0
 11
530.1718047288093
 21
1157.504817299312
 31
0.0
 11
531.4052131867431
 21
1157.67607670934
 31
0.0
 11
532.6713868693442
 21
1157.814669125177
 31
0.0
 11
534.0143422681411
 21
1157.925306694966
 31
0.0
  0
SPLINE
  5
109
330
49
100
AcDbEntity
  8
0
  6
Continuous
 62
     3
100
AcDbSpline
210
0.0
220
0.0
230
1.0
 70
     8
 71
     3
 72
    17
 73
    13
 74
    11
 42
0.0000000001
 43
0.0000000001
 44
0.00000001
 40
0.0
 40
0.0
 40
0.0
 40
0.0
 40
1.287567757287343
 40
2.765731523080622
 40
4.174413068964038
 40
5.2940718745108
 40
6.345834965506262
 40
7.496650862856809
 40
7.967999808042908
 40
8.455290917038862
 40
8.913183001014925
 40
9.308584565164825
 40
9.308584565164825
 40
9.308584565164825
 40
9.308584565164825
 10
533.8247074156027
 20
1157.177702791817
 30
0.0
 10
533.3967355432035
 20
1157.145140504872
 30
0.0
 10
532.4774400018332
 20
1157.075195802576
 30
0.0
 10
531.0939129697962
 20
1156.924024248841
 30
0.0
 10
529.7710074310411
 20
1156.739455581518
 30
0.0
 10
528.5949807087081
 20
1156.535509951056
 30
0.0
 10
527.5105398047209
 20
1156.310163569298
 30
0.0
 10
526.6456830129714
 20
1156.092882409423
 30
0.0
 10
525.9711048744194
 20
1155.894191348804
 30
0.0
 10
525.5221472208098
 20
1155.747783759642
 30
0.0
 10
525.1014500390936
 20
1155.596678463861
 30
0.0
 10
524.8384716750361
 20
1155.488233085755
 30
0.0
 10
524.7166120353746
 20
1155.437981367344
 30
0.0
 11
533.8247074156027
 21
1157.177702791817
 31
0.0
 11
532.5413657606663
 21
1157.073467834576
 31
0.0
 11
531.0718236009259
 21
1156.914050272025
 31
0.0
 11
529.6769093331228
 21
1156.71758683219
 31
0.0
 11
528.5738732071553
 21
1156.525370429016
 31
0.0
 11
527.5443682675229
 21
1156.310137581028
 31
0.0
 11
526.4288981051438
 21
1156.027111881777
 31
0.0
 11
525.9768626397336
 21
1155.893568757134
 31
0.0
 11
525.5136145797699
 21
1155.742393825858
 31
0.0
 11
525.0832214096798
 21
1155.586102816175
 31
0.0
 11
524.7166120353746
 21
1155.437981367344
 31
0.0
  0
SPLINE
  5
10A
330
49
100
AcDbEntity
  8
0
  6
Continuous
 62
     3
100
AcDbSpline
210
0.0
220
0.0
230
1.0
 70
     8
 71
     3
 72
    39
 73
    35
 74
    33
 42
0.0000000001
 43
0.0000000001
 44
0.00000001
 40
0.0
 40
0.0
 40
0.0
 40
0.0
 40
0.0296599983450452
 40
0.0595574717411078
 40
0.0896747084292555
 40
0.1199931828544933
 40
0.150493886902445
 40
0.1811572051761768
 40
0.2119632567145
 40
0.2428918029658535
 40
0.2739225900361715
 40
0.3050352888890872
 40
0.3362098259302133
 40
0.3674263522307044
 40
0.3986655482149339
 40
0.4299086161820988
 40
0.4611375442597687
 40
0.4923351140217595
 40
0.5234851094036754
 40
0.5545723301990023
 40
0.5855827335912448
 40
0.6165034445805719
 40
0.6473228215976274
 40
0.6780304569397342
 40
0.7086171628129774
 40
0.7390749586959278
 40
0.7693969802325676
 40
0.7995774549896615
 40
0.8296115428482038
 40
0.8594953064070224
 40
0.8892254969787666
 40
0.9187995297512255
 40
0.9482152329134782
 40
0.9774708399458282
 40
0.9774708399458282
 40
0.9774708399458282
 40
0.9774708399458282
 10
524.7166120353746
 20
1155.437981367344
 30
0.0
 10
524.7167533094571
 20
1155.44786765004
 30
0.0
 10
524.7170369887438
 20
1155.467719370713
 30
0.0
 10
524.7185153019773
 20
1155.497580287972
 30
0.0
 10
524.7207995396149
 20
1155.527607848973
 30
0.0
 10
524.723990560669
 20
1155.557756261742
 30
0.0
 10
524.7280934160761
 20
1155.587977627185
 30
0.0
 10
524.7331351648318
 20
1155.618221769664
 30
0.0
 10
524.7391354584868
 20
1155.648436006112
 30
0.0
 10
524.7461111422795
 20
1155.678566058497
 30
0.0
 10
524.75407801562
 20
1155.708555323934
 30
0.0
 10
524.7630465216008
 20
1155.738346317276
 30
0.0
 10
524.7730264397168
 20
1155.767879513102
 30
0.0
 10
524.7840213517026
 20
1155.797095368406
 30
0.0
 10
524.7960341643283
 20
1155.825932640592
 30
0.0
 10
524.8090609928704
 20
1155.854331074841
 30
0.0
 10
524.8230972882499
 20
1155.882229095385
 30
0.0
 10
524.8381312983084
 20
1155.909567226757
 30
0.0
 10
524.8541506737688
 20
1155.936285069915
 30
0.0
 10
524.8711356627183
 20
1155.962325498882
 30
0.0
 10
524.8890660430437
 20
1155.987630859466
 30
0.0
 10
524.9079142289609
 20
1156.012147946106
 30
0.0
 10
524.9276523478121
 20
1156.035823398076
 30
0.0
 10
524.9482454533489
 20
1156.058609416975
 30
0.0
 10
524.9696585437321
 20
1156.080458384424
 30
0.0
 10
524.991850084147
 20
1156.101329220234
 30
0.0
 10
525.0147787360452
 20
1156.12118134702
 30
0.0
 10
525.0383974588694
 20
1156.139981353873
 30
0.0
 10
525.0626594331732
 20
1156.157697186904
 30
0.0
 10
525.0875140891156
 20
1156.17430213741
 30
0.0
 10
525.1129076357789
 20
1156.189779836504
 30
0.0
 10
525.1387974966742
 20
1156.204086806904
 30
0.0
 10
525.1650867200128
 20
1156.217311237827
 30
0.0
 10
525.1829989234344
 20
1156.225168894605
 30
0.0
 10
525.1919305866722
 20
1156.229087002419
 30
0.0
 11
524.7166120353746
 21
1155.437981367344
 31
0.0
 11
524.7172090042058
 21
1155.467635357464
 31
0.0
 11
524.7186427689142
 21
1155.497498432226
 31
0.0
 11
524.7209415922472
 21
1155.527527807128
 31
0.0
 11
524.7241316443759
 21
1155.557677988867
 31
0.0
 11
524.7282377788289
 21
1155.587901036484
 31
0.0
 11
524.7332821403458
 21
1155.61814658995
 31
0.0
 11
524.7392851844148
 21
1155.648362087187
 31
0.0
 11
524.7462640472207
 21
1155.678492975776
 31
0.0
 11
524.754233823297
 21
1155.708482847658
 31
0.0
 11
524.763205714577
 21
1155.738273873098
 31
0.0
 11
524.7731885711695
 21
1155.767806809525
 31
0.0
 11
524.7841868490199
 21
1155.797021692694
 31
0.0
 11
524.7962024066277
 21
1155.825857672669
 31
0.0
 11
524.8092323134035
 21
1155.854253989779
 31
0.0
 11
524.8232708810406
 21
1155.882149591002
 31
0.0
 11
524.8383073760488
 21
1155.909484407206
 31
0.0
 11
524.8543282492674
 21
1155.936198707377
 31
0.0
 11
524.8713148152916
 21
1155.96223468002
 31
0.0
 11
524.8892456286409
 21
1155.987535491295
 31
0.0
 11
524.9080941984962
 21
1156.012047157548
 31
0.0
 11
524.9278314470832
 21
1156.035717286782
 31
0.0
 11
524.9484235294217
 21
1156.058497212446
 31
0.0
 11
524.9698342999543
 21
1156.080340414624
 31
0.0
 11
524.9920233033456
 21
1156.101204869051
 31
0.0
 11
525.0149481711408
 21
1156.121051164087
 31
0.0
 11
525.038562840627
 21
1156.13984500461
 31
0.0
 11
525.062819805194
 21
1156.157555061174
 31
0.0
 11
525.087668604664
 21
1156.174155557833
 31
0.0
 11
525.1130578613437
 21
1156.18962390864
 31
0.0
 11
525.1389340681548
 21
1156.2039433128
 31
0.0
 11
525.1652433559648
 21
1156.217100248897
 31
0.0
 11
525.1919305866722
 21
1156.229087002419
 31
0.0
  0
SPLINE
  5
10B
330
49
100
AcDbEntity
  8
0
  6
Continuous
 62
     3
100
AcDbSpline
210
0.0
220
0.0
230
1.0
 70
     8
 71
     3
 72
    43
 73
    39
 74
    37
 42
0.0000000001
 43
0.0000000001
 44
0.00000001
 40
0.0
 40
0.0
 40
0.0
 40
0.0
 40
0.042805131528614
 40
0.0866069789083881
 40
0.1313725261981825
 40
0.1770601451085773
 40
0.2236206246690152
 40
0.2709959347106689
 40
0.3191205267298475
 40
0.3679204747970548
 40
0.4173150293180766
 40
0.4672162353015054
 40
0.5175306740998761
 40
0.5681596120331935
 40
0.6190008160900887
 40
0.6699492233158533
 40
0.6954319594347383
 40
0.7209016598793875
 40
0.7463450749988967
 40
0.7717490480963074
 40
0.7971005569631455
 40
0.8223867627488054
 40
0.8475950393948292
 40
0.8727130303281229
 40
0.9226270586069397
 40
0.9720397692904503
 40
1.020865088761598
 40
1.069024585927883
 40
1.116447383230719
 40
1.163071564066877
 40
1.20884348961971
 40
1.253718965823253
 40
1.297662046950404
 40
1.340645930777577
 40
1.382651380534428
 40
1.423667367613891
 40
1.463689268541685
 40
1.502719310090727
 40
1.502719310090727
 40
1.502719310090727
 40
1.502719310090727
 10
524.7166120353745
 20
1154.300210607655
 30
0.0
 10
524.7168683553609
 20
1154.285942685859
 30
0.0
 10
524.7173869637352
 20
1154.257074614255
 30
0.0
 10
524.7203766593585
 20
1154.213368296656
 30
0.0
 10
524.7250824006214
 20
1154.168855478749
 30
0.0
 10
524.7317361711123
 20
1154.123658028131
 30
0.0
 10
524.7403598559987
 20
1154.077910298951
 30
0.0
 10
524.751013635386
 20
1154.031757341343
 30
0.0
 10
524.7637387363684
 20
1153.985357315715
 30
0.0
 10
524.7785569887197
 20
1153.938875369322
 30
0.0
 10
524.7954851620358
 20
1153.892488368399
 30
0.0
 10
524.8145129389451
 20
1153.846375393799
 30
0.0
 10
524.8356257507667
 20
1153.80072498684
 30
0.0
 10
524.858779461127
 20
1153.75572190972
 30
0.0
 10
524.8839256826702
 20
1153.711557973442
 30
0.0
 10
524.9064755703305
 20
1153.67560646712
 30
0.0
 10
524.9254451820096
 20
1153.647427493531
 30
0.0
 10
524.9401196184122
 20
1153.626612894728
 30
0.0
 10
524.955226451644
 20
1153.606142710962
 30
0.0
 10
524.9707510154515
 20
1153.586037193666
 30
0.0
 10
524.9866786226114
 20
1153.566316736721
 30
0.0
 10
525.0029929018272
 20
1153.547000282555
 30
0.0
 10
525.0196777677143
 20
1153.528106543785
 30
0.0
 10
525.0423452087441
 20
1153.503554694367
 30
0.0
 10
525.0714941981296
 20
1153.474019948309
 30
0.0
 10
525.1077330509298
 20
1153.440447081687
 30
0.0
 10
525.145008103766
 20
1153.408926042447
 30
0.0
 10
525.1831524780681
 20
1153.379537539991
 30
0.0
 10
525.2220069244459
 20
1153.352354992333
 30
0.0
 10
525.2614028049206
 20
1153.327421606228
 30
0.0
 10
525.3011810127119
 20
1153.304773356813
 30
0.0
 10
525.341179131005
 20
1153.284417448614
 30
0.0
 10
525.3812458053723
 20
1153.266353008882
 30
0.0
 10
525.42123227735
 20
1153.25055780366
 30
0.0
 10
525.4609992844792
 20
1153.236986314956
 30
0.0
 10
525.5004237326646
 20
1153.225634078601
 30
0.0
 10
525.5393581512178
 20
1153.216265023896
 30
0.0
 10
525.5653081926331
 20
1153.21165938779
 30
0.0
 10
525.5781204166328
 20
1153.20938546304
 30
0.0
 11
524.7166120353745
 21
1154.300210607655
 31
0.0
 11
524.7177357713725
 21
1154.257420229033
 31
0.0
 11
524.720621034864
 21
1154.21371351229
 31
0.0
 11
524.7253494357368
 21
1154.169198386217
 31
0.0
 11
524.7319924916028
 21
1154.123996302963
 31
0.0
 11
524.7406148740818
 21
1154.078241163609
 31
0.0
 11
524.7512674414734
 21
1154.032079027507
 31
0.0
 11
524.7639919227233
 21
1153.985667133192
 31
0.0
 11
524.77881282803
 21
1153.939172233501
 31
0.0
 11
524.7957436461863
 21
1153.892769976952
 31
0.0
 11
524.8147779779713
 21
1153.846641628053
 31
0.0
 11
524.8358972046158
 21
1153.800974123003
 31
0.0
 11
524.8590612876634
 21
1153.75595507578
 31
0.0
 11
524.8842177207318
 21
1153.71177383649
 31
0.0
 11
524.9112924870408
 21
1153.668614860272
 31
0.0
 11
524.9255231416735
 21
1153.647475836907
 31
0.0
 11
524.9401993835503
 21
1153.626659651735
 31
0.0
 11
524.9553079640483
 21
1153.606187764468
 31
0.0
 11
524.9708344539561
 21
1153.586080801488
 31
0.0
 11
524.9867638661372
 21
1153.566358914423
 31
0.0
 11
525.0030801370608
 21
1153.547041266891
 31
0.0
 11
525.019766735385
 21
1153.528146435645
 31
0.0
 11
525.0368061765926
 21
1153.509691872202
 31
0.0
 11
525.0718718183788
 21
1153.4741698933
 31
0.0
 11
525.1081255075728
 21
1153.440594813301
 31
0.0
 11
525.1454118446218
 21
1153.409072743399
 31
0.0
 11
525.1835674454824
 21
1153.379687589149
 31
0.0
 11
525.2224292949495
 21
1153.352508951214
 31
0.0
 11
525.2618314815517
 21
1153.327583423544
 31
0.0
 11
525.301611962687
 21
1153.304943138885
 31
0.0
 11
525.3416105501167
 21
1153.2845980813
 31
0.0
 11
525.3816738916172
 21
1153.266544742363
 31
0.0
 11
525.4216544798737
 21
1153.250759723151
 31
0.0
 11
525.4614138526272
 21
1153.237207967268
 31
0.0
 11
525.5008223569167
 21
1153.225837787596
 31
0.0
 11
525.5397607439231
 21
1153.216588216189
 31
0.0
 11
525.5781204166328
 21
1153.20938546304
 31
0.0
  0
SPLINE
  5
10C
330
49
100
AcDbEntity
  8
0
  6
Continuous
 62
     3
100
AcDbSpline
210
0.0
220
0.0
230
1.0
 70
     8
 71
     3
 72
    15
 73
    11
 74
     9
 42
0.0000000001
 43
0.0000000001
 44
0.00000001
 40
0.0
 40
0.0
 40
0.0
 40
0.0
 40
0.1610342590517848
 40
0.3247674023305186
 40
0.8920654490900384
 40
1.488906354051513
 40
2.091786234568037
 40
2.709849982088362
 40
3.37853487350266
 40
3.969665761300172
 40
3.969665761300172
 40
3.969665761300172
 40
3.969665761300172
 10
562.8777027621824
 20
1147.826374376325
 30
0.0
 10
562.8364025710082
 20
1147.860662012228
 30
0.0
 10
562.7531100102677
 20
1147.929811934176
 30
0.0
 10
562.5253973107542
 20
1148.121038712981
 30
0.0
 10
562.1890582453412
 20
1148.408798588177
 30
0.0
 10
561.7466576184447
 20
1148.797679460282
 30
0.0
 10
561.2964216046009
 20
1149.203209005809
 30
0.0
 10
560.8332884343204
 20
1149.630133545185
 30
0.0
 10
560.3774724938194
 20
1150.059180717119
 30
0.0
 10
560.0754164207756
 20
1150.350922256747
 30
0.0
 10
559.9336856395221
 20
1150.487813251584
 30
0.0
 11
562.8777027621824
 21
1147.826374376325
 31
0.0
 11
562.7538983086697
 21
1147.929352480205
 31
0.0
 11
562.6284854776403
 21
1148.03461483825
 31
0.0
 11
562.1973501643872
 21
1148.403328026953
 31
0.0
 11
561.7489657899201
 21
1148.797244919925
 31
0.0
 11
561.3009539454866
 21
1149.200667201882
 31
0.0
 11
560.8463968289497
 21
1149.619451900509
 31
0.0
 11
560.3597009324906
 21
1150.078000249514
 31
0.0
 11
559.9336856395221
 21
1150.487813251584
 31
0.0
  0
SPLINE
  5
10D
330
49
100
AcDbEntity
  8
0
  6
Continuous
 62
     3
100
AcDbSpline
210
0.0
220
0.0
230
1.0
 70
     8
 71
     3
 72
     9
 73
     5
 74
     3
 42
0.0000000001
 43
0.0000000001
 44
0.00000001
 40
0.0
 40
0.0
 40
0.0
 40
0.0
 40
0.7680739685184903
 40
1.530004029670541
 40
1.530004029670541
 40
1.530004029670541
 40
1.530004029670541
 10
559.9336856395221
 20
1150.487813251584
 30
0.0
 10
559.765737002283
 20
1150.689231322413
 30
0.0
 10
559.4311831672546
 20
1151.090456298976
 30
0.0
 10
559.3755861048796
 20
1151.609776901393
 30
0.0
 10
559.3478992018952
 20
1151.868394506761
 30
0.0
 11
559.9336856395221
 21
1150.487813251584
 31
0.0
 11
559.5001401370461
 21
1151.121828959906
 31
0.0
 11
559.3478992018952
 21
1151.868394506761
 31
0.0
  0
SPLINE
  5
10E
330
49
100
AcDbEntity
  8
0
  6
Continuous
 62
     3
100
AcDbSpline
210
0.0
220
0.0
230
1.0
 70
     8
 71
     3
 72
    11
 73
     7
 74
     5
 42
0.0000000001
 43
0.0000000001
 44
0.00000001
 40
0.0
 40
0.0
 40
0.0
 40
0.0
 40
0.3838315140418081
 40
0.7190731653703153
 40
0.9700212798567105
 40
1.137458936317325
 40
1.137458936317325
 40
1.137458936317325
 40
1.137458936317325
 10
560.3478992018952
 20
1155.334183058973
 30
0.0
 10
560.2190503109787
 20
1155.329192507047
 30
0.0
 10
559.9776637221859
 20
1155.319843165374
 30
0.0
 10
559.6703263247528
 20
1155.237667149553
 30
0.0
 10
559.4204391936908
 20
1155.132606632098
 30
0.0
 10
559.3686322857179
 20
1154.998246997396
 30
0.0
 10
559.3478992018951
 20
1154.944476377266
 30
0.0
 11
560.3478992018952
 21
1155.334183058973
 31
0.0
 11
559.9652157307218
 21
1155.304518398815
 31
0.0
 11
559.6407924469942
 21
1155.220040604331
 31
0.0
 11
559.4240196831452
 21
1155.093610682962
 31
0.0
 11
559.3478992018951
 21
1154.944476377266
 31
0.0
  0
SPLINE
  5
10F
330
49
100
AcDbEntity
  8
0
  6
Continuous
 62
     3
100
AcDbSpline
210
0.0
220
0.0
230
1.0
 70
     8
 71
     3
 72
     9
 73
     5
 74
     3
 42
0.0000000001
 43
0.0000000001
 44
0.00000001
 40
0.0
 40
0.0
 40
0.0
 40
0.0
 40
0.7476733889787917
 40
1.50377670008314
 40
1.50377670008314
 40
1.50377670008314
 40
1.50377670008314
 10
559.3478992018951
 20
1154.944476377266
 30
0.0
 10
559.3757360930937
 20
1154.690574258128
 30
0.0
 10
559.4317237328894
 20
1154.179907305833
 30
0.0
 10
559.7657408558282
 20
1153.789370080775
 30
0.0
 10
559.9336856395221
 20
1153.593006824875
 30
0.0
 11
559.3478992018951
 21
1154.944476377266
 31
0.0
 11
559.5001401370461
 21
1154.212466681803
 31
0.0
 11
559.9336856395221
 21
1153.593006824875
 31
0.0
  0
SPLINE
  5
110
330
49
100
AcDbEntity
  8
0
  6
Continuous
 62
     3
100
AcDbSpline
210
0.0
220
0.0
230
1.0
 70
     8
 71
     3
 72
    19
 73
    15
 74
    13
 42
0.0000000001
 43
0.0000000001
 44
0.00000001
 40
0.0
 40
0.0
 40
0.0
 40
0.0
 40
0.0377779765376171
 40
0.0894732393088809
 40
0.1566779238985881
 40
0.2397307931500927
 40
0.337803185911931
 40
0.448979840202138
 40
0.5704279591970585
 40
0.6986798443270399
 40
0.8299874272794201
 40
0.9606888542561232
 40
1.087524606369668
 40
1.207850478909188
 40
1.207850478909188
 40
1.207850478909188
 40
1.207850478909188
 10
559.9336856395221
 20
1153.593006824875
 30
0.0
 10
559.9345591961686
 20
1153.605614784166
 30
0.0
 10
559.9366281249479
 20
1153.635475434796
 30
0.0
 10
559.9541743788063
 20
1153.68518797817
 30
0.0
 10
559.9819027716139
 20
1153.746444658944
 30
0.0
 10
560.0225565682666
 20
1153.818709365369
 30
0.0
 10
560.0750639578133
 20
1153.900801484874
 30
0.0
 10
560.1387860998962
 20
1153.990801382009
 30
0.0
 10
560.2119948490771
 20
1154.086278736911
 30
0.0
 10
560.292562037555
 20
1154.184481782332
 30
0.0
 10
560.3779697365443
 20
1154.282628471755
 30
0.0
 10
560.4656982023669
 20
1154.378057607731
 30
0.0
 10
560.5531003964368
 20
1154.468778594086
 30
0.0
 10
560.6120791980087
 20
1154.526309506925
 30
0.0
 10
560.6407918906463
 20
1154.554317322843
 30
0.0
 11
559.9336856395221
 21
1153.593006824875
 31
0.0
 11
559.9377237970903
 21
1153.63056835832
 31
0.0
 11
559.9530064033487
 21
1153.679952992964
 31
0.0
 11
559.9805205547735
 21
1153.741267274352
 31
0.0
 11
560.0207042219608
 21
1153.813951880579
 31
0.0
 11
560.0733101189295
 21
1153.896721523723
 31
0.0
 11
560.1373474353115
 21
1153.987603153163
 31
0.0
 11
560.211122290521
 21
1154.084075513693
 31
0.0
 11
560.2923841635045
 21
1154.183297759377
 31
0.0
 11
560.3785475931128
 21
1154.282381283431
 31
0.0
 11
560.466948005306
 21
1154.378652931063
 31
0.0
 11
560.5550824826205
 21
1154.469864892574
 31
0.0
 11
560.6407918906463
 21
1154.554317322843
 31
0.0
  0
SPLINE
  5
111
330
49
100
AcDbEntity
  8
0
  6
Continuous
 62
     3
100
AcDbSpline
210
0.0
220
0.0
230
1.0
 70
     8
 71
     3
 72
     9
 73
     5
 74
     3
 42
0.0000000001
 43
0.0000000001
 44
0.00000001
 40
0.0
 40
0.0
 40
0.0
 40
0.0
 40
0.4289408579269474
 40
0.8467386220698904
 40
0.8467386220698904
 40
0.8467386220698904
 40
0.8467386220698904
 10
560.6407918906463
 20
1154.554317322843
 30
0.0
 10
560.5555038687953
 20
1154.672646635577
 30
0.0
 10
560.387143450881
 20
1154.906231283353
 30
0.0
 10
560.3608653447918
 20
1155.192789504019
 30
0.0
 10
560.3478992018952
 20
1155.334183058973
 30
0.0
 11
560.6407918906463
 21
1154.554317322843
 31
0.0
 11
560.4213894574632
 21
1154.922899514372
 31
0.0
 11
560.3478992018952
 21
1155.334183058973
 31
0.0
  0
SPLINE
  5
112
330
49
100
AcDbEntity
  8
0
  6
Continuous
 62
     7
100
AcDbSpline
210
0.0
220
0.0
230
1.0
 70
     8
 71
     3
 72
    11
 73
     7
 74
     5
 42
0.0000000001
 43
0.0000000001
 44
0.00000001
 40
0.0
 40
0.0
 40
0.0
 40
0.0
 40
12.97942715104849
 40
26.47846389561687
 40
38.01954034654294
 40
49.93909689305692
 40
49.93909689305692
 40
49.93909689305692
 40
49.93909689305692
 10
514.5322917200684
 20
1208.848336412352
 30
0.0
 10
518.7206912662359
 20
1209.932634052144
 30
0.0
 10
527.2651659085283
 20
1212.144637368871
 30
0.0
 10
539.5339091012318
 20
1215.320709583604
 30
0.0
 10
551.4606460926277
 20
1218.408205694001
 30
0.0
 10
559.0313058287106
 20
1220.36800446728
 30
0.0
 10
562.8777027621824
 20
1221.363712140659
 30
0.0
 11
514.5322917200684
 21
1208.848336412352
 31
0.0
 11
527.0974933622878
 21
1212.10121772893
 31
0.0
 11
540.1657363937841
 21
1215.484266221186
 31
0.0
 11
551.3385139463976
 21
1218.376581453995
 31
0.0
 11
562.8777027621824
 21
1221.363712140659
 31
0.0
  0
SPLINE
  5
113
330
49
100
AcDbEntity
  8
0
  6
Continuous
 62
     7
100
AcDbSpline
210
0.0
220
0.0
230
1.0
 70
     8
 71
     3
 72
    11
 73
     7
 74
     5
 42
0.0000000001
 43
0.0000000001
 44
0.00000001
 40
0.0
 40
0.0
 40
0.0
 40
0.0
 40
12.7888542745219
 40
26.08969538567698
 40
37.46051937918208
 40
49.2058883948756
 40
49.2058883948756
 40
49.2058883948756
 40
49.2058883948756
 10
514.5322917200685
 20
1069.778477583394
 30
0.0
 10
518.7206917171028
 20
1068.984714195834
 30
0.0
 10
527.2651694107531
 20
1067.365410031035
 30
0.0
 10
539.5336466451367
 20
1065.040408016459
 30
0.0
 10
551.4603833957073
 20
1062.780198378471
 30
0.0
 10
559.0310412433004
 20
1061.34552315269
 30
0.0
 10
562.8777027621824
 20
1060.616562724917
 30
0.0
 11
514.5322917200685
 21
1069.778477583394
 31
0.0
 11
527.0974933895664
 21
1067.397196277079
 31
0.0
 11
540.1657363937841
 21
1064.920626260522
 31
0.0
 11
551.3377193146614
 21
1062.803449860952
 31
0.0
 11
562.8777027621824
 21
1060.616562724917
 31
0.0
  0
SPLINE
  5
114
330
49
100
AcDbEntity
  8
0
  6
Continuous
 62
     3
100
AcDbSpline
210
0.0
220
0.0
230
1.0
 70
     8
 71
     3
 72
    21
 73
    17
 74
    15
 42
0.0000000001
 43
0.0000000001
 44
0.00000001
 40
0.0
 40
0.0
 40
0.0
 40
0.0
 40
0.0386980057107099
 40
0.0772101047460376
 40
0.0963967200157967
 40
0.1155363172069159
 40
0.1346323244704662
 40
0.1536900710205701
 40
0.1727169196550679
 40
0.1917222190173041
 40
0.2107173569443759
 40
0.2297156318637643
 40
0.248732210953368
 40
0.2677839058054026
 40
0.2868890311627427
 40
0.3060670841634308
 40
0.3060670841634308
 40
0.3060670841634308
 40
0.3060670841634308
 10
524.7166120353745
 20
1054.175811606608
 30
0.0
 10
524.7169680378538
 20
1054.162912349477
 30
0.0
 10
524.717678332563
 20
1054.13717580373
 30
0.0
 10
524.7214211258881
 20
1054.10521594474
 30
0.0
 10
524.7257356239642
 20
1054.079966384598
 30
0.0
 10
524.7297177689144
 20
1054.06123832384
 30
0.0
 10
524.7344455717522
 20
1054.042729631386
 30
0.0
 10
524.7399376439769
 20
1054.024471694974
 30
0.0
 10
524.7462053975191
 20
1054.006497072116
 30
0.0
 10
524.7532589264322
 20
1053.988838143261
 30
0.0
 10
524.7611070377042
 20
1053.971527742082
 30
0.0
 10
524.7697565842071
 20
1053.954599330278
 30
0.0
 10
524.7792079161059
 20
1053.938082103702
 30
0.0
 10
524.7894798463838
 20
1053.922022599658
 30
0.0
 10
524.8005064048575
 20
1053.906398224994
 30
0.0
 10
524.8085062323296
 20
1053.896452651586
 30
0.0
 10
524.8125137657119
 20
1053.891470391958
 30
0.0
 11
524.7166120353745
 21
1054.175811606608
 31
0.0
 11
524.7182546851822
 21
1054.137148480149
 31
0.0
 11
524.7226167842009
 21
1054.098884216609
 31
0.0
 11
524.7258650333124
 21
1054.079974560789
 31
0.0
 11
524.729846976649
 21
1054.061253761984
 31
0.0
 11
524.7345780296204
 21
1054.042753096288
 31
0.0
 11
524.7400716409959
 21
1054.024504317216
 31
0.0
 11
524.7463400698315
 21
1054.006539691729
 31
0.0
 11
524.7533932783821
 21
1053.988891642177
 31
0.0
 11
524.7612398509862
 21
1053.97159289762
 31
0.0
 11
524.7698857781348
 21
1053.954675971373
 31
0.0
 11
524.7793355046213
 21
1053.93817345794
 31
0.0
 11
524.7895906350949
 21
1053.922117325912
 31
0.0
 11
524.8006510888523
 21
1053.906539387101
 31
0.0
 11
524.8125137657119
 21
1053.891470391958
 31
0.0
  0
SPLINE
  5
115
330
49
100
AcDbEntity
  8
0
  6
Continuous
 62
     3
100
AcDbSpline
210
0.0
220
0.0
230
1.0
 70
     8
 71
     3
 72
    15
 73
    11
 74
     9
 42
0.0000000001
 43
0.0000000001
 44
0.00000001
 40
0.0
 40
0.0
 40
0.0
 40
0.0
 40
0.04453417631781
 40
0.0903853782515604
 40
0.1649107820235445
 40
0.2463914692473217
 40
0.3352272479248951
 40
0.4305410676544612
 40
0.5306362591887198
 40
0.633436524170903
 40
0.633436524170903
 40
0.633436524170903
 40
0.633436524170903
 10
560.055939134895
 20
1042.422590161737
 30
0.0
 10
560.0684698912528
 20
1042.414552044597
 30
0.0
 10
560.0939019806467
 20
1042.398238096117
 30
0.0
 10
560.1461451766093
 20
1042.379802222814
 30
0.0
 10
560.2134002692467
 20
1042.370691430199
 30
0.0
 10
560.2952479354689
 20
1042.377634407452
 30
0.0
 10
560.3812847335712
 20
1042.399908869894
 30
0.0
 10
560.4691129487821
 20
1042.436007918694
 30
0.0
 10
560.5568457759352
 20
1042.483195989101
 30
0.0
 10
560.6125622419152
 20
1042.521602857526
 30
0.0
 10
560.6407918906463
 20
1042.541062318664
 30
0.0
 11
560.055939134895
 21
1042.422590161737
 31
0.0
 11
560.0943086731996
 21
1042.399983273614
 31
0.0
 11
560.1373474353114
 21
1042.384171958847
 31
0.0
 11
560.211122290521
 21
1042.373621767087
 31
0.0
 11
560.2923841635044
 21
1042.379589211237
 31
0.0
 11
560.3785475931127
 21
1042.401214635427
 31
0.0
 11
560.4669480053059
 21
1042.436852976515
 31
0.0
 11
560.5550824826204
 21
1042.484301488365
 31
0.0
 11
560.6407918906463
 21
1042.541062318664
 31
0.0
  0
SPLINE
  5
116
330
49
100
AcDbEntity
  8
0
  6
Continuous
 62
     3
100
AcDbSpline
210
0.0
220
0.0
230
1.0
 70
     8
 71
     3
 72
     9
 73
     5
 74
     3
 42
0.0000000001
 43
0.0000000001
 44
0.00000001
 40
0.0
 40
0.0
 40
0.0
 40
0.0
 40
0.3607983261556052
 40
0.7118814480494937
 40
0.7118814480494937
 40
0.7118814480494937
 40
0.7118814480494937
 10
560.6407918906463
 20
1042.541062318664
 30
0.0
 10
560.5555042386641
 20
1042.630929204578
 30
0.0
 10
560.3872254724047
 20
1042.808243133823
 30
0.0
 10
560.3608881482942
 20
1043.051045844198
 30
0.0
 10
560.3478992018952
 20
1043.170790408122
 30
0.0
 11
560.6407918906463
 21
1042.541062318664
 31
0.0
 11
560.4213894574632
 21
1042.827485090926
 31
0.0
 11
560.3478992018952
 21
1043.170790408122
 31
0.0
  0
SPLINE
  5
117
330
49
100
AcDbEntity
  8
0
  6
Continuous
 62
     7
100
AcDbSpline
210
0.0
220
0.0
230
1.0
 70
     8
 71
     3
 72
    27
 73
    23
 74
    21
 42
0.0000000001
 43
0.0000000001
 44
0.00000001
 40
0.0
 40
0.0
 40
0.0
 40
0.0
 40
0.7582184119048794
 40
1.423554353443564
 40
2.149493886031521
 40
2.809213215096299
 40
3.497921625122149
 40
4.163311806002862
 40
4.80451148228353
 40
5.492159455403422
 40
6.11877830495311
 40
6.820599489590078
 40
7.501682861868839
 40
8.115770677229248
 40
8.439298914897346
 40
8.744086866065796
 40
9.051611156977502
 40
9.35658387720671
 40
9.655146207392788
 40
9.951345545048696
 40
10.25966080390653
 40
10.52713427269243
 40
10.52713427269243
 40
10.52713427269243
 40
10.52713427269243
 10
533.8973696325179
 20
1048.985025468144
 30
0.0
 10
533.6495381095315
 20
1049.034752354624
 30
0.0
 10
533.1842346587997
 20
1049.128114537104
 30
0.0
 10
532.4887794119951
 20
1049.301361987468
 30
0.0
 10
531.8311775085639
 20
1049.488833959969
 30
0.0
 10
531.1736766531122
 20
1049.70335058013
 30
0.0
 10
530.543459043811
 20
1049.934979933708
 30
0.0
 10
529.9283221116457
 20
1050.188325690525
 30
0.0
 10
529.3236856490836
 20
1050.464934204746
 30
0.0
 10
528.7422313897059
 20
1050.75998061521
 30
0.0
 10
528.1560142537876
 20
1051.08893402096
 30
0.0
 10
527.5866376778358
 20
1051.442270610997
 30
0.0
 10
527.0383643579885
 20
1051.820224998991
 30
0.0
 10
526.6089770666761
 20
1052.147303507121
 30
0.0
 10
526.2887507123183
 20
1052.409971350051
 30
0.0
 10
526.0525116685171
 20
1052.613739666539
 30
0.0
 10
525.8259608915483
 20
1052.819128908984
 30
0.0
 10
525.6061966861269
 20
1053.028768239222
 30
0.0
 10
525.394504615689
 20
1053.241265033269
 30
0.0
 10
525.1877308964114
 20
1053.46007213613
 30
0.0
 10
524.9934008153477
 20
1053.676297322255
 30
0.0
 10
524.8698904376158
 20
1053.823218305822
 30
0.0
 10
524.812515661805
 20
1053.891468105142
 30
0.0
 11
533.8973696325179
 21
1048.985025468144
 31
0.0
 11
533.1552144612217
 21
1049.140269990978
 31
0.0
 11
532.5093157298761
 21
1049.299915673504
 31
0.0
 11
531.8113380490703
 21
1049.499453544774
 31
0.0
 11
531.1841620027901
 21
1049.70409909228
 31
0.0
 11
530.5377917101905
 21
1049.94184836964
 31
0.0
 11
529.9225929999748
 21
1050.195372805861
 31
0.0
 11
529.3395763767743
 21
1050.462259751841
 31
0.0
 11
528.7264513685872
 21
1050.773607562611
 31
0.0
 11
528.1800770654999
 21
1051.080407666159
 31
0.0
 11
527.583892453715
 21
1051.450700636489
 31
0.0
 11
527.0232954174492
 21
1051.83748936813
 31
0.0
 11
526.534925537728
 21
1052.209777839017
 31
0.0
 11
526.2848054064613
 21
1052.414986124678
 31
0.0
 11
526.054030079207
 21
1052.614080181616
 31
0.0
 11
525.8262202797162
 21
1052.820656764889
 31
0.0
 11
525.6055650744095
 21
1053.031179068826
 31
0.0
 11
525.3948954091072
 21
1053.24273936077
 31
0.0
 11
525.1913913655028
 21
1053.457960530418
 31
0.0
 11
524.9856777581836
 21
1053.687612899464
 31
0.0
 11
524.812515661805
 21
1053.891468105142
 31
0.0
  0
SPLINE
  5
118
330
49
100
AcDbEntity
  8
0
  6
Continuous
 62
     3
100
AcDbSpline
210
0.0
220
0.0
230
1.0
 70
     8
 71
     3
 72
    22
 73
    18
 74
    16
 42
0.0000000001
 43
0.0000000001
 44
0.00000001
 40
0.0
 40
0.0
 40
0.0
 40
0.0
 40
0.0665166325488641
 40
0.1329917278415677
 40
0.4071414208796017
 40
0.68066401674517
 40
1.846326511208919
 40
2.993339750463165
 40
4.118523792944113
 40
5.219174585159568
 40
6.251450537711345
 40
7.256932705622472
 40
8.236623151541528
 40
9.019238778508978
 40
9.78361300913083
 40
9.837836995695648
 40
9.89197482635632
 40
9.89197482635632
 40
9.89197482635632
 40
9.89197482635632
 10
534.0790094865893
 20
1051.394308631845
 30
0.0
 10
534.0572291351282
 20
1051.398458893459
 30
0.0
 10
534.0136820332558
 20
1051.406756824998
 30
0.0
 10
533.8804831087472
 20
1051.432763115287
 30
0.0
 10
533.6799117913928
 20
1051.473797081122
 30
0.0
 10
533.1221734200307
 20
1051.596695690368
 30
0.0
 10
532.2876388411158
 20
1051.815602096083
 30
0.0
 10
531.2001899940403
 20
1052.179754488438
 30
0.0
 10
530.1603707741344
 20
1052.609739968063
 30
0.0
 10
529.1882811395047
 20
1053.096214904372
 30
0.0
 10
528.2890475095254
 20
1053.632670047435
 30
0.0
 10
527.4660540925657
 20
1054.21264445414
 30
0.0
 10
526.756020590165
 20
1054.803454315994
 30
0.0
 10
526.1515729542205
 20
1055.390895767812
 30
0.0
 10
525.796485760894
 20
1055.790152203615
 30
0.0
 10
525.612154615441
 20
1056.01521067253
 30
0.0
 10
525.5894591346898
 20
1056.043310940959
 30
0.0
 10
525.5781204166328
 20
1056.057349904245
 30
0.0
 11
534.0790094865893
 21
1051.394308631845
 31
0.0
 11
534.0136779396405
 21
1051.406808687002
 31
0.0
 11
533.9484325970457
 21
1051.419535963374
 31
0.0
 11
533.6798520494427
 21
1051.474513628313
 31
0.0
 11
533.4127375425628
 21
1051.533373212608
 31
0.0
 11
532.2853647756074
 21
1051.829683346297
 31
0.0
 11
531.1979313922828
 21
1052.194550456154
 31
0.0
 11
530.1584562118629
 21
1052.625282947087
 31
0.0
 11
529.1746024827893
 21
1053.118703666344
 31
0.0
 11
528.2885765832619
 21
1053.648375024436
 31
0.0
 11
527.4672749402578
 21
1054.228425023304
 31
0.0
 11
526.7148907550302
 21
1054.855889291326
 31
0.0
 11
526.1541238152079
 21
1055.401808386775
 31
0.0
 11
525.6465323639488
 21
1055.973314189936
 31
0.0
 11
525.6121844168284
 21
1056.015272016949
 31
0.0
 11
525.5781204166328
 21
1056.057349904245
 31
0.0
  0
SPLINE
  5
119
330
49
100
AcDbEntity
  8
0
  6
Continuous
 62
     3
100
AcDbSpline
210
0.0
220
0.0
230
1.0
 70
     8
 71
     3
 72
    39
 73
    35
 74
    33
 42
0.0000000001
 43
0.0000000001
 44
0.00000001
 40
0.0
 40
0.0
 40
0.0
 40
0.0
 40
0.0313538672863922
 40
0.0640076865593135
 40
0.0980026150196876
 40
0.133368827894785
 40
0.1701253610673317
 40
0.2082777533340416
 40
0.2478183673659051
 40
0.2887243843950663
 40
0.3309586736968774
 40
0.3744683205405254
 40
0.4191860567554105
 40
0.4650294761790535
 40
0.5119029668312718
 40
0.5596977096532616
 40
0.608293974366163
 40
0.6575619121486376
 40
0.707364007941575
 40
0.7575565815741452
 40
0.8079921469879394
 40
0.8585214505041442
 40
0.9089954854637168
 40
0.9592678405221429
 40
1.009196159688885
 40
1.058644558413236
 40
1.107484396398042
 40
1.155596544505381
 40
1.202871431455673
 40
1.249211000812064
 40
1.294528083658021
 40
1.338747954055159
 40
1.381807150394114
 40
1.423654605042836
 40
1.423654605042836
 40
1.423654605042836
 40
1.423654605042836
 10
524.7166120353746
 20
1055.008717610066
 30
0.0
 10
524.7168717029269
 20
1055.019168113977
 30
0.0
 10
524.7174018040192
 20
1055.040502406574
 30
0.0
 10
524.7204131278268
 20
1055.07305398449
 30
0.0
 10
524.7251362425712
 20
1055.106739936924
 30
0.0
 10
524.7318113781738
 20
1055.14149266842
 30
0.0
 10
524.7404557980781
 20
1055.177233501419
 30
0.0
 10
524.751131007681
 20
1055.213873157988
 30
0.0
 10
524.7638765882289
 20
1055.251308518772
 30
0.0
 10
524.7787147866206
 20
1055.289428335922
 30
0.0
 10
524.795660949186
 20
1055.328107406991
 30
0.0
 10
524.8147054145176
 20
1055.367215444624
 30
0.0
 10
524.8358320579712
 20
1055.406609201128
 30
0.0
 10
524.8589976765946
 20
1055.44614430145
 30
0.0
 10
524.8841525655464
 20
1055.485665385133
 30
0.0
 10
524.9112198247997
 20
1055.525020587363
 30
0.0
 10
524.9401168286558
 20
1055.564049853114
 30
0.0
 10
524.9707353752225
 20
1055.6026015017
 30
0.0
 10
525.0029632515377
 20
1055.640518985627
 30
0.0
 10
525.0366658788278
 20
1055.677658781716
 30
0.0
 10
525.0717071966549
 20
1055.713875970577
 30
0.0
 10
525.1079332516811
 20
1055.749042598162
 30
0.0
 10
525.1451916758404
 20
1055.783032535743
 30
0.0
 10
525.1833174621422
 20
1055.815739456593
 30
0.0
 10
525.2221504218155
 20
1055.847061499805
 30
0.0
 10
525.2615232157394
 20
1055.876918081446
 30
0.0
 10
525.3012763143158
 20
1055.905234976889
 30
0.0
 10
525.341248309777
 20
1055.931959105734
 30
0.0
 10
525.3812877422154
 20
1055.957045496482
 30
0.0
 10
525.4212469288585
 20
1055.980466249123
 30
0.0
 10
525.4609855034854
 20
1056.002212080464
 30
0.0
 10
525.5003859557039
 20
1056.022251209412
 30
0.0
 10
525.53928285108
 20
1056.040704002339
 30
0.0
 10
525.5652983210094
 20
1056.051854314011
 30
0.0
 10
525.5781204166328
 20
1056.057349904245
 30
0.0
 11
524.7166120353746
 21
1055.008717610066
 31
0.0
 11
524.717735762732
 21
1055.040051333602
 31
0.0
 11
524.720621034864
 21
1055.072577432628
 31
0.0
 11
524.7253494155613
 21
1055.106241918024
 31
0.0
 11
524.7319924916028
 21
1055.140978621291
 31
0.0
 11
524.7406148369054
 21
1055.176709530772
 31
0.0
 11
524.7512674414734
 21
1055.213344582998
 31
0.0
 11
524.7639918644466
 21
1055.250781853438
 31
0.0
 11
524.77881282803
 21
1055.288908501175
 31
0.0
 11
524.7957435653841
 21
1055.327600688054
 31
0.0
 11
524.8147779779713
 21
1055.366725878225
 31
0.0
 11
524.8358971033263
 21
1055.406142352908
 31
0.0
 11
524.8590612876634
 21
1055.445702935164
 31
0.0
 11
524.8842176045138
 21
1055.485253963576
 31
0.0
 11
524.9112924870408
 21
1055.52464035942
 31
0.0
 11
524.9401998293214
 21
1055.563703929486
 31
0.0
 11
524.9708344539561
 21
1055.60228954166
 31
0.0
 11
525.0030805385504
 21
1055.640242654493
 31
0.0
 11
525.0368061765926
 21
1055.677416244399
 31
0.0
 11
525.0718717117982
 21
1055.713667513333
 31
0.0
 11
525.1081255075728
 21
1055.748865138335
 31
0.0
 11
525.1454117587025
 21
1055.782885186568
 31
0.0
 11
525.1835674454824
 21
1055.815618247065
 31
0.0
 11
525.222429234361
 21
1055.846964673017
 31
0.0
 11
525.2618314815517
 21
1055.876841203149
 31
0.0
 11
525.3016119282555
 21
1055.905175737457
 31
0.0
 11
525.3416105501167
 21
1055.931913146544
 31
0.0
 11
525.381673880556
 21
1055.957009849321
 31
0.0
 11
525.4216544798737
 21
1055.980438621511
 31
0.0
 11
525.4614138592724
 21
1056.00218327022
 31
0.0
 11
525.5008223569167
 21
1056.022242364202
 31
0.0
 11
525.5397607610107
 21
1056.040624286734
 31
0.0
 11
525.5781204166328
 21
1056.057349904245
 31
0.0
  0
SPLINE
  5
11A
330
49
100
AcDbEntity
  8
0
  6
Continuous
 62
     3
100
AcDbSpline
210
0.0
220
0.0
230
1.0
 70
     8
 71
     3
 72
    22
 73
    18
 74
    16
 42
0.0000000001
 43
0.0000000001
 44
0.00000001
 40
0.0
 40
0.0
 40
0.0
 40
0.0
 40
0.0712678206723159
 40
0.1424910699558746
 40
0.4362218881453466
 40
0.7292796463552949
 40
1.97817881804238
 40
3.207061781182359
 40
4.412510227080533
 40
5.591615892705742
 40
6.69740582924122
 40
7.774418388728366
 40
8.823719053428725
 40
9.661872577564527
 40
10.48042413516992
 40
10.53848879968551
 40
10.59646086077893
 40
10.59646086077893
 40
10.59646086077893
 40
10.59646086077893
 10
533.8247074156027
 20
1050.01621706829
 30
0.0
 10
533.801371320095
 20
1050.020663752463
 30
0.0
 10
533.7547137236353
 20
1050.029554339821
 30
0.0
 10
533.6120007676587
 20
1050.057417280094
 30
0.0
 10
533.397103296627
 20
1050.101378561132
 30
0.0
 10
532.799531342588
 20
1050.233034155544
 30
0.0
 10
531.9053989104794
 20
1050.467500955371
 30
0.0
 10
530.7402803461717
 20
1050.857473705373
 30
0.0
 10
529.6261932889294
 20
1051.317892478195
 30
0.0
 10
528.5846718029239
 20
1051.838753319486
 30
0.0
 10
527.6212091652745
 20
1052.41308885804
 30
0.0
 10
526.7394326085378
 20
1053.033982414127
 30
0.0
 10
525.9786770688168
 20
1053.666452407301
 30
0.0
 10
525.3310487179333
 20
1054.295296017884
 30
0.0
 10
524.9505828126694
 20
1054.722692288356
 30
0.0
 10
524.7530773916482
 20
1054.963610538513
 30
0.0
 10
524.7287606854615
 20
1054.993689921192
 30
0.0
 10
524.7166120353746
 20
1055.008717610066
 30
0.0
 11
533.8247074156027
 21
1050.01621706829
 31
0.0
 11
533.7547093040229
 21
1050.02960985137
 31
0.0
 11
533.6848035648201
 21
1050.043245791566
 31
0.0
 11
533.3970387153163
 21
1050.102145578869
 31
0.0
 11
533.1108446624227
 21
1050.165199632944
 31
0.0
 11
531.9029453036039
 21
1050.4825768218
 31
0.0
 11
530.7378380728311
 21
1050.873317756304
 31
0.0
 11
529.6241145978157
 21
1051.334540020421
 31
0.0
 11
528.5699856698022
 21
1051.862841424768
 31
0.0
 11
527.620672394581
 21
1052.429917865146
 31
0.0
 11
526.7407062218673
 21
1053.050897404401
 31
0.0
 11
525.9345802472031
 21
1053.722606268353
 31
0.0
 11
525.3337585754269
 21
1054.306998815144
 31
0.0
 11
524.7899105938428
 21
1054.918763496525
 31
0.0
 11
524.7531092027571
 21
1054.963676332992
 31
0.0
 11
524.7166120353746
 21
1055.008717610066
 31
0.0
  0
SPLINE
  5
11B
330
49
100
AcDbEntity
  8
0
  6
Continuous
 62
     3
100
AcDbSpline
210
0.0
220
0.0
230
1.0
 70
     8
 71
     3
 72
    22
 73
    18
 74
    16
 42
0.0000000001
 43
0.0000000001
 44
0.00000001
 40
0.0
 40
0.0
 40
0.0
 40
0.0
 40
0.0712670619155274
 40
0.1424879927657635
 40
0.4361916436172699
 40
0.7291906617373823
 40
1.977395654448662
 40
3.204614021011176
 40
4.40711752512299
 40
5.581696856213842
 40
6.681382297389806
 40
7.750341393026312
 40
8.78942166439336
 40
9.617475314017113
 40
10.42431416291921
 40
10.48147438105856
 40
10.53853345017929
 40
10.53853345017929
 40
10.53853345017929
 40
10.53853345017929
 10
533.8247074156027
 20
1049.284532809571
 30
0.0
 10
533.8013714268262
 20
1049.288978691353
 30
0.0
 10
533.7547145546247
 20
1049.297867577105
 30
0.0
 10
533.612006707689
 20
1049.325704004973
 30
0.0
 10
533.3971189212957
 20
1049.369562583711
 30
0.0
 10
532.7996815789874
 20
1049.500617124837
 30
0.0
 10
531.9058750878862
 20
1049.73296393333
 30
0.0
 10
530.7409020382721
 20
1050.117605278489
 30
0.0
 10
529.6269536801035
 20
1050.570187308703
 30
0.0
 10
528.5855197556957
 20
1051.080908481972
 30
0.0
 10
527.6221130115059
 20
1051.642986869219
 30
0.0
 10
526.7403991448086
 20
1052.249670070765
 30
0.0
 10
525.9794982748439
 20
1052.867001611358
 30
0.0
 10
525.3317070556275
 20
1053.480220001791
 30
0.0
 10
524.9508055437245
 20
1053.897010966308
 30
0.0
 10
524.7530808617834
 20
1054.131883938658
 30
0.0
 10
524.728761131914
 20
1054.161177697836
 30
0.0
 10
524.7166120353745
 20
1054.175811606608
 30
0.0
 11
533.8247074156027
 21
1049.284532809571
 31
0.0
 11
533.7547093040229
 21
1049.297921554446
 31
0.0
 11
533.6848035648201
 21
1049.311545379815
 31
0.0
 11
533.3970387153163
 21
1049.370309534821
 31
0.0
 11
533.1108446624227
 21
1049.433090015129
 31
0.0
 11
531.9029453036039
 21
1049.747724474136
 31
0.0
 11
530.7378380728311
 21
1050.133198286514
 31
0.0
 11
529.6241145978157
 21
1050.586667909092
 31
0.0
 11
528.5699856698022
 21
1051.104788366274
 31
0.0
 11
527.620672394581
 21
1051.65986707693
 31
0.0
 11
526.7407062218673
 21
1052.266771585912
 31
0.0
 11
525.934580247203
 21
1052.922400080806
 31
0.0
 11
525.3337585754269
 21
1053.492212475704
 31
0.0
 11
524.7899105938428
 21
1054.08821440609
 31
0.0
 11
524.7531092027571
 21
1054.131951668829
 31
0.0
 11
524.7166120353745
 21
1054.175811606608
 31
0.0
  0
SPLINE
  5
11C
330
49
100
AcDbEntity
  8
0
  6
Continuous
 62
     7
100
AcDbSpline
210
0.0
220
0.0
230
1.0
 70
     8
 71
     3
 72
    33
 73
    29
 74
    27
 42
0.0000000001
 43
0.0000000001
 44
0.00000001
 40
0.0
 40
0.0
 40
0.0
 40
0.0
 40
0.1110613959248769
 40
0.2232233665060941
 40
0.3329112194450328
 40
0.4668788459473059
 40
0.5902192416746819
 40
0.7160681636819108
 40
0.8479042857683221
 40
0.958680089266104
 40
1.066497002740977
 40
1.196298654111684
 40
1.309021720225742
 40
1.439130764551826
 40
1.571638226529489
 40
1.686725803894651
 40
1.811066498398613
 40
1.938596814888283
 40
2.074101986909162
 40
2.194222951523098
 40
2.335619977521502
 40
2.453068045135177
 40
2.57060967184924
 40
2.714564975848957
 40
2.835433306447139
 40
2.97812751340756
 40
3.119998855200466
 40
3.243085721959288
 40
3.243085721959288
 40
3.243085721959288
 40
3.243085721959288
 10
562.8777027621824
 20
1040.84158312291
 30
0.0
 10
562.8432221848857
 20
1040.855060454321
 30
0.0
 10
562.7739193413624
 20
1040.882148672185
 30
0.0
 10
562.6711962355712
 20
1040.924140554198
 30
0.0
 10
562.5618989564745
 20
1040.970204352303
 30
0.0
 10
562.4497781716381
 20
1041.01914361411
 30
0.0
 10
562.3333718093481
 20
1041.071702350836
 30
0.0
 10
562.2182434160665
 20
1041.125343447775
 30
0.0
 10
562.107537036714
 20
1041.178537972726
 30
0.0
 10
562.0028029400028
 20
1041.230264935493
 30
0.0
 10
561.899172960548
 20
1041.282683597609
 30
0.0
 10
561.7954996355872
 20
1041.336443287245
 30
0.0
 10
561.6858082781632
 20
1041.394724079054
 30
0.0
 10
561.5759006013432
 20
1041.454508560397
 30
0.0
 10
561.4659242862073
 20
1041.515802354013
 30
0.0
 10
561.3582056171883
 20
1041.577184337836
 30
0.0
 10
561.2524724625366
 20
1041.638690397474
 30
0.0
 10
561.141458787434
 20
1041.70464337223
 30
0.0
 10
561.0322712695004
 20
1041.770905704224
 30
0.0
 10
560.9197479088922
 20
1041.840569347517
 30
0.0
 10
560.8129416972706
 20
1041.908024532101
 30
0.0
 10
560.70744456755
 20
1041.975932059419
 30
0.0
 10
560.6017621076635
 20
1042.045120213872
 30
0.0
 10
560.4957177281228
 20
1042.115829935741
 30
0.0
 10
560.3833298694559
 20
1042.192129588856
 30
0.0
 10
560.2721553037179
 20
1042.2689715203
 30
0.0
 10
560.161001188759
 20
1042.347137461237
 30
0.0
 10
560.0892645392054
 20
1042.398656765635
 30
0.0
 10
560.055939134895
 20
1042.422590161737
 30
0.0
 11
562.8777027621824
 21
1040.84158312291
 31
0.0
 11
562.7743662421507
 21
1040.882279526836
 31
0.0
 11
562.6705115142396
 21
1040.924641103001
 31
0.0
 11
562.5694391326479
 21
1040.967253293296
 31
0.0
 11
562.4466501017555
 21
1041.020827343387
 31
0.0
 11
562.3342349262185
 21
1041.071578516055
 31
0.0
 11
562.220156823663
 21
1041.124721132548
 31
0.0
 11
562.1013226813855
 21
1041.181810621212
 31
0.0
 11
562.0019985369112
 21
1041.230861543375
 31
0.0
 11
561.9057871527671
 21
1041.279522168035
 31
0.0
 11
561.790553612401
 21
1041.339269133425
 31
0.0
 11
561.691007032902
 21
1041.392155503542
 31
0.0
 11
561.5767093609894
 21
1041.454319847107
 31
0.0
 11
561.4609623465249
 21
1041.518824545558
 31
0.0
 11
561.3609674883112
 21
1041.575799792768
 31
0.0
 11
561.2534869679818
 21
1041.638318158545
 31
0.0
 11
561.143843757334
 21
1041.703451467864
 31
0.0
 11
561.0279986544602
 21
1041.773747725123
 31
0.0
 11
560.9258651940027
 21
1041.836975902344
 31
0.0
 11
560.8063114842982
 21
1041.912474441781
 31
0.0
 11
560.7075531586545
 21
1041.976042056981
 31
0.0
 11
560.6092103063387
 21
1042.040421536701
 31
0.0
 11
560.4894362481974
 21
1042.120279564137
 31
0.0
 11
560.3894364506614
 21
1042.188170607982
 31
0.0
 11
560.2720400349715
 21
1042.269286070646
 31
0.0
 11
560.1560252375955
 21
1042.350944165235
 31
0.0
 11
560.055939134895
 21
1042.422590161737
 31
0.0
  0
SPLINE
  5
11D
330
49
100
AcDbEntity
  8
0
  6
Continuous
 62
     7
100
AcDbSpline
210
0.0
220
0.0
230
1.0
 70
     8
 71
     3
 72
    15
 73
    11
 74
     9
 42
0.0000000001
 43
0.0000000001
 44
0.00000001
 40
0.0
 40
0.0
 40
0.0
 40
0.0
 40
0.3742809436840474
 40
0.8008985642689397
 40
0.9765372256065844
 40
1.18828502602977
 40
1.292121077269877
 40
1.384875638726997
 40
1.488088715138547
 40
1.580942947361802
 40
1.580942947361802
 40
1.580942947361802
 40
1.580942947361802
 10
560.055939134895
 20
1042.422590161737
 30
0.0
 10
559.9594156685985
 20
1042.502293248709
 30
0.0
 10
559.7528716089035
 20
1042.672844512407
 30
0.0
 10
559.5670309026634
 20
1042.946524499601
 30
0.0
 10
559.4531730984086
 20
1043.19292555506
 30
0.0
 10
559.4027042384366
 20
1043.349332603256
 30
0.0
 10
559.3737019092164
 20
1043.482393985436
 30
0.0
 10
559.3585854740727
 20
1043.581226240226
 30
0.0
 10
559.3495163859964
 20
1043.677173329125
 30
0.0
 10
559.3484189360333
 20
1043.742538026325
 30
0.0
 10
559.3478992018952
 20
1043.773493665056
 30
0.0
 11
560.055939134895
 21
1042.422590161737
 31
0.0
 11
559.7781900479741
 21
1042.67347194569
 31
0.0
 11
559.5345087791621
 21
1043.023646235757
 31
0.0
 11
559.4611808028149
 21
1043.183245569218
 31
0.0
 11
559.3961233630778
 21
1043.384751550566
 31
0.0
 11
559.3740448676215
 21
1043.486213196401
 31
0.0
 11
559.3599478601086
 21
1043.577890254874
 31
0.0
 11
559.3505930699556
 21
1043.680678518034
 31
0.0
 11
559.3478992018952
 21
1043.773493665056
 31
0.0
  0
SPLINE
  5
11E
330
49
100
AcDbEntity
  8
0
  6
Continuous
 62
     3
100
AcDbSpline
210
0.0
220
0.0
230
1.0
 70
     8
 71
     3
 72
    11
 73
     7
 74
     5
 42
0.0000000001
 43
0.0000000001
 44
0.00000001
 40
0.0
 40
0.0
 40
0.0
 40
0.0
 40
0.3854237092854582
 40
0.735166183507752
 40
1.02709561208512
 40
1.269976750483072
 40
1.269976750483072
 40
1.269976750483072
 40
1.269976750483072
 10
560.3478992018952
 20
1043.170790408122
 30
0.0
 10
560.2186902618746
 20
1043.179185954585
 30
0.0
 10
559.9722341123914
 20
1043.195199815962
 30
0.0
 10
559.6530389328041
 20
1043.322747034995
 30
0.0
 10
559.4046860781605
 20
1043.513294681296
 30
0.0
 10
559.3656343288847
 20
1043.692230839506
 30
0.0
 10
559.3478992018952
 20
1043.773493665056
 30
0.0
 11
560.3478992018952
 21
1043.170790408122
 31
0.0
 11
559.9652157307218
 21
1043.216668470091
 31
0.0
 11
559.6407924469942
 21
1043.347318120877
 31
0.0
 11
559.4240196831452
 21
1043.542849090605
 31
0.0
 11
559.3478992018952
 21
1043.773493665056
 31
0.0
  0
SPLINE
  5
11F
330
49
100
AcDbEntity
  8
0
  6
Continuous
 62
     7
100
AcDbSpline
210
0.0
220
0.0
230
1.0
 70
     8
 71
     3
 72
    11
 73
     7
 74
     5
 42
0.0000000001
 43
0.0000000001
 44
0.00000001
 40
0.0
 40
0.0
 40
0.0
 40
0.0
 40
0.5858892051899977
 40
1.171778185641013
 40
1.757666929827937
 40
2.343555425121704
 40
2.343555425121704
 40
2.343555425121704
 40
2.343555425121704
 10
566.9883428999283
 20
1156.472425957787
 30
0.0
 10
567.098297784107
 20
1156.311023950445
 30
0.0
 10
567.3182075102873
 20
1155.988219997673
 30
0.0
 10
567.6480716499004
 20
1155.504013902803
 30
0.0
 10
567.9779353854115
 20
1155.019807818964
 30
0.0
 10
568.1978442087527
 20
1154.697003632753
 30
0.0
 10
568.3077985970683
 20
1154.535601573931
 30
0.0
 11
566.9883428999283
 21
1156.472425957787
 31
0.0
 11
567.3182074884262
 21
1155.988219892136
 31
0.0
 11
567.6480716490946
 21
1155.504013806961
 31
0.0
 11
567.9779353599876
 21
1155.019807701257
 31
0.0
 11
568.3077985970683
 21
1154.535601573931
 31
0.0
  0
SPLINE
  5
120
330
49
100
AcDbEntity
  8
0
  6
Continuous
 62
     7
100
AcDbSpline
210
0.0
220
0.0
230
1.0
 70
     8
 71
     3
 72
    11
 73
     7
 74
     5
 42
0.0000000001
 43
0.0000000001
 44
0.00000001
 40
0.0
 40
0.0
 40
0.0
 40
0.0
 40
0.5804695577535033
 40
1.171019840484097
 40
1.751396703494617
 40
2.342085697269867
 40
2.342085697269867
 40
2.342085697269867
 40
2.342085697269867
 10
568.2680149690325
 20
1148.74004661621
 30
0.0
 10
568.1592337920343
 20
1148.900062173554
 30
0.0
 10
567.9397822896524
 20
1149.222872198529
 30
0.0
 10
567.611545979393
 20
1149.705657949977
 30
0.0
 10
567.2813811480028
 20
1150.191251753846
 30
0.0
 10
567.0618856603298
 20
1150.51405042161
 30
0.0
 10
566.951171503649
 20
1150.676871000101
 30
0.0
 11
568.2680149690325
 21
1148.74004661621
 31
0.0
 11
567.9416679876173
 21
1149.220090942496
 31
0.0
 11
567.6096370966952
 21
1149.708460806336
 31
0.0
 11
567.2833107916395
 21
1150.188407100984
 31
0.0
 11
566.951171503649
 21
1150.676871000101
 31
0.0
  0
SPLINE
  5
121
330
49
100
AcDbEntity
  8
0
  6
Continuous
 62
     7
100
AcDbSpline
210
0.0
220
0.0
230
1.0
 70
     8
 71
     3
 72
    17
 73
    13
 74
    11
 42
0.0000000001
 43
0.0000000001
 44
0.00000001
 40
0.0
 40
0.0
 40
0.0
 40
0.0
 40
0.1783213536623294
 40
0.3852953794097899
 40
0.8019834604355893
 40
1.361888202228527
 40
1.903696491319459
 40
2.472855561115108
 40
3.658603409874031
 40
4.851594277106422
 40
5.117229106650751
 40
5.37891164556788
 40
5.37891164556788
 40
5.37891164556788
 40
5.37891164556788
 10
568.3437069120589
 20
1148.847095445169
 30
0.0
 10
568.3528786800218
 20
1148.905825882682
 30
0.0
 10
568.3726959354688
 20
1149.032723563413
 30
0.0
 10
568.4073492880176
 20
1149.297821038791
 30
0.0
 10
568.4486464044722
 20
1149.690237758939
 30
0.0
 10
568.4849665301426
 20
1150.195165879707
 30
0.0
 10
568.5089923883367
 20
1150.751664008763
 30
0.0
 10
568.5229468010554
 20
1151.517174502903
 30
0.0
 10
568.5069047244248
 20
1152.500014100071
 30
0.0
 10
568.4552285044833
 20
1153.380244156733
 30
0.0
 10
568.4064752995839
 20
1153.951614347769
 30
0.0
 10
568.389242102521
 20
1154.126541838738
 30
0.0
 10
568.380690086163
 20
1154.213350035664
 30
0.0
 11
568.3437069120589
 21
1148.847095445169
 31
0.0
 11
568.3705434570743
 21
1149.023385844861
 31
0.0
 11
568.3977163233588
 21
1149.228568404237
 31
0.0
 11
568.4416985399905
 21
1149.642928780587
 31
0.0
 11
568.4826845693436
 21
1150.201331382014
 31
0.0
 11
568.5064050529362
 21
1150.742620178116
 31
0.0
 11
568.5170744488148
 21
1151.31167923544
 31
0.0
 11
568.4986100233225
 21
1152.497283311777
 31
0.0
 11
568.428521811146
 21
1153.688213558187
 31
0.0
 11
568.4057824006468
 21
1153.952873305556
 31
0.0
 11
568.380690086163
 21
1154.213350035664
 31
0.0
  0
SPLINE
  5
122
330
49
100
AcDbEntity
  8
0
  6
Continuous
 62
     7
100
AcDbSpline
210
0.0
220
0.0
230
1.0
 70
     8
 71
     3
 72
    17
 73
    13
 74
    11
 42
0.0000000001
 43
0.0000000001
 44
0.00000001
 40
0.0
 40
0.0
 40
0.0
 40
0.0
 40
0.1848415630681865
 40
0.3795479800016913
 40
0.8988400210374446
 40
1.357903590633325
 40
1.960886773030692
 40
2.471699227363143
 40
3.660163540005546
 40
4.856877750490416
 40
5.10682930804104
 40
5.377015970867928
 40
5.377015970867928
 40
5.377015970867928
 40
5.377015970867928
 10
566.9146581772131
 20
1156.365377128914
 30
0.0
 10
566.9058301264234
 20
1156.3043970926
 30
0.0
 10
566.8877028784767
 20
1156.179182561739
 30
0.0
 10
566.8517404082046
 20
1155.881713400907
 30
0.0
 10
566.8153952552686
 20
1155.49229582552
 30
0.0
 10
566.7818413339016
 20
1154.96620691537
 30
0.0
 10
566.7618630086079
 20
1154.442232602165
 30
0.0
 10
566.7498901391322
 20
1153.674869045859
 30
0.0
 10
566.7643118649397
 20
1152.709363306932
 30
0.0
 10
566.8116075411424
 20
1151.832012646587
 30
0.0
 10
566.8564795053106
 20
1151.261481884116
 30
0.0
 10
566.8721984204537
 20
1151.088814761908
 30
0.0
 10
566.880363637043
 20
1150.999122538377
 30
0.0
 11
566.9146581772131
 21
1156.365377128914
 31
0.0
 11
566.8888716900707
 21
1156.182343086948
 31
0.0
 11
566.8652063204374
 21
1155.989080211374
 31
0.0
 11
566.8162205684148
 21
1155.472103790266
 31
0.0
 11
566.7865850788639
 21
1155.013997799594
 31
0.0
 11
566.76314103926
 21
1154.411470542733
 31
0.0
 11
566.7549774873903
 21
1153.900723325489
 31
0.0
 11
566.7719502747531
 21
1152.712380215561
 31
0.0
 11
566.8367059094892
 21
1151.517419291787
 31
0.0
 11
566.8564412382003
 21
1151.268248069687
 31
0.0
 11
566.880363637043
 21
1150.999122538377
 31
0.0
  0
SPLINE
  5
123
330
49
100
AcDbEntity
  8
0
  6
Continuous
 62
     7
100
AcDbSpline
210
0.0
220
0.0
230
1.0
 70
     8
 71
     3
 72
    15
 73
    11
 74
     9
 42
0.0000000001
 43
0.0000000001
 44
0.00000001
 40
0.0
 40
0.0
 40
0.0
 40
0.0
 40
0.063513265854439
 40
0.1116377234035706
 40
0.1668075326034807
 40
0.2070168158710363
 40
0.2512225231561191
 40
0.2816127650730338
 40
0.3098687666006451
 40
0.3319706766046755
 40
0.3319706766046755
 40
0.3319706766046755
 40
0.3319706766046755
 10
566.880363637043
 20
1150.999122538377
 30
0.0
 10
566.8824971591699
 20
1150.97805764924
 30
0.0
 10
566.8862472663307
 20
1150.941031742363
 30
0.0
 10
566.8936648583594
 20
1150.885919469861
 30
0.0
 10
566.9013280842255
 20
1150.838690519136
 30
0.0
 10
566.9104424857812
 20
1150.793061405991
 30
0.0
 10
566.9194397500987
 20
1150.755828679888
 30
0.0
 10
566.929570459691
 20
1150.723090698235
 30
0.0
 10
566.9389481510095
 20
1150.697746942119
 30
0.0
 10
566.947443100318
 20
1150.683238641947
 30
0.0
 10
566.951171503649
 20
1150.676871000101
 30
0.0
 11
566.880363637043
 21
1150.999122538377
 31
0.0
 11
566.8871572061703
 21
1150.935973647983
 31
0.0
 11
566.8935518525008
 21
1150.888275934068
 31
0.0
 11
566.9025065982202
 21
1150.833837708745
 31
0.0
 11
566.9104319238074
 21
1150.794417210585
 31
0.0
 11
566.9210497509262
 21
1150.751505600223
 31
0.0
 11
566.9300584284357
 21
1150.722481290872
 31
0.0
 11
566.9404961143895
 21
1150.696223790339
 31
0.0
 11
566.951171503649
 21
1150.676871000101
 31
0.0
  0
SPLINE
  5
124
330
49
100
AcDbEntity
  8
0
  6
Continuous
 62
     7
100
AcDbSpline
210
0.0
220
0.0
230
1.0
 70
     8
 71
     3
 72
    13
 73
     9
 74
     7
 42
0.0000000001
 43
0.0000000001
 44
0.00000001
 40
0.0
 40
0.0
 40
0.0
 40
0.0
 40
0.0078001377814464
 40
0.0172434419403889
 40
0.0294774970021068
 40
0.0449097660802488
 40
0.0934409292121988
 40
0.1398936940369857
 40
0.1398936940369857
 40
0.1398936940369857
 40
0.1398936940369857
 10
566.9654987811284
 20
1156.489463044686
 30
0.0
 10
566.9628889610141
 20
1156.489009169604
 30
0.0
 10
566.9571195396426
 20
1156.488005806736
 30
0.0
 10
566.9496805478846
 20
1156.480956247675
 30
0.0
 10
566.9427564002108
 20
1156.470761489226
 30
0.0
 10
566.9320636008295
 20
1156.44757746875
 30
0.0
 10
566.9224347127944
 20
1156.411869056622
 30
0.0
 10
566.9172122639313
 20
1156.380646706713
 30
0.0
 10
566.9146581772131
 20
1156.365377128914
 30
0.0
 11
566.9654987811284
 21
1156.489463044686
 31
0.0
 11
566.9579594442537
 21
1156.487462907466
 31
0.0
 11
566.9506554125555
 21
1156.481477331939
 31
0.0
 11
566.9436033846257
 21
1156.471480282108
 31
0.0
 11
566.9369061702729
 21
1156.457576964201
 31
0.0
 11
566.9230524831871
 21
1156.411065146895
 31
0.0
 11
566.9146581772131
 21
1156.365377128914
 31
0.0
  0
SPLINE
  5
125
330
49
100
AcDbEntity
  8
0
  6
Continuous
 62
     7
100
AcDbSpline
210
0.0
220
0.0
230
1.0
 70
     8
 71
     3
 72
    11
 73
     7
 74
     5
 42
0.0000000001
 43
0.0000000001
 44
0.00000001
 40
0.0
 40
0.0
 40
0.0
 40
0.0
 40
0.0098738617436618
 40
0.0172096170961986
 40
0.0241129294609958
 40
0.0295154224007518
 40
0.0295154224007518
 40
0.0295154224007518
 40
0.0295154224007518
 10
566.9883428999283
 20
1156.472425957787
 30
0.0
 10
566.9864058238761
 20
1156.475100412197
 30
0.0
 10
566.9830296031016
 20
1156.479761844324
 30
0.0
 10
566.977139069016
 20
1156.485244301731
 30
0.0
 10
566.9714205727977
 20
1156.488787452597
 30
0.0
 10
566.9673054164833
 20
1156.489256933323
 30
0.0
 10
566.9654987811284
 20
1156.489463044686
 30
0.0
 11
566.9883428999283
 21
1156.472425957787
 31
0.0
 11
566.9822591424629
 21
1156.480202913543
 31
0.0
 11
566.9768563567159
 21
1156.485165091771
 31
0.0
 11
566.9708160710468
 21
1156.488507347094
 31
0.0
 11
566.9654987811284
 21
1156.489463044686
 31
0.0
  0
SPLINE
  5
126
330
49
100
AcDbEntity
  8
0
  6
Continuous
 62
     7
100
AcDbSpline
210
0.0
220
0.0
230
1.0
 70
     8
 71
     3
 72
    13
 73
     9
 74
     7
 42
0.0000000001
 43
0.0000000001
 44
0.00000001
 40
0.0
 40
0.0
 40
0.0
 40
0.0
 40
0.007925618732069
 40
0.0175020251304037
 40
0.030922024734438
 40
0.0453467929076792
 40
0.0864958023544739
 40
0.1406383231395344
 40
0.1406383231395344
 40
0.1406383231395344
 40
0.1406383231395344
 10
568.2909814222778
 20
1148.723009529355
 30
0.0
 10
568.2936329215997
 20
1148.723464277153
 30
0.0
 10
568.2994881878362
 20
1148.724468489904
 30
0.0
 10
568.3073626611402
 20
1148.731765044899
 30
0.0
 10
568.3143708932596
 20
1148.742038920715
 30
0.0
 10
568.3242795551946
 20
1148.762900401372
 30
0.0
 10
568.3348728674923
 20
1148.798058366619
 30
0.0
 10
568.3405061861313
 20
1148.829328470195
 30
0.0
 10
568.3437069120589
 20
1148.847095445169
 30
0.0
 11
568.2909814222778
 21
1148.723009529355
 31
0.0
 11
568.2986491844076
 21
1148.725014736628
 31
0.0
 11
568.3061151786583
 21
1148.731011943424
 31
0.0
 11
568.31390031296
 21
1148.741943003449
 31
0.0
 11
568.3202652907697
 21
1148.754887538757
 31
0.0
 11
568.332953131881
 21
1148.794031627281
 31
0.0
 11
568.3437069120589
 21
1148.847095445169
 31
0.0
  0
SPLINE
  5
127
330
49
100
AcDbEntity
  8
0
  6
Continuous
 62
     7
100
AcDbSpline
210
0.0
220
0.0
230
1.0
 70
     8
 71
     3
 72
    11
 73
     7
 74
     5
 42
0.0000000001
 43
0.0000000001
 44
0.00000001
 40
0.0
 40
0.0
 40
0.0
 40
0.0
 40
0.0098729536309549
 40
0.0172247044095409
 40
0.0238205331942503
 40
0.0296259702090343
 40
0.0296259702090343
 40
0.0296259702090343
 40
0.0296259702090343
 10
568.2680149690325
 20
1148.74004661621
 30
0.0
 10
568.2699502515948
 20
1148.737371341435
 30
0.0
 10
568.2733266140625
 20
1148.732703962357
 30
0.0
 10
568.2791607356286
 20
1148.727297853172
 30
0.0
 10
568.2848914605329
 20
1148.723734033813
 30
0.0
 10
568.2890395611021
 20
1148.723240546747
 30
0.0
 10
568.2909814222778
 20
1148.723009529355
 30
0.0
 11
568.2680149690325
 21
1148.74004661621
 31
0.0
 11
568.2740975506559
 21
1148.732269893623
 31
0.0
 11
568.2795210269517
 21
1148.727306614024
 31
0.0
 11
568.2852764267847
 21
1148.724084762054
 31
0.0
 11
568.2909814222778
 21
1148.723009529355
 31
0.0
  0
SPLINE
  5
128
330
49
100
AcDbEntity
  8
0
  6
Continuous
 62
     7
100
AcDbSpline
210
0.0
220
0.0
230
1.0
 70
     8
 71
     3
 72
    13
 73
     9
 74
     7
 42
0.0000000001
 43
0.0000000001
 44
0.00000001
 40
0.0
 40
0.0
 40
0.0
 40
0.0
 40
0.0513541308975464
 40
0.111756356321937
 40
0.1566230775185822
 40
0.2072569502379169
 40
0.2817340726766055
 40
0.3322474374904182
 40
0.3322474374904182
 40
0.3322474374904182
 40
0.3322474374904182
 10
568.380690086163
 20
1154.213350035664
 30
0.0
 10
568.3788591030484
 20
1154.230370970884
 30
0.0
 10
568.3748745355407
 20
1154.267411763283
 30
0.0
 10
568.3676829708875
 20
1154.319124688884
 30
0.0
 10
568.3592042717593
 20
1154.370424309274
 30
0.0
 10
568.3477091196887
 20
1154.425826750798
 30
0.0
 10
568.3342824141638
 20
1154.483262690086
 30
0.0
 10
568.3154211460826
 20
1154.520537442275
 30
0.0
 10
568.3077985970683
 20
1154.535601573931
 30
0.0
 11
568.380690086163
 21
1154.213350035664
 31
0.0
 11
568.3749549646762
 21
1154.26438291861
 31
0.0
 11
568.366676146735
 21
1154.324215100667
 31
0.0
 11
568.3592387733416
 21
1154.368461096508
 31
0.0
 11
568.3491407571607
 21
1154.418077818848
 31
0.0
 11
568.3291463881725
 21
1154.48982088106
 31
0.0
 11
568.3077985970683
 21
1154.535601573931
 31
0.0
  0
SPLINE
  5
129
330
49
100
AcDbEntity
  8
0
  6
Continuous
 62
     7
100
AcDbSpline
210
0.0
220
0.0
230
1.0
 70
     8
 71
     3
 72
    18
 73
    14
 74
    12
 42
0.0000000001
 43
0.0000000001
 44
0.00000001
 40
0.0
 40
0.0
 40
0.0
 40
0.0
 40
0.2761780012674824
 40
0.5239980200949194
 40
1.087447756410082
 40
1.620781429960559
 40
2.115027957653193
 40
2.565498828794077
 40
3.082694430674519
 40
3.498800909097739
 40
3.805675124427399
 40
3.88215306298367
 40
3.946081893587072
 40
3.946081893587072
 40
3.946081893587072
 40
3.946081893587072
 10
566.9146581772131
 20
1046.41417503105
 30
0.0
 10
566.9055434607739
 20
1046.322567600612
 30
0.0
 10
566.8882499278133
 20
1046.148758999075
 30
0.0
 10
566.8554178646356
 20
1045.787763502274
 30
0.0
 10
566.8194222702996
 20
1045.340990405185
 30
0.0
 10
566.7856972502364
 20
1044.811694961544
 30
0.0
 10
566.7635316715074
 20
1044.319471268906
 30
0.0
 10
566.7523397746255
 20
1043.832268463663
 30
0.0
 10
566.7557807680795
 20
1043.370847823216
 30
0.0
 10
566.7795551341173
 20
1042.95801898566
 30
0.0
 10
566.8163566524621
 20
1042.69334335844
 30
0.0
 10
566.8546869760326
 20
1042.548954250384
 30
0.0
 10
566.8723303872614
 20
1042.505561326126
 30
0.0
 10
566.880363637043
 20
1042.485804024388
 30
0.0
 11
566.9146581772131
 21
1046.41417503105
 31
0.0
 11
566.8877232318074
 21
1046.139313616697
 31
0.0
 11
566.8652063204374
 21
1045.89251866044
 31
0.0
 11
566.8202293430045
 21
1045.330866920609
 31
0.0
 11
566.7865850788639
 21
1044.798595494706
 31
0.0
 11
566.7647733424232
 21
1044.304830491603
 31
0.0
 11
566.7549774873903
 21
1043.854466142469
 31
0.0
 11
566.7608137515285
 21
1043.337303471131
 31
0.0
 11
566.7880824526256
 21
1042.922091453812
 31
0.0
 11
566.8367059094893
 21
1042.619093857325
 31
0.0
 11
566.8574271113068
 21
1042.545476557177
 31
0.0
 11
566.880363637043
 21
1042.485804024388
 31
0.0
  0
SPLINE
  5
12A
330
49
100
AcDbEntity
  8
0
  6
Continuous
 62
     7
100
AcDbSpline
210
0.0
220
0.0
230
1.0
 70
     8
 71
     3
 72
    11
 73
     7
 74
     5
 42
0.0000000001
 43
0.0000000001
 44
0.00000001
 40
0.0
 40
0.0
 40
0.0
 40
0.0
 40
1.363381981639938
 40
2.726763911432276
 40
4.090145786806966
 40
5.453527604848876
 40
5.453527604848876
 40
5.453527604848876
 40
5.453527604848876
 10
566.9883428998986
 20
1046.865282239148
 30
0.0
 10
567.0982977921631
 20
1047.306240756076
 30
0.0
 10
567.3182075725106
 20
1048.188157773164
 30
0.0
 10
567.6480717069347
 20
1049.511033404873
 30
0.0
 10
567.977935454792
 20
1050.833909076771
 30
0.0
 10
568.1978442178478
 20
1051.715826272627
 30
0.0
 10
568.3077985970639
 20
1052.156784861283
 30
0.0
 11
566.9883428998986
 21
1046.865282239148
 31
0.0
 11
567.3182074884224
 21
1048.188157811943
 31
0.0
 11
567.6480716490946
 21
1049.51103343799
 31
0.0
 11
567.977935359987
 21
1050.833909120107
 31
0.0
 11
568.3077985970639
 21
1052.156784861283
 31
0.0
  0
SPLINE
  5
12B
330
49
100
AcDbEntity
  8
0
  6
Continuous
 62
     7
100
AcDbSpline
210
0.0
220
0.0
230
1.0
 70
     8
 71
     3
 72
    18
 73
    14
 74
    12
 42
0.0000000001
 43
0.0000000001
 44
0.00000001
 40
0.0
 40
0.0
 40
0.0
 40
0.0
 40
0.2674496241046047
 40
0.5311136590730754
 40
1.276380399360367
 40
1.958654695145508
 40
2.566432703657553
 40
2.92510817131802
 40
3.305527349510599
 40
3.587623181665352
 40
3.80554759092664
 40
3.880208629721769
 40
3.949312315406095
 40
3.949312315406095
 40
3.949312315406095
 40
3.949312315406095
 10
568.3437069120589
 20
1048.365251382325
 30
0.0
 10
568.3532134571092
 20
1048.453893395625
 30
0.0
 10
568.3720919877621
 20
1048.629922747652
 30
0.0
 10
568.413738749662
 20
1049.053342640893
 30
0.0
 10
568.4613534600761
 20
1049.615116565529
 30
0.0
 10
568.5020217407642
 20
1050.292407073496
 30
0.0
 10
568.5188111716293
 20
1050.841849378572
 30
0.0
 10
568.5174679080816
 20
1051.290858607592
 30
0.0
 10
568.5039761113431
 20
1051.631121714324
 30
0.0
 10
568.4761548270262
 20
1051.923476265271
 30
0.0
 10
568.4422794201048
 20
1052.112355968285
 30
0.0
 10
568.4091206725853
 20
1052.228530687309
 30
0.0
 10
568.3899195359738
 20
1052.272491604491
 30
0.0
 10
568.380690086163
 20
1052.293622388933
 30
0.0
 11
568.3437069120589
 21
1048.365251382325
 31
0.0
 11
568.3718337752239
 21
1048.631217885859
 31
0.0
 11
568.3977163233588
 21
1048.893608466936
 31
0.0
 11
568.4599470363321
 21
1049.636272490934
 31
0.0
 11
568.4999747882082
 21
1050.31737159809
 31
0.0
 11
568.5170744488148
 21
1050.924909011949
 31
0.0
 11
568.5153635145804
 21
1051.283580398883
 31
0.0
 11
568.4986605460795
 21
1051.663632713677
 31
0.0
 11
568.4697747705799
 21
1051.944245739912
 31
0.0
 11
568.428521811146
 21
1052.158229948418
 31
0.0
 11
568.4069872753956
 21
1052.229717950796
 31
0.0
 11
568.380690086163
 21
1052.293622388933
 31
0.0
  0
SPLINE
  5
12C
330
49
100
AcDbEntity
  8
0
  6
Continuous
 62
     7
100
AcDbSpline
210
0.0
220
0.0
230
1.0
 70
     8
 71
     3
 72
    13
 73
     9
 74
     7
 42
0.0000000001
 43
0.0000000001
 44
0.00000001
 40
0.0
 40
0.0
 40
0.0
 40
0.0
 40
0.0075105239793553
 40
0.0168489823025675
 40
0.0309110500441746
 40
0.0492313034948434
 40
0.098223001758347
 40
0.1626038926197698
 40
0.1626038926197698
 40
0.1626038926197698
 40
0.1626038926197698
 10
568.3698751213794
 20
1052.303231470689
 30
0.0
 10
568.367432952883
 20
1052.302473372351
 30
0.0
 10
568.361954233437
 20
1052.300772667378
 30
0.0
 10
568.3554224765899
 20
1052.292259505299
 30
0.0
 10
568.3482452407716
 20
1052.280515504856
 30
0.0
 10
568.3370091183306
 20
1052.255676387672
 30
0.0
 10
568.3227747834244
 20
1052.214141760093
 30
0.0
 10
568.3132228521597
 20
1052.177559071964
 30
0.0
 10
568.3077985970639
 20
1052.156784861283
 30
0.0
 11
568.3698751213794
 21
1052.303231470689
 31
0.0
 11
568.362929796247
 21
1052.300373074417
 31
0.0
 11
568.3565669908546
 21
1052.293537760862
 31
0.0
 11
568.3491850938717
 21
1052.281569078975
 31
0.0
 11
568.3413937800323
 21
1052.26498815273
 31
0.0
 11
568.324942762827
 21
1052.218841099393
 31
0.0
 11
568.3077985970639
 21
1052.156784861283
 31
0.0
  0
SPLINE
  5
12D
330
49
100
AcDbEntity
  8
0
  6
Continuous
 62
     7
100
AcDbSpline
210
0.0
220
0.0
230
1.0
 70
     8
 71
     3
 72
    11
 73
     7
 74
     5
 42
0.0000000001
 43
0.0000000001
 44
0.00000001
 40
0.0
 40
0.0
 40
0.0
 40
0.0
 40
0.0050402961379015
 40
0.0088364970652312
 40
0.0122992499780665
 40
0.0151834224271859
 40
0.0151834224271859
 40
0.0151834224271859
 40
0.0151834224271859
 10
568.380690086163
 20
1052.293622388933
 30
0.0
 10
568.3798959533365
 20
1052.295110442629
 30
0.0
 10
568.3785037033181
 20
1052.297719254047
 30
0.0
 10
568.3758226857615
 20
1052.30083657082
 30
0.0
 10
568.3729707072121
 20
1052.302865130462
 30
0.0
 10
568.3708423089831
 20
1052.303117011021
 30
0.0
 10
568.3698751213794
 20
1052.303231470689
 30
0.0
 11
568.380690086163
 21
1052.293622388933
 31
0.0
 11
568.3781339669537
 21
1052.297966446914
 31
0.0
 11
568.3756245468139
 21
1052.300814946878
 31
0.0
 11
568.3727056879645
 21
1052.302677987606
 31
0.0
 11
568.3698751213794
 21
1052.303231470689
 31
0.0
  0
SPLINE
  5
12E
330
49
100
AcDbEntity
  8
0
  6
Continuous
 62
     7
100
AcDbSpline
210
0.0
220
0.0
230
1.0
 70
     8
 71
     3
 72
    11
 73
     7
 74
     5
 42
0.0000000001
 43
0.0000000001
 44
0.00000001
 40
0.0
 40
0.0
 40
0.0
 40
0.0
 40
1.351093809939896
 40
2.726442794254572
 40
4.077677170746353
 40
5.452896177507394
 40
5.452896177507394
 40
5.452896177507394
 40
5.452896177507394
 10
568.2680149690325
 20
1047.914144174165
 30
0.0
 10
568.1592668232113
 20
1047.477106284836
 30
0.0
 10
567.9398182576259
 20
1046.59518469256
 30
0.0
 10
567.6115813155495
 20
1045.276186937542
 30
0.0
 10
567.281384132786
 20
1043.949389998852
 30
0.0
 10
567.0618860221766
 20
1043.067477099
 30
0.0
 10
566.9511715036333
 20
1042.622641551972
 30
0.0
 11
568.2680149690325
 21
1047.914144174165
 31
0.0
 11
567.9417657835855
 21
1046.603031687666
 31
0.0
 11
567.6096370966952
 21
1045.268387403971
 31
0.0
 11
567.2833106775277
 21
1043.95714928358
 31
0.0
 11
566.9511715036333
 21
1042.622641551972
 31
0.0
  0
SPLINE
  5
12F
330
49
100
AcDbEntity
  8
0
  6
Continuous
 62
     7
100
AcDbSpline
210
0.0
220
0.0
230
1.0
 70
     8
 71
     3
 72
    13
 73
     9
 74
     7
 42
0.0000000001
 43
0.0000000001
 44
0.00000001
 40
0.0
 40
0.0
 40
0.0
 40
0.0
 40
0.0469953358244534
 40
0.09843566369447
 40
0.1598236006689963
 40
0.2118303901653922
 40
0.3342336996008353
 40
0.4577055470160439
 40
0.4577055470160439
 40
0.4577055470160439
 40
0.4577055470160439
 10
568.2680149690325
 20
1047.914144174165
 30
0.0
 10
568.2716749013091
 20
1047.929376458792
 30
0.0
 10
568.2793409357441
 20
1047.961281753659
 30
0.0
 10
568.2902885152776
 20
1048.013425575207
 30
0.0
 10
568.3006521312699
 20
1048.0673869332
 30
0.0
 10
568.3141607096316
 20
1048.14481798261
 30
0.0
 10
568.3292971592082
 20
1048.242974347571
 30
0.0
 10
568.3388897650814
 20
1048.324374453033
 30
0.0
 10
568.3437069120589
 20
1048.365251382325
 30
0.0
 11
568.2680149690325
 21
1047.914144174165
 31
0.0
 11
568.2787842940143
 21
1047.959888935927
 31
0.0
 11
568.2894751988583
 21
1048.010206049169
 31
0.0
 11
568.3010563781655
 21
1048.070491661813
 31
0.0
 11
568.3100273645118
 21
1048.121718876823
 31
0.0
 11
568.3285238552739
 21
1048.242716604034
 31
0.0
 11
568.3437069120589
 21
1048.365251382325
 31
0.0
  0
SPLINE
  5
130
330
49
100
AcDbEntity
  8
0
  6
Continuous
 62
     7
100
AcDbSpline
210
0.0
220
0.0
230
1.0
 70
     8
 71
     3
 72
    13
 73
     9
 74
     7
 42
0.0000000001
 43
0.0000000001
 44
0.00000001
 40
0.0
 40
0.0
 40
0.0
 40
0.0
 40
0.0159731013780955
 40
0.0481344439508592
 40
0.070570907670213
 40
0.0970853715576154
 40
0.1301883323410193
 40
0.1613980728177992
 40
0.1613980728177992
 40
0.1613980728177992
 40
0.1613980728177992
 10
566.890512719329
 20
1042.476194942629
 30
0.0
 10
566.8950549859725
 20
1042.479150658737
 30
0.0
 10
566.9087429651566
 20
1042.488057617254
 30
0.0
 10
566.9166964964882
 20
1042.511744986388
 30
0.0
 10
566.9266520894116
 20
1042.536526672321
 30
0.0
 10
566.9349196400425
 20
1042.562721679171
 30
0.0
 10
566.9433238660811
 20
1042.591773238008
 30
0.0
 10
566.9486074702302
 20
1042.61255604693
 30
0.0
 10
566.9511715036333
 20
1042.622641551972
 30
0.0
 11
566.890512719329
 21
1042.476194942629
 31
0.0
 11
566.903229586152
 21
1042.485860410328
 31
0.0
 11
566.9179826429756
 21
1042.514438361102
 31
0.0
 11
566.9259255182775
 21
1042.535421822117
 31
0.0
 11
566.9341587769279
 21
1042.560625596581
 31
0.0
 11
566.9433222694354
 21
1042.592434972835
 31
0.0
 11
566.9511715036333
 21
1042.622641551972
 31
0.0
  0
SPLINE
  5
131
330
49
100
AcDbEntity
  8
0
  6
Continuous
 62
     7
100
AcDbSpline
210
0.0
220
0.0
230
1.0
 70
     8
 71
     3
 72
    11
 73
     7
 74
     5
 42
0.0000000001
 43
0.0000000001
 44
0.00000001
 40
0.0
 40
0.0
 40
0.0
 40
0.0
 40
0.0045861964880403
 40
0.0086416046115437
 40
0.0117117690543744
 40
0.0146953579666853
 40
0.0146953579666853
 40
0.0146953579666853
 40
0.0146953579666853
 10
566.880363637043
 20
1042.485804024388
 30
0.0
 10
566.8810408985375
 20
1042.484428327437
 30
0.0
 10
566.8823170379418
 20
1042.481836151295
 30
0.0
 10
566.8847322779518
 20
1042.478751597832
 30
0.0
 10
566.8874792223347
 20
1042.476612380941
 30
0.0
 10
566.8895112403843
 20
1042.476332755748
 30
0.0
 10
566.890512719329
 20
1042.476194942629
 30
0.0
 11
566.880363637043
 21
1042.485804024388
 31
0.0
 11
566.8825379276858
 21
1042.481765997837
 31
0.0
 11
566.885086648176
 21
1042.478611578887
 31
0.0
 11
566.8876022953286
 21
1042.476851627436
 31
0.0
 11
566.890512719329
 21
1042.476194942629
 31
0.0
  0
SPLINE
  5
132
330
49
100
AcDbEntity
  8
0
  6
Continuous
 62
     7
100
AcDbSpline
210
0.0
220
0.0
230
1.0
 70
     8
 71
     3
 72
    15
 73
    11
 74
     9
 42
0.0000000001
 43
0.0000000001
 44
0.00000001
 40
0.0
 40
0.0
 40
0.0
 40
0.0
 40
0.0522971007509459
 40
0.09847926694335
 40
0.1475394388232628
 40
0.2117381464734637
 40
0.2656005676871895
 40
0.333953731098994
 40
0.3892758540788997
 40
0.4574210930320576
 40
0.4574210930320576
 40
0.4574210930320576
 40
0.4574210930320576
 10
566.9883428998986
 20
1046.865282239148
 30
0.0
 10
566.9842834928238
 20
1046.848328040033
 30
0.0
 10
566.9766393323023
 20
1046.816402042675
 30
0.0
 10
566.9666666024914
 20
1046.768238252786
 30
0.0
 10
566.956689520493
 20
1046.716034970107
 30
0.0
 10
566.9472323244335
 20
1046.661132510626
 30
0.0
 10
566.937643458932
 20
1046.599736952206
 30
0.0
 10
566.9294284266673
 20
1046.541128170685
 30
0.0
 10
566.9214206254121
 20
1046.477688478779
 30
0.0
 10
566.9170631790049
 20
1046.436762997876
 30
0.0
 10
566.9146581772131
 20
1046.41417503105
 30
0.0
 11
566.9883428998986
 21
1046.865282239148
 31
0.0
 11
566.9764431887928
 21
1046.814356964259
 31
0.0
 11
566.9669735135343
 21
1046.76915610448
 31
0.0
 11
566.9577640420953
 21
1046.720968075876
 31
0.0
 11
566.9468272030779
 21
1046.657707822824
 31
0.0
 11
566.9385114813997
 21
1046.604491197678
 31
0.0
 11
566.9289964246691
 21
1046.536803542645
 31
0.0
 11
566.9221159272413
 21
1046.481910956204
 31
0.0
 11
566.9146581772131
 21
1046.41417503105
 31
0.0
  0
SPLINE
  5
133
330
49
100
AcDbEntity
  8
0
  6
Continuous
 62
     7
100
AcDbSpline
210
0.0
220
0.0
230
1.0
 70
     8
 71
     3
 72
    21
 73
    17
 74
    15
 42
0.0000000001
 43
0.0000000001
 44
0.00000001
 40
0.0
 40
0.0
 40
0.0
 40
0.0
 40
0.7273082022194393
 40
1.468528150317599
 40
2.230660299600049
 40
2.929437453471097
 40
3.690116957939688
 40
4.38584662815913
 40
5.145189501880997
 40
5.841149879956539
 40
7.296261396053392
 40
8.739981111865065
 40
9.422490733793955
 40
10.17944209604771
 40
10.93444170989256
 40
11.61565434321559
 40
11.61565434321559
 40
11.61565434321559
 40
11.61565434321559
 10
533.8329636612901
 20
1020.803426630479
 30
0.0
 10
533.5990658302285
 20
1020.867370468766
 30
0.0
 10
533.1267962364522
 20
1020.996481245018
 30
0.0
 10
532.4222547955922
 20
1021.235504593089
 30
0.0
 10
531.738343242134
 20
1021.502793804384
 30
0.0
 10
531.0622851510457
 20
1021.805663448126
 30
0.0
 10
530.4211198224939
 20
1022.130371974868
 30
0.0
 10
529.7787715159219
 20
1022.495419964923
 30
0.0
 10
529.1728695284233
 20
1022.879419835836
 30
0.0
 10
528.3792735832453
 20
1023.437907073232
 30
0.0
 10
527.4497458473086
 20
1024.197328379149
 30
0.0
 10
526.602150422988
 20
1025.040855372906
 30
0.0
 10
525.9714736401666
 20
1025.766445570356
 30
0.0
 10
525.5197763646825
 20
1026.342161758401
 30
0.0
 10
525.0966690351074
 20
1026.938931189374
 30
0.0
 10
524.8446725808585
 20
1027.346081780283
 30
0.0
 10
524.7251476509425
 20
1027.539198171498
 30
0.0
 11
533.8329636612901
 21
1020.803426630479
 31
0.0
 11
533.1333411854099
 21
1021.002186818291
 31
0.0
 11
532.4307879486039
 21
1021.238461998773
 31
0.0
 11
531.7211542938251
 21
1021.516428703569
 31
0.0
 11
531.0834026194636
 21
1021.802019866985
 31
0.0
 11
530.4048160147979
 21
1022.145754544443
 31
0.0
 11
529.7999478916116
 21
1022.489519475139
 31
0.0
 11
529.158583834071
 21
1022.896033614582
 31
0.0
 11
528.5894492873215
 21
1023.296591619804
 31
0.0
 11
527.4628009552396
 21
1024.217467865613
 31
0.0
 11
526.4395680981404
 21
1025.235957501287
 31
0.0
 11
525.9919344598746
 21
1025.751169603162
 31
0.0
 11
525.5242686507937
 21
1026.346370456517
 31
0.0
 11
525.0893645219923
 21
1026.963527499463
 31
0.0
 11
524.7251476509425
 21
1027.539198171498
 31
0.0
  0
SPLINE
  5
134
330
49
100
AcDbEntity
  8
0
  6
Continuous
 62
     3
100
AcDbSpline
210
0.0
220
0.0
230
1.0
 70
     8
 71
     3
 72
    39
 73
    35
 74
    33
 42
0.0000000001
 43
0.0000000001
 44
0.00000001
 40
0.0
 40
0.0
 40
0.0
 40
0.0
 40
0.0134209686787591
 40
0.0277928766414817
 40
0.0437155992135507
 40
0.061766854801523
 40
0.0717246028160071
 40
0.0823520856803242
 40
0.0936797130462142
 40
0.1057313139740456
 40
0.1252253388008118
 40
0.146429968052069
 40
0.1693596810541941
 40
0.1940068041668015
 40
0.2203447319752621
 40
0.2483287138336117
 40
0.2778985657464059
 40
0.3089793239180798
 40
0.3414837388324262
 40
0.3753130944405579
 40
0.4103595511899708
 40
0.4465072314051157
 40
0.483634360122384
 40
0.5216145984896723
 40
0.5603188873225999
 40
0.5996169459376092
 40
0.6393787263402375
 40
0.6794759692138621
 40
0.7197832070440978
 40
0.7601792707798825
 40
0.8005478230637744
 40
0.8407787284360946
 40
0.8807681407682029
 40
0.9204196783471361
 40
0.9204196783471361
 40
0.9204196783471361
 40
0.9204196783471361
 10
524.7251476509425
 20
1027.539198171498
 30
0.0
 10
524.7277289530292
 20
1027.53551886672
 30
0.0
 10
524.7330744546979
 20
1027.527899560969
 30
0.0
 10
524.7447211363706
 20
1027.51882843927
 30
0.0
 10
524.7590924435821
 20
1027.511417604679
 30
0.0
 10
524.7731153836205
 20
1027.506969826314
 30
0.0
 10
524.7857079232044
 20
1027.50425500457
 30
0.0
 10
524.7962283014745
 20
1027.502634682398
 30
0.0
 10
524.8075117690778
 20
1027.501504074439
 30
0.0
 10
524.8217879402646
 20
1027.500755157576
 30
0.0
 10
524.8393824560865
 20
1027.500783359252
 30
0.0
 10
524.8605672372593
 20
1027.50197259112
 30
0.0
 10
524.8833795956373
 20
1027.504337604248
 30
0.0
 10
524.907767615582
 20
1027.507882311468
 30
0.0
 10
524.933667837796
 20
1027.512609489747
 30
0.0
 10
524.9610068296614
 20
1027.518508470721
 30
0.0
 10
524.9897000023391
 20
1027.525566447324
 30
0.0
 10
525.0196549714476
 20
1027.533757855165
 30
0.0
 10
525.0507699502398
 20
1027.543054736093
 30
0.0
 10
525.0829377051991
 20
1027.553417586188
 30
0.0
 10
525.1160439776673
 20
1027.564804758138
 30
0.0
 10
525.1499716292853
 20
1027.577164702798
 30
0.0
 10
525.1845992130822
 20
1027.590444376735
 30
0.0
 10
525.2198050200376
 20
1027.604582777695
 30
0.0
 10
525.2554658270802
 20
1027.619518334057
 30
0.0
 10
525.2914606149357
 20
1027.635183610106
 30
0.0
 10
525.3276694860393
 20
1027.651511652396
 30
0.0
 10
525.3639768555746
 20
1027.66843178081
 30
0.0
 10
525.4002706315018
 20
1027.68587467782
 30
0.0
 10
525.436444316022
 20
1027.703769954516
 30
0.0
 10
525.4723981437313
 20
1027.722046898823
 30
0.0
 10
525.5080336370888
 20
1027.740645265583
 30
0.0
 10
525.543280458129
 20
1027.759468815502
 30
0.0
 10
525.5665399897936
 20
1027.772265206667
 30
0.0
 10
525.5781204166328
 20
1027.778636258063
 30
0.0
 11
524.7251476509425
 21
1027.539198171498
 31
0.0
 11
524.7333716988992
 21
1027.528592162094
 31
0.0
 11
524.7445182451586
 21
1027.519519883164
 31
0.0
 11
524.7586234314019
 21
1027.512132270888
 31
0.0
 11
524.7757770558982
 21
1027.506510794663
 31
0.0
 11
524.7855076368809
 21
1027.504395956783
 31
0.0
 11
524.7960085094608
 21
1027.502760393549
 31
0.0
 11
524.8072780536605
 21
1027.501614742961
 31
0.0
 11
524.8193122912384
 21
1027.500968050728
 31
0.0
 11
524.8388063094327
 21
1027.500951970136
 31
0.0
 11
524.8599798254155
 21
1027.502100239533
 31
0.0
 11
524.8827910235595
 21
1027.504428538825
 31
0.0
 11
524.9071862848436
 21
1027.507943066476
 31
0.0
 11
524.933101208125
 21
1027.512644469731
 31
0.0
 11
524.9604606327248
 21
1027.518523681091
 31
0.0
 11
524.9891796892185
 21
1027.525565835325
 31
0.0
 11
525.0191644791092
 21
1027.533746660695
 31
0.0
 11
525.0503131483699
 21
1027.543036299666
 31
0.0
 11
525.0825171131794
 21
1027.553396316626
 31
0.0
 11
525.1156620944857
 21
1027.564783341913
 31
0.0
 11
525.14962975647
 21
1027.577146704088
 31
0.0
 11
525.1842986125416
 21
1027.590431812498
 31
0.0
 11
525.219545926429
 21
1027.604578379932
 31
0.0
 11
525.2552483988178
 21
1027.619523460708
 31
0.0
 11
525.2912841770838
 21
1027.635200198113
 31
0.0
 11
525.3275332520197
 21
1027.651540447409
 31
0.0
 11
525.3638794338608
 21
1027.668473963041
 31
0.0
 11
525.4002104221397
 21
1027.685930558132
 31
0.0
 11
525.436419630638
 21
1027.703839639216
 31
0.0
 11
525.4724059316923
 21
1027.722131882106
 31
0.0
 11
525.5080752459024
 21
1027.740739025112
 31
0.0
 11
525.5433399967344
 21
1027.759595070493
 31
0.0
 11
525.5781204166328
 21
1027.778636258063
 31
0.0
  0
SPLINE
  5
135
330
49
100
AcDbEntity
  8
0
  6
Continuous
 62
     3
100
AcDbSpline
210
0.0
220
0.0
230
1.0
 70
     8
 71
     3
 72
    31
 73
    27
 74
    25
 42
0.0000000001
 43
0.0000000001
 44
0.00000001
 40
0.0
 40
0.0
 40
0.0
 40
0.0
 40
0.0025122558453953
 40
0.0056637352344681
 40
0.011107483696212
 40
0.0184983955996235
 40
0.026311793667823
 40
0.0356548214419952
 40
0.0465555440161327
 40
0.0590262285985566
 40
0.0735773159308203
 40
0.08979594618607
 40
0.1076589137389002
 40
0.1271321064908653
 40
0.148171948124859
 40
0.170725258686344
 40
0.1947306410633663
 40
0.2201185101905761
 40
0.2747297653021344
 40
0.333876392399365
 40
0.3968066091003672
 40
0.4627259193408798
 40
0.5308289593743879
 40
0.6003270292764742
 40
0.6704692481115245
 40
0.7405655453114004
 40
0.7405655453114004
 40
0.7405655453114004
 40
0.7405655453114004
 10
533.8329636612901
 20
1020.803426630479
 30
0.0
 10
533.8338140019422
 20
1020.803363993521
 30
0.0
 10
533.8357310456706
 20
1020.803222782128
 30
0.0
 10
533.8391028186229
 20
1020.805088221736
 30
0.0
 10
533.8430333789446
 20
1020.808661747837
 30
0.0
 10
533.847339912161
 20
1020.814078826131
 30
0.0
 10
533.8518847473932
 20
1020.820879704963
 30
0.0
 10
533.8566370029577
 20
1020.828942125136
 30
0.0
 10
533.8617852295081
 20
1020.838556636166
 30
0.0
 10
533.8673988133698
 20
1020.849884815024
 30
0.0
 10
533.8734688792053
 20
1020.862959066908
 30
0.0
 10
533.8799896630633
 20
1020.877801709114
 30
0.0
 10
533.8868893991935
 20
1020.89426678229
 30
0.0
 10
533.8941521588192
 20
1020.912319873497
 30
0.0
 10
533.9017586107791
 20
1020.931918092106
 30
0.0
 10
533.9096889332568
 20
1020.953009690801
 30
0.0
 10
533.9179204977765
 20
1020.975535262992
 30
0.0
 10
533.9295522477557
 20
1021.00819420737
 30
0.0
 10
533.9446233123972
 20
1021.052060906783
 30
0.0
 10
533.9631022866492
 20
1021.10798402732
 30
0.0
 10
533.9821652186891
 20
1021.16768051539
 30
0.0
 10
534.0015992883355
 20
1021.230389700126
 30
0.0
 10
534.0211906285115
 20
1021.295340039537
 30
0.0
 10
534.0407353755639
 20
1021.361772800851
 30
0.0
 10
534.0600811337574
 20
1021.428955665478
 30
0.0
 10
534.072701413165
 20
1021.473966151032
 30
0.0
 10
534.0790094865893
 20
1021.496464024381
 30
0.0
 11
533.8329636612901
 21
1020.803426630479
 31
0.0
 11
533.835475771794
 21
1020.803453653601
 31
0.0
 11
533.838340324456
 21
1020.804767487832
 31
0.0
 11
533.8424684901593
 21
1020.808316099566
 31
0.0
 11
533.8471676425777
 21
1020.81402079459
 31
0.0
 11
533.851545434185
 21
1020.820492589551
 31
0.0
 11
533.8563213804589
 21
1020.828522689499
 31
0.0
 11
533.861490675659
 21
1020.838119779671
 31
0.0
 11
533.8670468376724
 21
1020.849284323443
 31
0.0
 11
533.8731914580145
 21
1020.862474387256
 31
0.0
 11
533.8797286879087
 21
1020.877317183242
 31
0.0
 11
533.886644157072
 21
1020.89378721348
 31
0.0
 11
533.8939216490461
 21
1020.911849421167
 31
0.0
 11
533.9015426079303
 21
1020.931460538465
 31
0.0
 11
533.9094868704191
 21
1020.952568369021
 31
0.0
 11
533.9177323024236
 21
1020.975113240591
 31
0.0
 11
533.926255515238
 21
1020.999027645082
 31
0.0
 11
533.9440343936873
 21
1021.050663879123
 31
0.0
 11
533.9626153177613
 21
1021.106816107552
 31
0.0
 11
533.9817783142793
 21
1021.166757676922
 31
0.0
 11
534.0013056216965
 21
1021.229718297373
 31
0.0
 11
534.0209828244102
 21
1021.294916700384
 31
0.0
 11
534.0406110307439
 21
1021.361585397958
 31
0.0
 11
534.060006545154
 21
1021.428992703822
 31
0.0
 11
534.0790094865893
 21
1021.496464024381
 31
0.0
  0
SPLINE
  5
136
330
49
100
AcDbEntity
  8
0
  6
Continuous
 62
     3
100
AcDbSpline
210
0.0
220
0.0
230
1.0
 70
     8
 71
     3
 72
    21
 73
    17
 74
    15
 42
0.0000000001
 43
0.0000000001
 44
0.00000001
 40
0.0
 40
0.0
 40
0.0
 40
0.0
 40
0.0675252593560801
 40
0.1350445563945928
 40
0.4138958154804185
 40
0.692780863609882
 40
1.889814110441647
 40
3.08413625617826
 40
4.275294269496554
 40
5.462926456929425
 40
7.166561858745623
 40
8.861972748793622
 40
9.784964406804669
 40
10.7047471060617
 40
10.77069539329515
 40
10.83663233645754
 40
10.83663233645754
 40
10.83663233645754
 40
10.83663233645754
 10
534.0790094865893
 20
1021.496464024381
 30
0.0
 10
534.057226693855
 20
1021.502133361323
 30
0.0
 10
534.0136630317544
 20
1021.513471534618
 30
0.0
 10
533.8803518132293
 20
1021.549004843602
 30
0.0
 10
533.6795872210436
 20
1021.605030191983
 30
0.0
 10
533.1193413980844
 20
1021.7731828246
 30
0.0
 10
532.2799206906482
 20
1022.07269407642
 30
0.0
 10
531.1913616116748
 20
1022.566935990207
 30
0.0
 10
530.1506623863886
 20
1023.149138455938
 30
0.0
 10
529.0219941580231
 20
1023.912026523659
 30
0.0
 10
527.8474553381676
 20
1024.896966347214
 30
0.0
 10
526.8632976950622
 20
1025.95453287818
 30
0.0
 10
526.1461923244857
 20
1026.891823163554
 30
0.0
 10
525.7947724436472
 20
1027.422926527443
 30
0.0
 10
525.6121283779624
 20
1027.722141361925
 30
0.0
 10
525.5894557536831
 20
1027.759805705913
 30
0.0
 10
525.5781204166328
 20
1027.778636258063
 30
0.0
 11
534.0790094865893
 21
1021.496464024381
 31
0.0
 11
534.0136779396405
 21
1021.513535920128
 31
0.0
 11
533.9484325970457
 21
1021.530911211269
 31
0.0
 11
533.6798520494427
 21
1021.605894637058
 31
0.0
 11
533.4127375425628
 21
1021.686061402519
 31
0.0
 11
532.2853647756074
 21
1022.088453298993
 31
0.0
 11
531.1979313922828
 21
1022.582309578318
 31
0.0
 11
530.1584562118629
 21
1023.163987119558
 31
0.0
 11
529.1746024827893
 21
1023.829195397028
 31
0.0
 11
527.8695731546161
 21
1024.924308192556
 31
0.0
 11
526.7148907550302
 21
1026.165729411232
 31
0.0
 11
526.1541238152079
 21
1026.898841981006
 31
0.0
 11
525.6465323639488
 21
1027.665882483497
 31
0.0
 11
525.6121844168284
 21
1027.722179864587
 31
0.0
 11
525.5781204166328
 21
1027.778636258063
 31
0.0
  0
SPLINE
  5
137
330
49
100
AcDbEntity
  8
0
  6
Continuous
 62
     3
100
AcDbSpline
210
0.0
220
0.0
230
1.0
 70
     8
 71
     3
 72
    21
 73
    17
 74
    15
 42
0.0000000001
 43
0.0000000001
 44
0.00000001
 40
0.0
 40
0.0
 40
0.0
 40
0.0
 40
0.0723489077636713
 40
0.1446922100969301
 40
0.4434752210932545
 40
0.7423103933933586
 40
2.025195880646424
 40
3.305653737564763
 40
4.583332334494933
 40
5.857961109286656
 40
7.687869189567504
 40
9.510879003936918
 40
10.5041944490539
 40
11.49466468192271
 40
11.56570439736278
 40
11.63673498255541
 40
11.63673498255541
 40
11.63673498255541
 40
11.63673498255541
 10
533.8247074156027
 20
1234.893670697286
 30
0.0
 10
533.8013686471792
 20
1234.887596091585
 30
0.0
 10
533.7546929185676
 20
1234.875447350828
 30
0.0
 10
533.6118569099899
 20
1234.837365575442
 30
0.0
 10
533.3967472425138
 20
1234.777298780094
 30
0.0
 10
532.7964179929936
 20
1234.596897568219
 30
0.0
 10
531.8968888425705
 20
1234.275152585642
 30
0.0
 10
530.7305242366531
 20
1233.743561046242
 30
0.0
 10
529.6154508926438
 20
1233.116777019048
 30
0.0
 10
528.4059633117452
 20
1232.294789558995
 30
0.0
 10
527.1473337366242
 20
1231.232796730731
 30
0.0
 10
526.0931945233579
 20
1230.09232593336
 30
0.0
 10
525.3250843213509
 20
1229.081260880884
 30
0.0
 10
524.9486835739935
 20
1228.508241446281
 30
0.0
 10
524.7530482998108
 20
1228.185376179137
 30
0.0
 10
524.7287569364862
 20
1228.144723856228
 30
0.0
 10
524.7166120353745
 20
1228.124399001048
 30
0.0
 11
533.8247074156027
 21
1234.893670697286
 31
0.0
 11
533.7547093040229
 21
1234.875377834474
 31
0.0
 11
533.6848035648201
 21
1234.856756851176
 31
0.0
 11
533.3970387153163
 21
1234.776366061591
 31
0.0
 11
533.1108446624227
 21
1234.690369408796
 31
0.0
 11
531.9029453036039
 21
1234.258195471162
 31
0.0
 11
530.7378380728311
 21
1233.727066989395
 31
0.0
 11
529.6241145978157
 21
1233.100901980589
 31
0.0
 11
528.5699856698022
 21
1232.384319314979
 31
0.0
 11
527.1717401019393
 21
1231.20386477785
 31
0.0
 11
525.934580247203
 21
1229.864909858102
 31
0.0
 11
525.3337585754269
 21
1229.073904869349
 31
0.0
 11
524.7899105938428
 21
1228.246100148943
 31
0.0
 11
524.7531092027571
 21
1228.185335860221
 31
0.0
 11
524.7166120353745
 21
1228.124399001048
 31
0.0
  0
SPLINE
  5
138
330
49
100
AcDbEntity
  8
0
  6
Continuous
 62
     3
100
AcDbSpline
210
0.0
220
0.0
230
1.0
 70
     8
 71
     3
 72
    21
 73
    17
 74
    15
 42
0.0000000001
 43
0.0000000001
 44
0.00000001
 40
0.0
 40
0.0
 40
0.0
 40
0.0
 40
0.0723485340552837
 40
0.1446906951290237
 40
0.4434603524650365
 40
0.7422667240333145
 40
2.024814366344759
 40
3.304473740713741
 40
4.580764051691262
 40
5.853301568106969
 40
7.67878286827552
 40
9.495518431692552
 40
10.4845893754703
 40
11.47024267152404
 40
11.54091468724422
 40
11.61157466731336
 40
11.61157466731336
 40
11.61157466731336
 40
11.61157466731336
 10
533.8247074156027
 20
1235.161485723527
 30
0.0
 10
533.8013686988286
 20
1235.15541141785
 30
0.0
 10
533.754693321123
 20
1235.143263341563
 30
0.0
 10
533.611859779684
 20
1235.105191575309
 30
0.0
 10
533.3967547159473
 20
1235.045163067266
 30
0.0
 10
532.7964891030359
 20
1234.864991351023
 30
0.0
 10
531.8971046458787
 20
1234.544057464816
 30
0.0
 10
530.7307895341066
 20
1234.014442021206
 30
0.0
 10
529.6157533355823
 20
1233.390550326908
 30
0.0
 10
528.4064590477611
 20
1232.573011482496
 30
0.0
 10
527.148017896185
 20
1231.51748777051
 30
0.0
 10
526.0935741266583
 20
1230.384126866959
 30
0.0
 10
525.3252544123909
 20
1229.379651878337
 30
0.0
 10
524.9487373615625
 20
1228.810475285419
 30
0.0
 10
524.7530491280525
 20
1228.489809433315
 30
0.0
 10
524.728757043373
 20
1228.449444503482
 30
0.0
 10
524.7166120353746
 20
1228.429263757278
 30
0.0
 11
533.8247074156027
 21
1235.161485723527
 31
0.0
 11
533.7547093040229
 21
1235.143194338801
 31
0.0
 11
533.6848035648201
 21
1235.124577789837
 31
0.0
 11
533.3970387153163
 21
1235.044236645118
 31
0.0
 11
533.1108446624227
 21
1234.958340127271
 31
0.0
 11
531.9029453036039
 21
1234.527170098438
 31
0.0
 11
530.7378380728311
 21
1233.997969517173
 31
0.0
 11
529.6241145978157
 21
1233.374642172117
 31
0.0
 11
528.5699856698022
 21
1232.661785991804
 31
0.0
 11
527.1717401019393
 21
1231.488205441004
 31
0.0
 11
525.9345802472031
 21
1230.157805651011
 31
0.0
 11
525.3337585754269
 21
1229.372137368242
 31
0.0
 11
524.7899105938428
 21
1228.550102215132
 31
0.0
 11
524.7531092027571
 21
1228.489768216258
 31
0.0
 11
524.7166120353746
 21
1228.429263757278
 31
0.0
  0
SPLINE
  5
139
330
49
100
AcDbEntity
  8
0
  6
Continuous
 62
     3
100
AcDbSpline
210
0.0
220
0.0
230
1.0
 70
     8
 71
     3
 72
    21
 73
    17
 74
    15
 42
0.0000000001
 43
0.0000000001
 44
0.00000001
 40
0.0
 40
0.0
 40
0.0
 40
0.0
 40
0.0675256330596507
 40
0.1350460713528734
 40
0.4139106841163691
 40
0.6928245329917755
 40
1.890195624727366
 40
3.085316253036996
 40
4.277862551980297
 40
5.467585997813567
 40
7.175648179269023
 40
8.87733331891242
 40
9.804569477798832
 40
10.72916911305478
 40
10.79548509989936
 40
10.86179264802452
 40
10.86179264802452
 40
10.86179264802452
 40
10.86179264802452
 10
534.0790094865893
 20
1233.718161698032
 30
0.0
 10
534.0572266422057
 20
1233.712492061072
 30
0.0
 10
534.0136626291994
 20
1233.701153223319
 30
0.0
 10
533.8803489435213
 20
1233.66560990524
 30
0.0
 10
533.6795797476177
 20
1233.609546269453
 30
0.0
 10
533.119270288063
 20
1233.441164141179
 30
0.0
 10
532.2797048872701
 20
1233.140841793152
 30
0.0
 10
531.1910963144271
 20
1232.644623783387
 30
0.0
 10
530.150359943384
 20
1232.059528985089
 30
0.0
 10
529.0214984223528
 20
1231.29219230145
 30
0.0
 10
527.8467711784667
 20
1230.300783362025
 30
0.0
 10
526.8629180918656
 20
1229.236106936812
 30
0.0
 10
526.1460222333527
 20
1228.292226587496
 30
0.0
 10
525.7947186559454
 20
1227.757280381399
 30
0.0
 10
525.6121275497125
 20
1227.455866132035
 30
0.0
 10
525.5894556467949
 20
1227.417914395039
 30
0.0
 10
525.5781204166328
 20
1227.398939733958
 30
0.0
 11
534.0790094865893
 21
1233.718161698032
 31
0.0
 11
534.0136779396405
 21
1233.701088324218
 31
0.0
 11
533.9484325970457
 21
1233.68370859876
 31
0.0
 11
533.6798520494427
 21
1233.608675528044
 31
0.0
 11
533.4127375425628
 21
1233.528408627589
 31
0.0
 11
532.2853647756074
 21
1233.125012822391
 31
0.0
 11
531.1979313922828
 21
1232.629228642487
 31
0.0
 11
530.1584562118629
 21
1232.044713437882
 31
0.0
 11
529.1746024827893
 21
1231.37577867473
 31
0.0
 11
527.8695731546161
 21
1230.273791892447
 31
0.0
 11
526.7148907550302
 21
1229.023815544443
 31
0.0
 11
526.1541238152078
 21
1228.285366268224
 31
0.0
 11
525.6465323639487
 21
1227.512556198333
 31
0.0
 11
525.6121844168283
 21
1227.455828527486
 31
0.0
 11
525.5781204166328
 21
1227.398939733958
 31
0.0
  0
SPLINE
  5
13A
330
49
100
AcDbEntity
  8
0
  6
Continuous
 62
     3
100
AcDbSpline
210
0.0
220
0.0
230
1.0
 70
     8
 71
     3
 72
    39
 73
    35
 74
    33
 42
0.0000000001
 43
0.0000000001
 44
0.00000001
 40
0.0
 40
0.0
 40
0.0
 40
0.0
 40
0.0115360719159392
 40
0.0244915996864429
 40
0.0390729586262714
 40
0.0554449819661754
 40
0.073737134269356
 40
0.094046796013888
 40
0.116443686359321
 40
0.1409706521058917
 40
0.1676465389268204
 40
0.1964656431679809
 40
0.2274000967929256
 40
0.2603990287900693
 40
0.2953910758727858
 40
0.3322838875712184
 40
0.3709669816534946
 40
0.4113119270331367
 40
0.4531755074676779
 40
0.4964006955174093
 40
0.5408199299860065
 40
0.5862568224600114
 40
0.6325292747307301
 40
0.6794517354648654
 40
0.7268378762512271
 40
0.77450314688834
 40
0.8222667816087162
 40
0.8699543889361667
 40
0.9173991531493932
 40
0.9644442297949014
 40
1.010943116199919
 40
1.056761689295542
 40
1.101777818121057
 40
1.145882957032345
 40
1.145882957032345
 40
1.145882957032345
 40
1.145882957032345
 10
524.7166120353745
 20
1228.124399001048
 30
0.0
 10
524.7168856674617
 20
1228.120557675108
 30
0.0
 10
524.7174666006933
 20
1228.112402367314
 30
0.0
 10
524.7205705956519
 20
1228.099699194909
 30
0.0
 10
524.7253525303308
 20
1228.085855028602
 30
0.0
 10
524.7320908752257
 20
1228.070862949326
 30
0.0
 10
524.7407814656731
 20
1228.054717125156
 30
0.0
 10
524.7514955057443
 20
1228.037422964574
 30
0.0
 10
524.7642690663292
 20
1228.018998335054
 30
0.0
 10
524.7791287488285
 20
1227.999468572652
 30
0.0
 10
524.7960883876708
 20
1227.978873039921
 30
0.0
 10
524.8151421066849
 20
1227.957257372774
 30
0.0
 10
524.8362718156844
 20
1227.934681319976
 30
0.0
 10
524.8594380878176
 20
1227.911209776177
 30
0.0
 10
524.8845887177274
 20
1227.886920953991
 30
0.0
 10
524.9116505553726
 20
1227.86189667043
 30
0.0
 10
524.9405381640147
 20
1227.83623039702
 30
0.0
 10
524.9711469695478
 20
1227.810017185071
 30
0.0
 10
525.0033618660085
 20
1227.783361319269
 30
0.0
 10
525.037051673103
 20
1227.756366273127
 30
0.0
 10
525.0720775441914
 20
1227.729141807099
 30
0.0
 10
525.1082885987148
 20
1227.701794338451
 30
0.0
 10
525.1455299308079
 20
1227.67443340787
 30
0.0
 10
525.1836392076507
 20
1227.647162810932
 30
0.0
 10
525.2224540459481
 20
1227.620086410628
 30
0.0
 10
525.2618093370155
 20
1227.593300313205
 30
0.0
 10
525.3015437606032
 20
1227.566898014953
 30
0.0
 10
525.3414976450646
 20
1227.540963879562
 30
0.0
 10
525.3815183004675
 20
1227.515577367865
 30
0.0
 10
525.421458780118
 20
1227.490808888396
 30
0.0
 10
525.4611799041108
 20
1227.466719490476
 30
0.0
 10
525.5005572535752
 20
1227.443372365275
 30
0.0
 10
525.5394527188753
 20
1227.420779611346
 30
0.0
 10
525.5653193194339
 20
1227.406169913396
 30
0.0
 10
525.5781204166328
 20
1227.398939733958
 30
0.0
 11
524.7166120353745
 21
1228.124399001048
 31
0.0
 11
524.7177357066691
 21
1228.112917785169
 31
0.0
 11
524.720621034864
 21
1228.100287639444
 31
0.0
 11
524.7253493364306
 21
1228.086494191984
 31
0.0
 11
524.7319924916028
 21
1228.071530514709
 31
0.0
 11
524.7406147178474
 21
1228.055397937405
 31
0.0
 11
524.7512674414734
 21
1228.038106267748
 31
0.0
 11
524.7639917028845
 21
1228.019674939291
 31
0.0
 11
524.77881282803
 21
1228.000132516254
 31
0.0
 11
524.7957433682407
 21
1227.979517964455
 31
0.0
 11
524.8147779779713
 21
1227.957879470939
 31
0.0
 11
524.8358968819007
 21
1227.935275658918
 31
0.0
 11
524.8590612876634
 21
1227.911773747961
 31
0.0
 11
524.8842173715345
 21
1227.887450614871
 31
0.0
 11
524.9112924870408
 21
1227.86239033404
 31
0.0
 11
524.9401995972003
 21
1227.83668506707
 31
0.0
 11
524.9708344539561
 21
1227.810432064018
 31
0.0
 11
525.0030803182342
 21
1227.783734431094
 31
0.0
 11
525.0368061765926
 21
1227.756697727154
 31
0.0
 11
525.0718715120078
 21
1227.729430702326
 31
0.0
 11
525.1081255075728
 21
1227.702041671615
 31
0.0
 11
525.1454115855264
 21
1227.674639331752
 31
0.0
 11
525.1835674454824
 21
1227.647329119882
 31
0.0
 11
525.2224290910517
 21
1227.6202142007
 31
0.0
 11
525.2618314815517
 21
1227.593392014961
 31
0.0
 11
525.3016118155199
 21
1227.566955490396
 31
0.0
 11
525.3416105501167
 21
1227.540989953173
 31
0.0
 11
525.3816737968476
 21
1227.515574565853
 31
0.0
 11
525.4216544798737
 21
1227.490779723217
 31
0.0
 11
525.4614138013395
 21
1227.466668671944
 31
0.0
 11
525.5008223569167
 21
1227.443295452486
 31
0.0
 11
525.5397607244614
 21
1227.42070661924
 31
0.0
 11
525.5781204166328
 21
1227.398939733958
 31
0.0
  0
SPLINE
  5
13B
330
49
100
AcDbEntity
  8
0
  6
Continuous
 62
     3
100
AcDbSpline
210
0.0
220
0.0
230
1.0
 70
     8
 71
     3
 72
    15
 73
    11
 74
     9
 42
0.0000000001
 43
0.0000000001
 44
0.00000001
 40
0.0
 40
0.0
 40
0.0
 40
0.0
 40
0.0043351511172967
 40
0.0085862080582606
 40
0.012763935760753
 40
0.0168807268283858
 40
0.0209505990114973
 40
0.0249891308786468
 40
0.0290133350459824
 40
0.0330414577863012
 40
0.0330414577863012
 40
0.0330414577863012
 40
0.0330414577863012
 10
524.7166120353746
 20
1228.429263757278
 30
0.0
 10
524.7166670143013
 20
1228.430708127718
 30
0.0
 10
524.7167759056615
 20
1228.433568850396
 30
0.0
 10
524.7172367377115
 20
1228.437801930245
 30
0.0
 10
524.717921362431
 20
1228.441929577245
 30
0.0
 10
524.7188546336691
 20
1228.445946978627
 30
0.0
 10
524.7200341077996
 20
1228.449851054662
 30
0.0
 10
524.721471470969
 20
1228.453633861243
 30
0.0
 10
524.7231476184961
 20
1228.457304796112
 30
0.0
 10
524.7244807571543
 20
1228.459635772957
 30
0.0
 10
524.7251476508618
 20
1228.460801828551
 30
0.0
 11
524.7166120353746
 21
1228.429263757278
 31
0.0
 11
524.7168282385721
 21
1228.433593513782
 31
0.0
 11
524.7172789783584
 21
1228.4378206072
 31
0.0
 11
524.7179686859048
 21
1228.441941009153
 31
0.0
 11
524.718901645852
 21
1228.445950691738
 31
0.0
 11
524.7200820570073
 21
1228.449845622943
 31
0.0
 11
524.7215139455724
 21
1228.453621789621
 31
0.0
 11
524.7232012350303
 21
1228.45727518167
 31
0.0
 11
524.7251476508618
 21
1228.460801828551
 31
0.0
  0
SPLINE
  5
13C
330
49
100
AcDbEntity
  8
0
  6
Continuous
 62
     7
100
AcDbSpline
210
0.0
220
0.0
230
1.0
 70
     8
 71
     3
 72
    21
 73
    17
 74
    15
 42
0.0000000001
 43
0.0000000001
 44
0.00000001
 40
0.0
 40
0.0
 40
0.0
 40
0.0
 40
0.6812126238639472
 40
1.436212247318084
 40
2.193163609550615
 40
2.875673231626878
 40
4.31939294740388
 40
5.774504463776948
 40
6.47046484213373
 40
7.229807715351151
 40
7.987856527714885
 40
8.686216915107934
 40
9.447305441018663
 40
10.14712618039228
 40
10.84675526074587
 40
11.61565348875436
 40
11.61565348875436
 40
11.61565348875436
 40
11.61565348875436
 10
524.7251476508618
 20
1228.460801828551
 30
0.0
 10
524.8446725792451
 20
1228.653918217154
 30
0.0
 10
525.0966690337882
 20
1229.06106880825
 30
0.0
 10
525.5197763609362
 20
1229.657838238239
 30
0.0
 10
525.9714736469243
 20
1230.23355443322
 30
0.0
 10
526.6021503907405
 20
1230.959144610501
 30
0.0
 10
527.4497461277476
 20
1231.802671765964
 30
0.0
 10
528.3792727817586
 20
1232.562092512444
 30
0.0
 10
529.1728708975826
 20
1233.120580872197
 30
0.0
 10
529.7963197758837
 20
1233.515702192634
 30
0.0
 10
530.4394747870513
 20
1233.879457382036
 30
0.0
 10
531.0997960985255
 20
1234.212176003566
 30
0.0
 10
531.7575466459889
 20
1234.505245953643
 30
0.0
 10
532.4290133387436
 20
1234.766125109859
 30
0.0
 10
533.1135336315324
 20
1234.999382065927
 30
0.0
 10
533.5857292992678
 20
1235.128807966182
 30
0.0
 10
533.8329636612901
 20
1235.196573369521
 30
0.0
 11
524.7251476508618
 21
1228.460801828551
 31
0.0
 11
525.0893645167348
 21
1229.036472492668
 31
0.0
 11
525.5242686508825
 21
1229.653629543602
 31
0.0
 11
525.9919344599557
 21
1230.248830396936
 31
0.0
 11
526.4395680983253
 21
1230.764042498916
 31
0.0
 11
527.4628009554176
 21
1231.782532134548
 31
0.0
 11
528.5894492877367
 21
1232.703408380503
 31
0.0
 11
529.1585838347337
 21
1233.103966385862
 31
0.0
 11
529.7999478918628
 21
1233.510480525012
 31
0.0
 11
530.4597644732164
 21
1233.883682991372
 31
0.0
 11
531.0834026194506
 21
1234.197980133009
 31
0.0
 11
531.7786561364752
 21
1234.507622331906
 31
0.0
 11
532.4307879484295
 21
1234.761538001164
 31
0.0
 11
533.0936181883247
 21
1234.985450759078
 31
0.0
 11
533.8329636612901
 21
1235.196573369521
 31
0.0
  0
SPLINE
  5
13D
330
49
100
AcDbEntity
  8
0
  6
Continuous
 62
     7
100
AcDbSpline
210
0.0
220
0.0
230
1.0
 70
     8
 71
     3
 72
    21
 73
    17
 74
    15
 42
0.0000000001
 43
0.0000000001
 44
0.00000001
 40
0.0
 40
0.0
 40
0.0
 40
0.0
 40
0.1718782057662813
 40
0.3456114787802627
 40
0.444931078734382
 40
0.5693581785463337
 40
0.647785601654069
 40
0.7282881481071636
 40
0.8067824716612317
 40
0.8872712935706863
 40
1.058178677132359
 40
1.20015676687714
 40
1.355494245547708
 40
1.515051303639456
 40
1.65888903685534
 40
1.781462292448001
 40
1.781462292448001
 40
1.781462292448001
 40
1.781462292448001
 10
513.194069968217
 20
1148.860052101858
 30
0.0
 10
513.1978202315512
 20
1148.802574447146
 30
0.0
 10
513.2053612345018
 20
1148.686998786152
 30
0.0
 10
513.2624959467039
 20
1148.547397766261
 30
0.0
 10
513.3327645028488
 20
1148.434958572315
 30
0.0
 10
513.3981384725321
 20
1148.357699554803
 30
0.0
 10
513.4669803466165
 20
1148.292916391661
 30
0.0
 10
513.5289808096599
 20
1148.243578852375
 30
0.0
 10
513.5951243973441
 20
1148.198758933848
 30
0.0
 10
513.6903732564639
 20
1148.143655704386
 30
0.0
 10
513.8104890295365
 20
1148.089978065083
 30
0.0
 10
513.9594375450073
 20
1148.042661412415
 30
0.0
 10
514.1085988589231
 20
1148.010687149965
 30
0.0
 10
514.2606609402671
 20
1147.992957310446
 30
0.0
 10
514.4027540549287
 20
1147.987719312804
 30
0.0
 10
514.4914729630968
 20
1147.992225329989
 30
0.0
 10
514.5322917200685
 20
1147.99429850722
 30
0.0
 11
513.194069968217
 21
1148.860052101858
 31
0.0
 11
513.2144321125656
 21
1148.689384293836
 31
0.0
 11
513.2773987025374
 21
1148.5274631442
 31
0.0
 11
513.3300699718159
 21
1148.443260291946
 31
0.0
 11
513.4101208613274
 21
1148.348002965425
 31
0.0
 11
513.4671800557085
 21
1148.294196748016
 31
0.0
 11
513.5301187602447
 21
1148.244003327563
 31
0.0
 11
513.5950594651775
 21
1148.199911790132
 31
0.0
 11
513.6646950832464
 21
1148.159546815853
 31
0.0
 11
513.8205143915936
 21
1148.089335157974
 31
0.0
 11
513.9557551319111
 21
1148.046118030282
 31
0.0
 11
514.1076043702104
 21
1148.013383627773
 31
0.0
 11
514.2660473156169
 21
1147.994561092401
 31
0.0
 11
514.4098037701955
 21
1147.98972629523
 31
0.0
 11
514.5322917200685
 21
1147.99429850722
 31
0.0
  0
SPLINE
  5
13E
330
49
100
AcDbEntity
  8
0
  6
Continuous
 62
     7
100
AcDbSpline
210
0.0
220
0.0
230
1.0
 70
     8
 71
     3
 72
    20
 73
    16
 74
    14
 42
0.0000000001
 43
0.0000000001
 44
0.00000001
 40
0.0
 40
0.0
 40
0.0
 40
0.0
 40
0.0096240423717757
 40
0.0192559399509032
 40
0.1323269272514628
 40
0.2478412522933783
 40
0.3673722836743593
 40
0.4356963910562491
 40
0.5167169390074186
 40
0.6104452302273073
 40
0.7702077838995428
 40
0.9371239928793178
 40
1.111362863819702
 40
1.166818901613019
 40
1.227318214377304
 40
1.227318214377304
 40
1.227318214377304
 40
1.227318214377304
 10
513.194069968217
 20
1150.547311278916
 30
0.0
 10
513.194059449056
 20
1150.5505193658
 30
0.0
 10
513.1940384021481
 20
1150.556938158031
 30
0.0
 10
513.1946705691267
 20
1150.601042113433
 30
0.0
 10
513.2028805284756
 20
1150.680429262275
 30
0.0
 10
513.2331132198337
 20
1150.792912922425
 30
0.0
 10
513.2738121628367
 20
1150.885902385095
 30
0.0
 10
513.3184015556129
 20
1150.963725971152
 30
0.0
 10
513.3642343424273
 20
1151.03066475251
 30
0.0
 10
513.4350373901271
 20
1151.116980655895
 30
0.0
 10
513.5360597608721
 20
1151.214764718702
 30
0.0
 10
513.6701570459967
 20
1151.31491988982
 30
0.0
 10
513.7849231090876
 20
1151.381152012665
 30
0.0
 10
513.8718183209224
 20
1151.423690011543
 30
0.0
 10
513.9072477436087
 20
1151.43915294306
 30
0.0
 10
513.9257329253087
 20
1151.447220675387
 30
0.0
 11
513.194069968217
 21
1150.547311278916
 31
0.0
 11
513.194066647316
 21
1150.556935320715
 31
0.0
 11
513.1941988540566
 21
1150.566566310921
 31
0.0
 11
513.205726127462
 21
1150.679048176735
 31
0.0
 11
513.235450169697
 21
1150.790672728707
 31
0.0
 11
513.2830913857355
 21
1150.900299285697
 31
0.0
 11
513.3170061755801
 21
1150.959611769032
 31
0.0
 11
513.3627061650665
 21
1151.026513489124
 31
0.0
 11
513.4220528982255
 21
1151.099059735328
 31
0.0
 11
513.5364821029729
 21
1151.210549782672
 31
0.0
 11
513.6699659302307
 21
1151.310764994495
 31
0.0
 11
513.8206260624444
 21
1151.398290469118
 31
0.0
 11
513.8704701036468
 21
1151.422599802394
 31
0.0
 11
513.9257329253087
 21
1151.447220675387
 31
0.0
  0
SPLINE
  5
13F
330
49
100
AcDbEntity
  8
0
  6
Continuous
 62
     7
100
AcDbSpline
210
0.0
220
0.0
230
1.0
 70
     8
 71
     3
 72
    11
 73
     7
 74
     5
 42
0.0000000001
 43
0.0000000001
 44
0.00000001
 40
0.0
 40
0.0
 40
0.0
 40
0.0
 40
0.0084549176731877
 40
0.0175026675157175
 40
0.0273061122695493
 40
0.0380620579140124
 40
0.0380620579140124
 40
0.0380620579140124
 40
0.0380620579140124
 10
513.194069968217
 20
1209.225292646785
 30
0.0
 10
513.1941445280047
 20
1209.228117384485
 30
0.0
 10
513.1942988754772
 20
1209.233964921586
 30
0.0
 10
513.1965225717715
 20
1209.242851607871
 30
0.0
 10
513.2000777532035
 20
1209.252084669455
 30
0.0
 10
513.2034528273246
 20
1209.258059681318
 30
0.0
 10
513.2052185466912
 20
1209.261185596123
 30
0.0
 11
513.194069968217
 21
1209.225292646785
 31
0.0
 11
513.1945902364263
 21
1209.233731542083
 31
0.0
 11
513.1966288378707
 21
1209.242546636034
 31
0.0
 11
513.2001694530526
 21
1209.251688384946
 31
0.0
 11
513.2052185466912
 21
1209.261185596123
 31
0.0
  0
SPLINE
  5
140
330
49
100
AcDbEntity
  8
0
  6
Continuous
 62
     7
100
AcDbSpline
210
0.0
220
0.0
230
1.0
 70
     8
 71
     3
 72
    21
 73
    17
 74
    15
 42
0.0000000001
 43
0.0000000001
 44
0.00000001
 40
0.0
 40
0.0
 40
0.0
 40
0.0
 40
0.0586436098099334
 40
0.1265070749716375
 40
0.1938350221036633
 40
0.2533998306640834
 40
0.329493991344561
 40
0.4293277182397656
 40
0.4947505944989015
 40
0.5638549700123916
 40
0.6373475181362722
 40
0.7055497301717502
 40
0.9905344486453054
 40
1.310264791640522
 40
1.431884083616484
 40
1.579092726681491
 40
1.579092726681491
 40
1.579092726681491
 40
1.579092726681491
 10
513.194069968217
 20
1069.322018632131
 30
0.0
 10
513.1947653113468
 20
1069.341596322377
 30
0.0
 10
513.1962653183502
 20
1069.383829676289
 30
0.0
 10
513.2128472361009
 20
1069.446884207733
 30
0.0
 10
513.2405902452645
 20
1069.505920362708
 30
0.0
 10
513.279494582032
 20
1069.561601760919
 30
0.0
 10
513.3342826129248
 20
1069.618300142858
 30
0.0
 10
513.3995494664524
 20
1069.666061280965
 30
0.0
 10
513.4678452627176
 20
1069.70414799875
 30
0.0
 10
513.5311341876604
 20
1069.732675238836
 30
0.0
 10
513.5972807843176
 20
1069.756568831442
 30
0.0
 10
513.7340030478703
 20
1069.796013196951
 30
0.0
 10
513.957616301564
 20
1069.827725987686
 30
0.0
 10
514.2004417492112
 20
1069.822946151564
 30
0.0
 10
514.3956152379449
 20
1069.802202238108
 30
0.0
 10
514.4839306851712
 20
1069.786872216009
 30
0.0
 10
514.5322917200685
 20
1069.778477583394
 30
0.0
 11
513.194069968217
 21
1069.322018632131
 31
0.0
 11
513.1981592326254
 21
1069.380519494416
 31
0.0
 11
513.2148315262573
 21
1069.446303113417
 31
0.0
 11
513.2434540356555
 21
1069.507244104718
 31
0.0
 11
513.2773987025374
 21
1069.556190258899
 31
0.0
 11
513.3300026770571
 21
1069.611173375893
 31
0.0
 11
513.4101208613274
 21
1069.670737203633
 31
0.0
 11
513.4671806890656
 21
1069.702742340666
 31
0.0
 11
513.5301187602447
 21
1069.73127677445
 31
0.0
 11
513.599194075306
 21
1069.756371703797
 31
0.0
 11
513.6646950832466
 21
1069.775375905577
 31
0.0
 11
513.9463404217148
 21
1069.818875251349
 31
0.0
 11
514.2660473156169
 21
1069.815003013841
 31
0.0
 11
514.3869593269271
 21
1069.801905773611
 31
0.0
 11
514.5322917200685
 21
1069.778477583394
 31
0.0
  0
SPLINE
  5
141
330
49
100
AcDbEntity
  8
0
  6
Continuous
 62
     7
100
AcDbSpline
210
0.0
220
0.0
230
1.0
 70
     8
 71
     3
 72
    11
 73
     7
 74
     5
 42
0.0000000001
 43
0.0000000001
 44
0.00000001
 40
0.0
 40
0.0
 40
0.0
 40
0.0
 40
0.0761783135129103
 40
0.1769257733044231
 40
0.2625758947250241
 40
0.3768933052375881
 40
0.3768933052375881
 40
0.3768933052375881
 40
0.3768933052375881
 10
513.194069968217
 20
1068.086859188988
 30
0.0
 10
513.1954100743299
 20
1068.061416545431
 30
0.0
 10
513.19852249963
 20
1068.002325457973
 30
0.0
 10
513.2268611442353
 20
1067.918393752287
 30
0.0
 10
513.2727922240128
 20
1067.828999597041
 30
0.0
 10
513.3135994759742
 20
1067.776080626516
 30
0.0
 10
513.3369281600325
 20
1067.745827916893
 30
0.0
 11
513.194069968217
 21
1068.086859188988
 31
0.0
 11
513.2010532211233
 21
1068.011001627542
 31
0.0
 11
513.2309308257467
 21
1067.914786351227
 31
0.0
 11
513.2702966632207
 21
1067.838718788236
 31
0.0
 11
513.3369281600325
 21
1067.745827916893
 31
0.0
  0
SPLINE
  5
142
330
49
100
AcDbEntity
  8
0
  6
Continuous
 62
     7
100
AcDbSpline
210
0.0
220
0.0
230
1.0
 70
     8
 71
     3
 72
     9
 73
     5
 74
     3
 42
0.0000000001
 43
0.0000000001
 44
0.00000001
 40
0.0
 40
0.0
 40
0.0
 40
0.0
 40
0.845027886754146
 40
1.687270615836761
 40
1.687270615836761
 40
1.687270615836761
 40
1.687270615836761
 10
513.194069968217
 20
1148.860052101858
 30
0.0
 10
513.1956249107061
 20
1149.141726163951
 30
0.0
 10
513.1987296706936
 20
1149.704145908508
 30
0.0
 10
513.1956214921647
 20
1150.266565615302
 30
0.0
 10
513.194069968217
 20
1150.547311278916
 30
0.0
 11
513.194069968217
 21
1148.860052101858
 31
0.0
 11
513.1971764290108
 21
1149.705074278664
 31
0.0
 11
513.194069968217
 21
1150.547311278916
 31
0.0
  0
SPLINE
  5
143
330
49
100
AcDbEntity
  8
0
  6
Continuous
 62
     7
100
AcDbSpline
210
0.0
220
0.0
230
1.0
 70
     8
 71
     3
 72
    21
 73
    17
 74
    15
 42
0.0000000001
 43
0.0000000001
 44
0.00000001
 40
0.0
 40
0.0
 40
0.0
 40
0.0
 40
0.0216312044177671
 40
0.0490602017875743
 40
0.0827458367616379
 40
0.1188237402914735
 40
0.1857637507206311
 40
0.2530817755628256
 40
0.3101664234011433
 40
0.3731075947190056
 40
0.4381031783540993
 40
0.5079390096581964
 40
0.7914952038085135
 40
1.117256850137577
 40
1.252981272709898
 40
1.390987965451527
 40
1.390987965451527
 40
1.390987965451527
 40
1.390987965451527
 10
513.194069968217
 20
1208.77319291287
 30
0.0
 10
513.1948028748703
 20
1208.765882987942
 30
0.0
 10
513.1964651285108
 20
1208.749303865248
 30
0.0
 10
513.2155431924501
 20
1208.727291015812
 30
0.0
 10
513.2437224830825
 20
1208.711101372328
 30
0.0
 10
513.2870147026997
 20
1208.696184645554
 30
0.0
 10
513.3430828581535
 20
1208.686124771791
 30
0.0
 10
513.406685250681
 20
1208.680838142061
 30
0.0
 10
513.4691334477734
 20
1208.679202165428
 30
0.0
 10
513.5308145211399
 20
1208.680058156216
 30
0.0
 10
513.596677025753
 20
1208.683126425178
 30
0.0
 10
513.7357683648188
 20
1208.693494335412
 30
0.0
 10
513.9604295611856
 20
1208.723225428274
 30
0.0
 10
514.2043693402734
 20
1208.77032893379
 30
0.0
 10
514.399236740988
 20
1208.814660208773
 30
0.0
 10
514.4876942183175
 20
1208.837048788556
 30
0.0
 10
514.5322917200684
 20
1208.848336412352
 30
0.0
 11
513.194069968217
 21
1208.77319291287
 31
0.0
 11
513.1981445158849
 21
1208.751948923935
 31
0.0
 11
513.2148315262573
 21
1208.730179826996
 31
0.0
 11
513.2434640504808
 21
1208.712434389267
 31
0.0
 11
513.2773987025374
 21
1208.700184715275
 31
0.0
 11
513.3430665083117
 21
1208.687196094061
 31
0.0
 11
513.4101208613275
 21
1208.681243765921
 31
0.0
 11
513.4671822965364
 21
1208.679615997286
 31
0.0
 11
513.5301187602447
 21
1208.680385791258
 31
0.0
 11
513.5950470954422
 21
1208.683341663473
 31
0.0
 11
513.6646950832466
 21
1208.688460367287
 31
0.0
 11
513.9460223618793
 21
1208.723943849897
 31
0.0
 11
514.2660473156169
 21
1208.784809925869
 31
0.0
 11
514.3983670730465
 21
1208.815019207164
 31
0.0
 11
514.5322917200684
 21
1208.848336412352
 31
0.0
  0
SPLINE
  5
144
330
49
100
AcDbEntity
  8
0
  6
Continuous
 62
     7
100
AcDbSpline
210
0.0
220
0.0
230
1.0
 70
     8
 71
     3
 72
     9
 73
     5
 74
     3
 42
0.0000000001
 43
0.0000000001
 44
0.00000001
 40
0.0
 40
0.0
 40
0.0
 40
0.0
 40
0.2312679415600883
 40
0.4521424446034892
 40
0.4521424446034892
 40
0.4521424446034892
 40
0.4521424446034892
 10
513.194069968217
 20
1208.77319291287
 30
0.0
 10
513.1956475614753
 20
1208.850275443264
 30
0.0
 10
513.198731849196
 20
1209.000976329401
 30
0.0
 10
513.1955999306467
 20
1209.151675250819
 30
0.0
 10
513.194069968217
 20
1209.225292646785
 30
0.0
 11
513.194069968217
 21
1208.77319291287
 31
0.0
 11
513.1971764290109
 21
1209.004439990029
 31
0.0
 11
513.194069968217
 21
1209.225292646785
 31
0.0
  0
SPLINE
  5
145
330
49
100
AcDbEntity
  8
0
  6
Continuous
 62
     7
100
AcDbSpline
210
0.0
220
0.0
230
1.0
 70
     8
 71
     3
 72
     9
 73
     5
 74
     3
 42
0.0000000001
 43
0.0000000001
 44
0.00000001
 40
0.0
 40
0.0
 40
0.0
 40
0.0
 40
0.61378296086199
 40
1.235175069309949
 40
1.235175069309949
 40
1.235175069309949
 40
1.235175069309949
 10
513.194069968217
 20
1068.086859188988
 30
0.0
 10
513.1956168586776
 20
1068.291450873023
 30
0.0
 10
513.1987298166016
 20
1068.703170590938
 30
0.0
 10
513.1956296171473
 20
1069.114890501389
 30
0.0
 10
513.194069968217
 20
1069.322018632131
 30
0.0
 11
513.194069968217
 21
1068.086859188988
 31
0.0
 11
513.1971764290108
 21
1068.700634288634
 31
0.0
 11
513.194069968217
 21
1069.322018632131
 31
0.0
  0
SPLINE
  5
146
330
49
100
AcDbEntity
  8
0
  6
Continuous
 62
     3
100
AcDbSpline
210
0.0
220
0.0
230
1.0
 70
     8
 71
     3
 72
    17
 73
    13
 74
    11
 42
0.0000000001
 43
0.0000000001
 44
0.00000001
 40
0.0
 40
0.0
 40
0.0
 40
0.0
 40
0.1554743709435725
 40
0.3036291752391023
 40
0.4391052285068377
 40
0.5605868620338296
 40
0.6725479468414854
 40
0.7845090316495851
 40
0.9059906651769127
 40
1.041466718444695
 40
1.189621522740278
 40
1.345095893683769
 40
1.345095893683769
 40
1.345095893683769
 40
1.345095893683769
 10
508.8478992018953
 20
1181.59869401394
 30
0.0
 10
508.7959613758897
 20
1181.595431617541
 30
0.0
 10
508.6945309010271
 20
1181.589060414868
 30
0.0
 10
508.5550417052023
 20
1181.538384344272
 30
0.0
 10
508.4420158750498
 20
1181.461532433733
 30
0.0
 10
508.3663568615668
 20
1181.360950990589
 30
0.0
 10
508.3390473427661
 20
1181.245140623347
 30
0.0
 10
508.3663568615667
 20
1181.129330256106
 30
0.0
 10
508.4420158750496
 20
1181.028748812961
 30
0.0
 10
508.5550417052025
 20
1180.951896902423
 30
0.0
 10
508.694530901027
 20
1180.901220831826
 30
0.0
 10
508.7959613758898
 20
1180.894849629153
 30
0.0
 10
508.8478992018953
 20
1180.891587232754
 30
0.0
 11
508.8478992018953
 21
1181.59869401394
 31
0.0
 11
508.6933908277608
 21
1181.581389611535
 31
0.0
 11
508.5540065757491
 21
1181.531171324756
 31
0.0
 11
508.4433910268645
 21
1181.45295392673
 31
0.0
 11
508.3723709437478
 21
1181.354394629459
 31
0.0
 11
508.3478996001029
 21
1181.245140623347
 31
0.0
 11
508.3723709437478
 21
1181.135886617235
 31
0.0
 11
508.4433910268644
 21
1181.037327319964
 31
0.0
 11
508.5540065757491
 21
1180.959109921938
 31
0.0
 11
508.6933908277608
 21
1180.908891635159
 31
0.0
 11
508.8478992018953
 21
1180.891587232754
 31
0.0
  0
SPLINE
  5
147
330
49
100
AcDbEntity
  8
0
  6
Continuous
 62
     3
100
AcDbSpline
210
0.0
220
0.0
230
1.0
 70
     8
 71
     3
 72
    17
 73
    13
 74
    11
 42
0.0000000001
 43
0.0000000001
 44
0.00000001
 40
0.0
 40
0.0
 40
0.0
 40
0.0
 40
0.1554743709435472
 40
0.303629175239077
 40
0.4391052285066811
 40
0.5605868620338574
 40
0.6725479468419571
 40
0.7845090316500567
 40
0.9059906651770154
 40
1.041466718444797
 40
1.189621522740381
 40
1.345095893683897
 40
1.345095893683897
 40
1.345095893683897
 40
1.345095893683897
 10
508.8478992018953
 20
1075.108412767246
 30
0.0
 10
508.7959613758896
 20
1075.105150370847
 30
0.0
 10
508.6945309010271
 20
1075.098779168174
 30
0.0
 10
508.5550417052023
 20
1075.048103097577
 30
0.0
 10
508.4420158750498
 20
1074.971251187039
 30
0.0
 10
508.3663568615665
 20
1074.870669743894
 30
0.0
 10
508.3390473427664
 20
1074.754859376653
 30
0.0
 10
508.3663568615666
 20
1074.639049009412
 30
0.0
 10
508.4420158750499
 20
1074.538467566267
 30
0.0
 10
508.5550417052025
 20
1074.461615655729
 30
0.0
 10
508.694530901027
 20
1074.410939585132
 30
0.0
 10
508.7959613758897
 20
1074.404568382458
 30
0.0
 10
508.8478992018953
 20
1074.40130598606
 30
0.0
 11
508.8478992018953
 21
1075.108412767246
 31
0.0
 11
508.6933908277608
 21
1075.091108364841
 31
0.0
 11
508.5540065757491
 21
1075.040890078062
 31
0.0
 11
508.4433910268645
 21
1074.962672680036
 31
0.0
 11
508.3723709437478
 21
1074.864113382765
 31
0.0
 11
508.3478996001029
 21
1074.754859376653
 31
0.0
 11
508.3723709437478
 21
1074.645605370541
 31
0.0
 11
508.4433910268644
 21
1074.54704607327
 31
0.0
 11
508.5540065757491
 21
1074.468828675244
 31
0.0
 11
508.6933908277608
 21
1074.418610388465
 31
0.0
 11
508.8478992018953
 21
1074.40130598606
 31
0.0
  0
SPLINE
  5
148
330
49
100
AcDbEntity
  8
0
  6
Continuous
 62
     3
100
AcDbSpline
210
0.0
220
0.0
230
1.0
 70
     8
 71
     3
 72
    13
 73
     9
 74
     7
 42
0.0000000001
 43
0.0000000001
 44
0.00000001
 40
0.0
 40
0.0
 40
0.0
 40
0.0
 40
0.2599380615094107
 40
0.5112512282384232
 40
0.7468796114815188
 40
0.9629855088791593
 40
1.160632128148156
 40
1.346789851755228
 40
1.346789851755228
 40
1.346789851755228
 40
1.346789851755228
 10
508.8478992018953
 20
1075.815519548433
 30
0.0
 10
508.7611154557659
 20
1075.810948254561
 30
0.0
 10
508.5904274982495
 20
1075.801957344983
 30
0.0
 10
508.3497311120866
 20
1075.730160438395
 30
0.0
 10
508.1406294164838
 20
1075.619932278473
 30
0.0
 10
507.9790301560425
 20
1075.473425709788
 30
0.0
 10
507.8692698799058
 20
1075.299308332279
 30
0.0
 10
507.8548791695183
 20
1075.170761975944
 30
0.0
 10
507.8478992018953
 20
1075.108412767246
 30
0.0
 11
508.8478992018953
 21
1075.815519548433
 31
0.0
 11
508.5890802257955
 21
1075.791425287043
 31
0.0
 11
508.3478992018954
 21
1075.720785202942
 31
0.0
 11
508.1407926092276
 21
1075.608412633944
 31
0.0
 11
507.9818737981109
 21
1075.461966157839
 31
0.0
 11
507.8819736331277
 21
1075.291425420346
 31
0.0
 11
507.8478992018953
 21
1075.108412767246
 31
0.0
  0
SPLINE
  5
149
330
49
100
AcDbEntity
  8
0
  6
Continuous
 62
     7
100
AcDbSpline
210
0.0
220
0.0
230
1.0
 70
     8
 71
     3
 72
    13
 73
     9
 74
     7
 42
0.0000000001
 43
0.0000000001
 44
0.00000001
 40
0.0
 40
0.0
 40
0.0
 40
0.0
 40
0.2599380615093897
 40
0.5112512282384022
 40
0.7468796114816063
 40
0.9629855088790927
 40
1.160632128147893
 40
1.346789851754295
 40
1.346789851754295
 40
1.346789851754295
 40
1.346789851754295
 10
508.8478992018953
 20
1081.118820407332
 30
0.0
 10
508.7611154557659
 20
1081.11424911346
 30
0.0
 10
508.5904274982495
 20
1081.105258203882
 30
0.0
 10
508.3497311120864
 20
1081.033461297294
 30
0.0
 10
508.140629416484
 20
1080.923233137372
 30
0.0
 10
507.9790301560424
 20
1080.776726568688
 30
0.0
 10
507.8692698799059
 20
1080.602609191178
 30
0.0
 10
507.8548791695183
 20
1080.474062834844
 30
0.0
 10
507.8478992018953
 20
1080.411713626146
 30
0.0
 11
508.8478992018953
 21
1081.118820407332
 31
0.0
 11
508.5890802257955
 21
1081.094726145942
 31
0.0
 11
508.3478992018954
 21
1081.024086061841
 31
0.0
 11
508.1407926092276
 21
1080.911713492842
 31
0.0
 11
507.9818737981109
 21
1080.765267016739
 31
0.0
 11
507.8819736331277
 21
1080.594726279245
 31
0.0
 11
507.8478992018953
 21
1080.411713626146
 31
0.0
  0
SPLINE
  5
14A
330
49
100
AcDbEntity
  8
0
  6
Continuous
 62
     7
100
AcDbSpline
210
0.0
220
0.0
230
1.0
 70
     8
 71
     3
 72
    13
 73
     9
 74
     7
 42
0.0000000001
 43
0.0000000001
 44
0.00000001
 40
0.0
 40
0.0
 40
0.0
 40
0.0
 40
0.2599380615094107
 40
0.5112512282383593
 40
0.7468796114815635
 40
0.9629855088790499
 40
1.160632128148243
 40
1.346789851755091
 40
1.346789851755091
 40
1.346789851755091
 40
1.346789851755091
 10
508.8478992018953
 20
1174.881179592668
 30
0.0
 10
508.7611154557659
 20
1174.88575088654
 30
0.0
 10
508.5904274982496
 20
1174.894741796119
 30
0.0
 10
508.3497311120865
 20
1174.966538702706
 30
0.0
 10
508.1406294164839
 20
1175.076766862627
 30
0.0
 10
507.9790301560424
 20
1175.223273431313
 30
0.0
 10
507.8692698799058
 20
1175.397390808822
 30
0.0
 10
507.8548791695183
 20
1175.525937165157
 30
0.0
 10
507.8478992018953
 20
1175.588286373855
 30
0.0
 11
508.8478992018953
 21
1174.881179592668
 31
0.0
 11
508.5890802257955
 21
1174.905273854058
 31
0.0
 11
508.3478992018954
 21
1174.975913938159
 31
0.0
 11
508.1407926092276
 21
1175.088286507158
 31
0.0
 11
507.9818737981109
 21
1175.234732983261
 31
0.0
 11
507.8819736331277
 21
1175.405273720755
 31
0.0
 11
507.8478992018953
 21
1175.588286373855
 31
0.0
  0
SPLINE
  5
14B
330
49
100
AcDbEntity
  8
0
  6
Continuous
 62
     7
100
AcDbSpline
210
0.0
220
0.0
230
1.0
 70
     8
 71
     3
 72
    23
 73
    19
 74
    17
 42
0.0000000001
 43
0.0000000001
 44
0.00000001
 40
0.0
 40
0.0
 40
0.0
 40
0.0
 40
0.0666508041294019
 40
0.142322107930221
 40
0.2172401383834381
 40
0.2827582737228473
 40
0.3956822344584218
 40
0.5342091071153119
 40
0.6536982667873739
 40
0.7711568727333066
 40
0.8578806106327656
 40
0.9319266562442422
 40
1.011261305873597
 40
1.08940746962403
 40
1.181861815138979
 40
1.273143926063995
 40
1.366809330112289
 40
1.460043093408509
 40
1.460043093408509
 40
1.460043093408509
 40
1.460043093408509
 10
508.8478992018953
 20
1074.254859376653
 30
0.0
 10
508.8256796183098
 20
1074.255216720056
 30
0.0
 10
508.7782332594167
 20
1074.255979769609
 30
0.0
 10
508.7060435268294
 20
1074.262495690166
 30
0.0
 10
508.6347650150319
 20
1074.273188917748
 30
0.0
 10
508.5521218811475
 20
1074.290786524885
 30
0.0
 10
508.4506174436536
 20
1074.320735188745
 30
0.0
 10
508.3364343908274
 20
1074.369114720449
 30
0.0
 10
508.2279022144759
 20
1074.432014146841
 30
0.0
 10
508.1415813554564
 20
1074.497226073269
 30
0.0
 10
508.0741658008329
 20
1074.561122480059
 30
0.0
 10
508.0213025039492
 20
1074.621341649432
 30
0.0
 10
507.9757723268144
 20
1074.68380659767
 30
0.0
 10
507.9333376289198
 20
1074.755640115939
 30
0.0
 10
507.8970890366667
 20
1074.835301859708
 30
0.0
 10
507.8691598779321
 20
1074.923621425568
 30
0.0
 10
507.8512614416406
 20
1075.014975674873
 30
0.0
 10
507.849018221583
 20
1075.077315060406
 30
0.0
 10
507.8478992018953
 20
1075.108412767246
 30
0.0
 11
508.8478992018953
 21
1074.254859376653
 31
0.0
 11
508.7812738253655
 21
1074.256700271369
 31
0.0
 11
508.7058873166333
 21
1074.263259274349
 31
0.0
 11
508.6318101585054
 21
1074.274452394141
 31
0.0
 11
508.5677283362487
 21
1074.288095931608
 31
0.0
 11
508.4594459232652
 21
1074.320138714675
 31
0.0
 11
508.3319700040366
 21
1074.374356649576
 31
0.0
 11
508.2286626422494
 21
1074.434400369312
 31
0.0
 11
508.1350326015556
 21
1074.505322436332
 31
0.0
 11
508.0721294610777
 21
1074.565023371277
 31
0.0
 11
508.0233075029419
 21
1074.620694129081
 31
0.0
 11
507.9766124733936
 21
1074.684831176466
 31
0.0
 11
507.9368897415654
 21
1074.752128483136
 31
0.0
 11
507.8986822553194
 21
1074.836318708218
 31
0.0
 11
507.8710370677302
 21
1074.923313922903
 31
0.0
 11
507.853690488826
 21
1075.015359042903
 31
0.0
 11
507.8478992018953
 21
1075.108412767246
 31
0.0
  0
SPLINE
  5
14C
330
49
100
AcDbEntity
  8
0
  6
Continuous
 62
     3
100
AcDbSpline
210
0.0
220
0.0
230
1.0
 70
     8
 71
     3
 72
    13
 73
     9
 74
     7
 42
0.0000000001
 43
0.0000000001
 44
0.00000001
 40
0.0
 40
0.0
 40
0.0
 40
0.0
 40
0.1861577236070619
 40
0.3838043428760872
 40
0.5999102402737277
 40
0.8355386235168234
 40
1.086851790245781
 40
1.346789851755249
 40
1.346789851755249
 40
1.346789851755249
 40
1.346789851755249
 10
507.8478992018953
 20
1180.891587232754
 30
0.0
 10
507.8548791695183
 20
1180.829238024056
 30
0.0
 10
507.8692698799057
 20
1180.700691667721
 30
0.0
 10
507.9790301560424
 20
1180.526574290211
 30
0.0
 10
508.1406294164839
 20
1180.380067721527
 30
0.0
 10
508.3497311120865
 20
1180.269839561605
 30
0.0
 10
508.5904274982494
 20
1180.198042655017
 30
0.0
 10
508.7611154557658
 20
1180.189051745439
 30
0.0
 10
508.8478992018953
 20
1180.184480451567
 30
0.0
 11
507.8478992018953
 21
1180.891587232754
 31
0.0
 11
507.8819736331276
 21
1180.708574579654
 31
0.0
 11
507.9818737981109
 21
1180.538033842161
 31
0.0
 11
508.1407926092276
 21
1180.391587366056
 31
0.0
 11
508.3478992018954
 21
1180.279214797058
 31
0.0
 11
508.5890802257954
 21
1180.208574712957
 31
0.0
 11
508.8478992018953
 21
1180.184480451567
 31
0.0
  0
SPLINE
  5
14D
330
49
100
AcDbEntity
  8
0
  6
Continuous
 62
     7
100
AcDbSpline
210
0.0
220
0.0
230
1.0
 70
     8
 71
     3
 72
    23
 73
    19
 74
    17
 42
0.0000000001
 43
0.0000000001
 44
0.00000001
 40
0.0
 40
0.0
 40
0.0
 40
0.0
 40
0.0840860654830594
 40
0.1868957258301268
 40
0.2699220878744772
 40
0.3706296407541159
 40
0.4487758045046061
 40
0.5281104541338943
 40
0.6078683600154735
 40
0.6888809657336167
 40
0.8184543914989659
 40
0.9258230450541569
 40
1.064349917711099
 40
1.177273878446619
 40
1.242792013786076
 40
1.317710044239259
 40
1.384178932967182
 40
1.460032164126249
 40
1.460032164126249
 40
1.460032164126249
 40
1.460032164126249
 10
507.8478992018953
 20
1180.891587232754
 30
0.0
 10
507.8488201415586
 20
1180.919628287092
 30
0.0
 10
507.85086708817
 20
1180.981954347581
 30
0.0
 10
507.8677246623919
 20
1181.070760988562
 30
0.0
 10
507.8960834438503
 20
1181.16209517558
 30
0.0
 10
507.9319367034309
 20
1181.241991906635
 30
0.0
 10
507.9757725972975
 20
1181.316192712873
 30
0.0
 10
508.0224243134609
 20
1181.380198411341
 30
0.0
 10
508.0755050197154
 20
1181.440253573344
 30
0.0
 10
508.1460421442161
 20
1181.506692606705
 30
0.0
 10
508.2313262170136
 20
1181.570237965014
 30
0.0
 10
508.3401579437935
 20
1181.632460763319
 30
0.0
 10
508.4506191738276
 20
1181.679266209416
 30
0.0
 10
508.5521217795595
 20
1181.709213011499
 30
0.0
 10
508.6347647807323
 20
1181.726811761376
 30
0.0
 10
508.7030095133925
 20
1181.73704626685
 30
0.0
 10
508.7751609677204
 20
1181.743832857108
 30
0.0
 10
508.8226102310536
 20
1181.744685951019
 30
0.0
 10
508.8478992018953
 20
1181.745140623347
 30
0.0
 11
507.8478992018953
 21
1180.891587232754
 31
0.0
 11
507.8526103642794
 21
1180.975541216325
 31
0.0
 11
507.8710370677302
 21
1181.076686077097
 31
0.0
 11
507.8957569569035
 21
1181.15594706292
 31
0.0
 11
507.9368897415654
 21
1181.247871516864
 31
0.0
 11
507.9766124733937
 21
1181.315168823534
 31
0.0
 11
508.0233075029419
 21
1181.379305870919
 31
0.0
 11
508.0760930094397
 21
1181.439097290491
 31
0.0
 11
508.1350326015556
 21
1181.494677563668
 31
0.0
 11
508.2388146825174
 21
1181.572256892975
 31
0.0
 11
508.3319700040366
 21
1181.625643350424
 31
0.0
 11
508.4594459232653
 21
1181.679861285325
 31
0.0
 11
508.5677283362487
 21
1181.711904068392
 31
0.0
 11
508.6318101585054
 21
1181.725547605859
 31
0.0
 11
508.7058873166333
 21
1181.736740725651
 31
0.0
 11
508.7720834637581
 21
1181.742755979142
 31
0.0
 11
508.8478992018953
 21
1181.745140623347
 31
0.0
  0
ENDBLK
  5
4B
330
49
100
AcDbEntity
  8
0
100
AcDbBlockEnd
  0
BLOCK
  5
50
330
4C
100
AcDbEntity
  8
0
100
AcDbBlockBegin
  2
Bgr_DN125__1
 70
     0
 71
     0
 10
507.8478992018953
 20
878.0
 30
0.0
  3
Bgr_DN125__1
  1

  0
INSERT
  5
4D
330
4C
100
AcDbEntity
  8
0
100
AcDbBlockReference
  2
DN125-Artikel-Dichtmanschette
 10
569.8282703251841
 20
953.0000000000002
 30
0.0
  0
INSERT
  5
4E
330
4C
100
AcDbEntity
  8
0
100
AcDbBlockReference
  2
Dichtmatte
 10
576.2739713482547
 20
878.0
 30
0.0
  0
INSERT
  5
4F
330
4C
100
AcDbEntity
  8
0
100
AcDbBlockReference
  2
MutterDN125-Artikel
 10
507.8478992018953
 20
1007.405845404791
 30
0.0
  0
ENDBLK
  5
51
330
4C
100
AcDbEntity
  8
0
100
AcDbBlockEnd
  0
BLOCK
  5
15E
330
156
100
AcDbEntity
  8
0
100
AcDbBlockBegin
  2
*D5
 70
     1
 71
     0
 10
0.0
 20
0.0
 30
0.0
  3
*D5
  1

  0
LINE
  5
157
330
156
100
AcDbEntity
  8
1
  6
Continuous
 62
     4
100
AcDbLine
 10
493.8478992018953
 20
1190.5
 30
0.0
 11
493.8478992018953
 21
1065.5
 31
0.0
  0
LINE
  5
158
330
156
100
AcDbEntity
  8
1
  6
Continuous
 62
     4
100
AcDbLine
 10
503.8478992018953
 20
1065.5
 30
0.0
 11
491.8478992018953
 21
1065.5
 31
0.0
  0
LINE
  5
159
330
156
100
AcDbEntity
  8
1
  6
Continuous
 62
     4
100
AcDbLine
 10
503.8478992018953
 20
1190.5
 30
0.0
 11
491.8478992018953
 21
1190.5
 31
0.0
  0
SOLID
  5
15A
330
156
100
AcDbEntity
  8
1
 62
     4
100
AcDbTrace
 10
495.1644241777693
 20
1180.5
 30
0.0
 11
492.5313742260213
 21
1180.5
 31
0.0
 12
493.8478992018953
 22
1190.5
 32
0.0
 13
493.8478992018953
 23
1190.5
 33
0.0
  0
SOLID
  5
15B
330
156
100
AcDbEntity
  8
1
 62
     4
100
AcDbTrace
 10
492.5313742260213
 20
1075.5
 30
0.0
 11
495.1644241777693
 21
1075.5
 31
0.0
 12
493.8478992018953
 22
1065.5
 32
0.0
 13
493.8478992018953
 23
1065.5
 33
0.0
  0
MTEXT
  5
15D
330
156
100
AcDbEntity
  8
1
 62
     1
100
AcDbMText
 10
491.8478992018953
 20
1119.80898998508
 30
0.0
 40
10.0
 41
0.0
 71
     7
 72
     1
  1
\C1;DN\C1;125
  7
CONVERTER_12
 11
0.0
 21
1.0
 31
0.0
 73
     1
 44
0.60024009603842
  0
ENDBLK
  5
15F
330
156
100
AcDbEntity
  8
0
100
AcDbBlockEnd
  0
BLOCK
  5
169
330
162
100
AcDbEntity
  8
0
100
AcDbBlockBegin
  2
*D6
 70
     1
 71
     0
 10
0.0
 20
0.0
 30
0.0
  3
*D6
  1

  0
LINE
  5
163
330
162
100
AcDbEntity
  8
1
  6
Continuous
 62
     4
100
AcDbLine
 10
585.2739713482547
 20
943.0000000000002
 30
0.0
 11
508.8478992018953
 21
943.0000000000002
 31
0.0
  0
LINE
  5
164
330
162
100
AcDbEntity
  8
1
  6
Continuous
 62
     4
100
AcDbLine
 10
508.8478992018953
 20
1081.118820407332
 30
0.0
 11
508.8478992018953
 21
941.0000000000002
 31
0.0
  0
LINE
  5
165
330
162
100
AcDbEntity
  8
1
  6
Continuous
 62
     4
100
AcDbLine
 10
585.2739713482547
 20
953.0000000000002
 30
0.0
 11
585.2739713482547
 21
941.0000000000002
 31
0.0
  0
SOLID
  5
166
330
162
100
AcDbEntity
  8
1
 62
     4
100
AcDbTrace
 10
575.2739713482547
 20
941.6834750241263
 30
0.0
 11
575.2739713482547
 21
944.3165249758741
 31
0.0
 12
585.2739713482547
 22
943.0000000000002
 32
0.0
 13
585.2739713482547
 23
943.0000000000002
 33
0.0
  0
SOLID
  5
167
330
162
100
AcDbEntity
  8
1
 62
     4
100
AcDbTrace
 10
518.8478992018953
 20
944.3165249758741
 30
0.0
 11
518.8478992018953
 21
941.6834750241263
 31
0.0
 12
508.8478992018953
 22
943.0000000000002
 32
0.0
 13
508.8478992018953
 23
943.0000000000002
 33
0.0
  0
MTEXT
  5
168
330
162
100
AcDbEntity
  8
1
 62
     1
100
AcDbMText
 10
538.982640951214
 20
945.0000000000002
 30
0.0
 40
10.0
 41
0.0
 71
     7
 72
     1
  1
80
  7
CONVERTER_12
 11
0.9999999999970619
 21
2.424068405545306E-6
 31
0.0
 73
     1
 44
0.60024009603842
  0
ENDBLK
  5
16A
330
162
100
AcDbEntity
  8
0
100
AcDbBlockEnd
  0
ENDSEC
  0
SECTION
  2
ENTITIES
  0
INSERT
  5
52
330
1F
100
AcDbEntity
  8
0
100
AcDbBlockReference
  2
Bgr_DN125__1
 10
507.8478992018953
 20
878.0
 30
0.0
  0
LINE
  5
14E
330
1F
100
AcDbEntity
  8
1
  6
Continuous
 62
     7
100
AcDbLine
 10
506.8478992018953
 20
1065.5
 30
0.0
 11
503.8478992018953
 21
1065.5
 31
0.0
  0
LINE
  5
14F
330
1F
100
AcDbEntity
  8
1
  6
Continuous
 62
     7
100
AcDbLine
 10
506.8478992018953
 20
1190.5
 30
0.0
 11
503.8478992018953
 21
1190.5
 31
0.0
  0
CIRCLE
  5
150
330
1F
100
AcDbEntity
  8
1
  6
Continuous
 62
     1
100
AcDbCircle
 10
524.229579978503
 20
1275.54121194827
 30
0.0
 40
7.700000000000045
  0
CIRCLE
  5
151
102
{ACAD_REACTORS
330
152
102
}
330
1F
100
AcDbEntity
  8
1
 62
     1
100
AcDbCircle
 10
542.899150207208
 20
1228.86728637651
 30
0.0
 40
1.0
  0
HATCH
  5
152
330
1F
100
AcDbEntity
  8
1
 62
     1
100
AcDbHatch
 10
0.0
 20
0.0
 30
0.0
210
0.0
220
0.0
230
1.0
  2
SOLID
 70
     1
 71
     1
 91
        1
 92
        1
 93
        1
 72
     2
 10
542.899150207208
 20
1228.86728637651
 40
1.0
 50
0.0
 51
360.0
 73
     1
 97
        1
330
151
 75
     0
 76
     1
 98
        0
  0
LEADER
  5
153
330
1F
100
AcDbEntity
  8
1
  6
Continuous
 62
     1
100
AcDbLeader
  3
Standard
 71
     0
 76
     2
 10
542.899150207208
 20
1228.86728637651
 30
0.0
 10
527.0892881864297
 20
1268.391941428454
 30
0.0
  0
MTEXT
  5
155
330
1F
100
AcDbEntity
  8
1
 62
     1
100
AcDbMText
 10
524.229579978503
 20
1275.54121194827
 30
0.0
 40
7.0
 41
0.0
 71
     5
 72
     1
  1
1
  7
CONVERTER_11
 73
     1
 44
0.90036014405762
  0
DIMENSION
  5
161
330
1F
100
AcDbEntity
  8
1
100
AcDbDimension
  2
*D5
 10
493.8478992018953
 20
1190.5
 30
0.0
 11
486.8478992018953
 21
1135.70898998508
 31
0.0
 70
    33
  1
<>
 71
     5
 42
-1.0
 53
90.0
  3
ME10_DIM_10
100
AcDbAlignedDimension
 13
503.8478992018953
 23
1065.5
 33
0.0
 14
503.8478992018953
 24
1190.5
 34
0.0
  0
DIMENSION
  5
16C
330
1F
100
AcDbEntity
  8
1
100
AcDbDimension
  2
*D6
 10
585.2739713482547
 20
943.0000000000002
 30
0.0
 11
546.482640951214
 21
950.0000000000002
 31
0.0
 70
    32
  1
80
 71
     5
 42
-1.0
 53
0.00013888888889
  3
ME10_DIM_11
100
AcDbAlignedDimension
 13
508.8478992018953
 23
1081.118820407332
 33
0.0
 14
585.2739713482547
 24
953.0000000000002
 34
0.0
100
AcDbRotatedDimension
  0
ENDSEC
  0
SECTION
  2
OBJECTS
  0
DICTIONARY
  5
C
330
0
100
AcDbDictionary
281
     1
  3
ACAD_GROUP
350
D
  3
ACAD_LAYOUT
350
1A
  3
ACAD_MLINESTYLE
350
17
  3
ACAD_PLOTSETTINGS
350
19
  3
ACAD_PLOTSTYLENAME
350
E
  3
ACAD_TABLESTYLE
350
16D
  3
ACAD_VISUALSTYLE
350
2A
  0
DICTIONARY
  5
D
102
{ACAD_REACTORS
330
C
102
}
330
C
100
AcDbDictionary
281
     1
  0
DICTIONARY
  5
1A
102
{ACAD_REACTORS
330
C
102
}
330
C
100
AcDbDictionary
281
     1
  3
Layout1
350
1E
  3
Layout2
350
26
  3
Model
350
22
  0
DICTIONARY
  5
17
102
{ACAD_REACTORS
330
C
102
}
330
C
100
AcDbDictionary
281
     1
  3
Standard
350
18
  0
DICTIONARY
  5
19
102
{ACAD_REACTORS
330
C
102
}
330
C
100
AcDbDictionary
281
     1
  0
ACDBDICTIONARYWDFLT
  5
E
102
{ACAD_REACTORS
330
C
102
}
330
C
100
AcDbDictionary
281
     1
  3
Normal
350
F
100
AcDbDictionaryWithDefault
340
F
  0
DICTIONARY
  5
16D
102
{ACAD_REACTORS
330
C
102
}
330
C
100
AcDbDictionary
281
     1
  0
DICTIONARY
  5
2A
102
{ACAD_REACTORS
330
C
102
}
330
C
100
AcDbDictionary
281
     1
  3
2dWireframe
350
2F
  3
3D Hidden
350
31
  3
3dWireframe
350
30
  3
Basic
350
32
  3
Brighten
350
36
  3
ColorChange
350
3A
  3
Conceptual
350
34
  3
Dim
350
35
  3
Facepattern
350
39
  3
Flat
350
2B
  3
FlatWithEdges
350
2C
  3
Gouraud
350
2D
  3
GouraudWithEdges
350
2E
  3
Linepattern
350
38
  3
Realistic
350
33
  3
Thicken
350
37
  0
LAYOUT
  5
1E
102
{ACAD_REACTORS
330
1A
102
}
330
1A
100
AcDbPlotSettings
  1

  2
none_device
  4

  6

 40
0.0
 41
0.0
 42
0.0
 43
0.0
 44
0.0
 45
0.0
 46
0.0
 47
0.0
 48
0.0
 49
0.0
140
0.0
141
0.0
142
1.0
143
1.0
 70
   688
 72
     0
 73
     0
 74
     5
  7

 75
    16
147
1.0
148
0.0
149
0.0
100
AcDbLayout
  1
Layout1
 70
     1
 71
     1
 10
0.0
 20
0.0
 11
12.0
 21
9.0
 12
0.0
 22
0.0
 32
0.0
 14
1.00000000000000E+20
 24
1.00000000000000E+20
 34
1.00000000000000E+20
 15
-1.00000000000000E+20
 25
-1.00000000000000E+20
 35
-1.00000000000000E+20
146
0.0
 13
0.0
 23
0.0
 33
0.0
 16
1.0
 26
0.0
 36
0.0
 17
0.0
 27
1.0
 37
0.0
 76
     0
330
1B
  0
LAYOUT
  5
26
102
{ACAD_REACTORS
330
1A
102
}
330
1A
100
AcDbPlotSettings
  1

  2
none_device
  4

  6

 40
0.0
 41
0.0
 42
0.0
 43
0.0
 44
0.0
 45
0.0
 46
0.0
 47
0.0
 48
0.0
 49
0.0
140
0.0
141
0.0
142
1.0
143
1.0
 70
   688
 72
     0
 73
     0
 74
     5
  7

 75
    16
147
1.0
148
0.0
149
0.0
100
AcDbLayout
  1
Layout2
 70
     1
 71
     2
 10
0.0
 20
0.0
 11
0.0
 21
0.0
 12
0.0
 22
0.0
 32
0.0
 14
0.0
 24
0.0
 34
0.0
 15
0.0
 25
0.0
 35
0.0
146
0.0
 13
0.0
 23
0.0
 33
0.0
 16
1.0
 26
0.0
 36
0.0
 17
0.0
 27
1.0
 37
0.0
 76
     0
330
23
  0
LAYOUT
  5
22
102
{ACAD_REACTORS
330
1A
102
}
330
1A
100
AcDbPlotSettings
  1

  2
none_device
  4

  6

 40
0.0
 41
0.0
 42
0.0
 43
0.0
 44
0.0
 45
0.0
 46
0.0
 47
0.0
 48
0.0
 49
0.0
140
0.0
141
0.0
142
1.0
143
1.0
 70
  1712
 72
     0
 73
     0
 74
     0
  7

 75
     0
147
1.0
148
0.0
149
0.0
100
AcDbLayout
  1
Model
 70
     1
 71
     0
 10
0.0
 20
0.0
 11
12.0
 21
9.0
 12
0.0
 22
0.0
 32
0.0
 14
481.8478992018953
 24
878.0
 34
0.0
 15
589.686476975203
 25
1378.0
 35
0.0
146
0.0
 13
0.0
 23
0.0
 33
0.0
 16
1.0
 26
0.0
 36
0.0
 17
0.0
 27
1.0
 37
0.0
 76
     0
330
1F
331
29
  0
MLINESTYLE
  5
18
102
{ACAD_REACTORS
330
17
102
}
330
17
100
AcDbMlineStyle
  2
Standard
 70
     0
  3

 62
   256
 51
90.0
 52
90.0
 71
     2
 49
0.5
 62
   256
  6
BYLAYER
 49
-0.5
 62
   256
  6
BYLAYER
  0
ACDBPLACEHOLDER
  5
F
102
{ACAD_REACTORS
330
E
102
}
330
E
  0
VISUALSTYLE
  5
2F
102
{ACAD_REACTORS
330
2A
102
}
330
2A
100
AcDbVisualStyle
  2
2dWireframe
 70
     4
 71
     0
 72
     2
 73
     0
 90
        0
 40
-0.6
 41
-30.0
 62
     5
 63
     7
 74
     1
 91
        4
 64
     7
 65
   257
 75
     1
175
     1
 42
1.0
 92
        0
 66
   257
 43
1.0
 76
     1
 77
     6
 78
     2
 67
     7
 79
     5
170
     0
171
     0
290
     0
174
     0
 93
        1
 44
0.0
173
     0
291
     0
 45
0.0
1001
ACAD
1000
AcDbSavedByObjectVersion
1070
     0
  0
VISUALSTYLE
  5
31
102
{ACAD_REACTORS
330
2A
102
}
330
2A
100
AcDbVisualStyle
  2
3D Hidden
 70
     6
 71
     1
 72
     2
 73
     2
 90
        0
 40
-0.6
 41
-30.0
 62
     5
 63
     7
 74
     2
 91
        2
 64
     7
 65
   257
 75
     2
175
     1
 42
40.0
 92
        0
 66
   257
 43
1.0
 76
     1
 77
     6
 78
     2
 67
     7
 79
     3
170
     0
171
     0
290
     0
174
     0
 93
        1
 44
0.0
173
     0
291
     0
 45
0.0
1001
ACAD
1000
AcDbSavedByObjectVersion
1070
     0
  0
VISUALSTYLE
  5
30
102
{ACAD_REACTORS
330
2A
102
}
330
2A
100
AcDbVisualStyle
  2
3dWireframe
 70
     5
 71
     0
 72
     2
 73
     0
 90
        0
 40
-0.6
 41
-30.0
 62
     5
 63
     7
 74
     1
 91
        4
 64
     7
 65
   257
 75
     1
175
     1
 42
1.0
 92
        0
 66
   257
 43
1.0
 76
     1
 77
     6
 78
     2
 67
     7
 79
     5
170
     0
171
     0
290
     0
174
     0
 93
        1
 44
0.0
173
     0
291
     0
 45
0.0
1001
ACAD
1000
AcDbSavedByObjectVersion
1070
     0
  0
VISUALSTYLE
  5
32
102
{ACAD_REACTORS
330
2A
102
}
330
2A
100
AcDbVisualStyle
  2
Basic
 70
     7
 71
     1
 72
     0
 73
     1
 90
        0
 40
-0.6
 41
-30.0
 62
     5
 63
     7
 74
     0
 91
        4
 64
     7
 65
   257
 75
     1
175
     1
 42
1.0
 92
        8
 66
     7
 43
1.0
 76
     1
 77
     6
 78
     2
 67
     7
 79
     5
170
     0
171
     0
290
     0
174
     0
 93
        1
 44
0.0
173
     0
291
     1
 45
0.0
1001
ACAD
1000
AcDbSavedByObjectVersion
1070
     0
  0
VISUALSTYLE
  5
36
102
{ACAD_REACTORS
330
2A
102
}
330
2A
100
AcDbVisualStyle
  2
Brighten
 70
    12
 71
     2
 72
     2
 73
     0
 90
        0
 40
-0.6
 41
-30.0
 62
     5
 63
     7
 74
     1
 91
        4
 64
     7
 65
   257
 75
     1
175
     1
 42
1.0
 92
        8
 66
     7
 43
1.0
 76
     1
 77
     6
 78
     2
 67
     7
 79
     5
170
     0
171
     0
290
     0
174
     0
 93
        1
 44
50.0
173
     0
291
     1
 45
0.0
1001
ACAD
1000
AcDbSavedByObjectVersion
1070
     0
  0
VISUALSTYLE
  5
3A
102
{ACAD_REACTORS
330
2A
102
}
330
2A
100
AcDbVisualStyle
  2
ColorChange
 70
    16
 71
     2
 72
     2
 73
     3
 90
        0
 40
-0.6
 41
-30.0
 62
     5
 63
     8
 74
     1
 91
        4
 64
     7
 65
   257
 75
     1
175
     1
 42
1.0
 92
        8
 66
     8
 43
1.0
 76
     1
 77
     6
 78
     2
 67
     7
 79
     5
170
     0
171
     0
290
     0
174
     0
 93
        1
 44
0.0
173
     0
291
     1
 45
0.0
1001
ACAD
1000
AcDbSavedByObjectVersion
1070
     0
  0
VISUALSTYLE
  5
34
102
{ACAD_REACTORS
330
2A
102
}
330
2A
100
AcDbVisualStyle
  2
Conceptual
 70
     9
 71
     3
 72
     2
 73
     0
 90
        0
 40
-0.6
 41
-30.0
 62
     5
 63
     7
 74
     2
 91
        2
 64
     7
 65
   257
 75
     1
175
     1
 42
40.0
 92
        8
 66
     7
 43
1.0
 76
     1
 77
     6
 78
     2
 67
     7
 79
     3
170
     0
171
     0
290
     0
174
     0
 93
        1
 44
0.0
173
     0
291
     0
 45
0.0
1001
ACAD
1000
AcDbSavedByObjectVersion
1070
     0
  0
VISUALSTYLE
  5
35
102
{ACAD_REACTORS
330
2A
102
}
330
2A
100
AcDbVisualStyle
  2
Dim
 70
    11
 71
     2
 72
     2
 73
     0
 90
        0
 40
-0.6
 41
-30.0
 62
     5
 63
     7
 74
     1
 91
        4
 64
     7
 65
   257
 75
     1
175
     1
 42
1.0
 92
        8
 66
     7
 43
1.0
 76
     1
 77
     6
 78
     2
 67
     7
 79
     5
170
     0
171
     0
290
     0
174
     0
 93
        1
 44
-50.0
173
     0
291
     1
 45
0.0
1001
ACAD
1000
AcDbSavedByObjectVersion
1070
     0
  0
VISUALSTYLE
  5
39
102
{ACAD_REACTORS
330
2A
102
}
330
2A
100
AcDbVisualStyle
  2
Facepattern
 70
    15
 71
     2
 72
     2
 73
     0
 90
        0
 40
-0.6
 41
-30.0
 62
     5
 63
     7
 74
     1
 91
        4
 64
     7
 65
   257
 75
     1
175
     1
 42
1.0
 92
        8
 66
     7
 43
1.0
 76
     1
 77
     6
 78
     2
 67
     7
 79
     5
170
     0
171
     0
290
     0
174
     0
 93
        1
 44
0.0
173
     0
291
     1
 45
0.0
1001
ACAD
1000
AcDbSavedByObjectVersion
1070
     0
  0
VISUALSTYLE
  5
2B
102
{ACAD_REACTORS
330
2A
102
}
330
2A
100
AcDbVisualStyle
  2
Flat
 70
     0
 71
     2
 72
     1
 73
     1
 90
        2
 40
-0.6
 41
30.0
 62
     5
 63
     7
 74
     0
 91
        4
 64
     7
 65
   257
 75
     1
175
     1
 42
1.0
 92
        8
 66
     7
 43
1.0
 76
     1
 77
     6
 78
     2
 67
     7
 79
     5
170
     0
171
     0
290
     0
174
     0
 93
       13
 44
0.0
173
     0
291
     1
 45
0.0
1001
ACAD
1000
AcDbSavedByObjectVersion
1070
     0
  0
VISUALSTYLE
  5
2C
102
{ACAD_REACTORS
330
2A
102
}
330
2A
100
AcDbVisualStyle
  2
FlatWithEdges
 70
     1
 71
     2
 72
     1
 73
     1
 90
        2
 40
-0.6
 41
30.0
 62
     5
 63
     7
 74
     1
 91
        4
 64
     7
 65
   257
 75
     1
175
     1
 42
1.0
 92
        0
 66
   257
 43
1.0
 76
     1
 77
     6
 78
     2
 67
     7
 79
     5
170
     0
171
     0
290
     0
174
     0
 93
       13
 44
0.0
173
     0
291
     1
 45
0.0
1001
ACAD
1000
AcDbSavedByObjectVersion
1070
     0
  0
VISUALSTYLE
  5
2D
102
{ACAD_REACTORS
330
2A
102
}
330
2A
100
AcDbVisualStyle
  2
Gouraud
 70
     2
 71
     2
 72
     2
 73
     1
 90
        2
 40
-0.6
 41
30.0
 62
     5
 63
     7
 74
     0
 91
        4
 64
     7
 65
   257
 75
     1
175
     1
 42
1.0
 92
        0
 66
     7
 43
1.0
 76
     1
 77
     6
 78
     2
 67
     7
 79
     5
170
     0
171
     0
290
     0
174
     0
 93
       13
 44
0.0
173
     0
291
     1
 45
0.0
1001
ACAD
1000
AcDbSavedByObjectVersion
1070
     0
  0
VISUALSTYLE
  5
2E
102
{ACAD_REACTORS
330
2A
102
}
330
2A
100
AcDbVisualStyle
  2
GouraudWithEdges
 70
     3
 71
     2
 72
     2
 73
     1
 90
        2
 40
-0.6
 41
30.0
 62
     5
 63
     7
 74
     1
 91
        4
 64
     7
 65
   257
 75
     1
175
     1
 42
1.0
 92
        0
 66
   257
 43
1.0
 76
     1
 77
     6
 78
     2
 67
     7
 79
     5
170
     0
171
     0
290
     0
174
     0
 93
       13
 44
0.0
173
     0
291
     1
 45
0.0
1001
ACAD
1000
AcDbSavedByObjectVersion
1070
     0
  0
VISUALSTYLE
  5
38
102
{ACAD_REACTORS
330
2A
102
}
330
2A
100
AcDbVisualStyle
  2
Linepattern
 70
    14
 71
     2
 72
     2
 73
     0
 90
        0
 40
-0.6
 41
-30.0
 62
     5
 63
     7
 74
     1
 91
        4
 64
     7
 65
   257
 75
     7
175
     7
 42
1.0
 92
        8
 66
     7
 43
1.0
 76
     1
 77
     6
 78
     2
 67
     7
 79
     5
170
     0
171
     0
290
     0
174
     0
 93
        1
 44
0.0
173
     0
291
     1
 45
0.0
1001
ACAD
1000
AcDbSavedByObjectVersion
1070
     0
  0
VISUALSTYLE
  5
33
102
{ACAD_REACTORS
330
2A
102
}
330
2A
100
AcDbVisualStyle
  2
Realistic
 70
     8
 71
     2
 72
     2
 73
     0
 90
        0
 40
-0.6
 41
-30.0
 62
     5
 63
     7
 74
     1
 91
        0
 64
     7
 65
   257
 75
     1
175
     1
 42
1.0
 92
        8
 66
     8
 43
1.0
 76
     1
 77
     6
 78
     2
 67
     7
 79
     5
170
     0
171
     0
290
     0
174
     0
 93
       13
 44
0.0
173
     0
291
     0
 45
0.0
1001
ACAD
1000
AcDbSavedByObjectVersion
1070
     0
  0
VISUALSTYLE
  5
37
102
{ACAD_REACTORS
330
2A
102
}
330
2A
100
AcDbVisualStyle
  2
Thicken
 70
    13
 71
     2
 72
     2
 73
     0
 90
        0
 40
-0.6
 41
-30.0
 62
     5
 63
     7
 74
     1
 91
        4
 64
     7
 65
   257
 75
     1
175
     1
 42
1.0
 92
       12
 66
     7
 43
1.0
 76
     1
 77
     6
 78
     2
 67
     7
 79
     5
170
     0
171
     0
290
     0
174
     0
 93
        1
 44
0.0
173
     0
291
     1
 45
0.0
1001
ACAD
1000
AcDbSavedByObjectVersion
1070
     0
  0
ENDSEC
  0
EOF
